#TITLE:La Paga;
#SUBTITLE:;
#ARTIST:Juanes;
#TITLETRANSLIT:;
#SUBTITLETRANSLIT:;
#ARTISTTRANSLIT:;
#CREDIT:;
#BANNER:lapaga.png;
#BACKGROUND:lapagaBG.png;
#LYRICSPATH:;
#CDTITLE:;
#MUSIC:La_Paga.ogg;
#OFFSET:0.080;
#SAMPLESTART:63.000;
#SAMPLELENGTH:15.000;
#SELECTABLE:YES;
#BPMS:0.000=100.000;
#STOPS:;
#BGCHANGES:;
// cache tags:
#FIRSTBEAT:15.000;
#LASTBEAT:209.000;
#SONGFILENAME:Songs/Rodd's Revival/La Paga (Rodd Steps)/La Paga (Rodd Steps).sm;
#HASMUSIC:1;
#HASBANNER:1;
#MUSICLENGTH:128.616;
// end cache tags

//---------------dance-single - R. Farias----------------
#NOTES:
     dance-single:
     R. Farias:
     Challenge:
     9:
     0.661,0.589,0.241,0.389,0.544,514.000,31.000,50.000,20.000,0.000:

0000
0000
0000
0000
,
0000
0000
0000
0000
,
0000
0000
0000
0000
,
0000
0000
0000
0000
0000
0000
0000
0000
0000
0000
0000
0000
0001
0100
0010
0000
,
0110
0000
1010
0000
1000
0000
0100
1000
0100
0000
0010
0000
0001
0000
0100
0001
,
0100
0000
0010
0000
1000
0000
0100
0010
0100
0000
0010
0000
0001
0000
0100
0010
,
1000
0000
0100
0000
0001
0000
0100
0010
0100
0000
0010
0000
0001
0100
0010
0000
,
0100
0000
0001
0000
1000
0100
0010
0000
0100
0000
1000
0000
0001
0100
0001
0000
,
0100
0000
0020
0000
0030
1000
0100
0000
0010
0001
0100
0100
0010
1000
0002
0000
,
2003
0000
3200
0000
0320
0000
0031
0000
1000
0000
0001
0100
0010
0010
2000
0000
,
3200
0000
0310
0001
0000
0010
0001
0000
0100
0010
1000
1000
0100
0010
0002
0000
,
0203
0000
0310
0000
0110
0000
0010
0000
1010
0000
1000
1000
0100
0010
0200
0000
,
2300
0000
3001
0100
0000
0010
1000
0000
0100
0010
0001
0000
0001
0100
0010
0000
,
1000
0000
0100
0000
0110
0000
0010
0000
0011
0000
0001
0001
0100
0010
1000
0000
,
0100
0000
0010
0100
0000
1000
0010
0000
0100
0001
1000
0000
0100
0010
0002
0000
,
0203
0000
2300
0000
3200
0000
0320
0000
1030
0000
0100
0100
0010
0001
0100
0000
,
0010
0100
0001
0000
1000
0100
0010
0000
0001
0100
0010
0000
1000
0001
1000
1000
,
0001
1000
0001
0000
0201
0000
0310
0000
0010
1000
0100
0000
0010
0000
0110
0000
,
0010
0000
0021
0000
0031
0100
0010
0000
0010
1000
0100
0000
0100
0010
0001
1000
,
0001
0100
0010
0000
0110
0000
0010
0000
1010
0000
1000
1000
0100
1000
0100
0100
,
1000
0100
2000
0000
0000
3001
0100
0000
0010
1000
0001
0001
0100
0010
1000
0000
,
0100
0000
0010
0000
0110
0000
0010
0000
0011
0000
0001
0001
0100
0010
1000
0000
,
0100
0000
0010
0000
0100
1000
0001
0000
0100
0010
0100
0100
0010
0100
0010
0000
,
1000
0000
0100
0000
1100
0000
1000
0000
1001
0000
0001
0001
0100
0010
0100
0000
,
0001
1000
0100
0000
0010
0001
0100
0000
0010
0000
0100
0000
0001
1000
0100
0000
,
0010
0000
0001
0000
1001
0000
0001
0000
0101
0000
0100
0100
0010
1000
0200
0000
,
0320
0000
0230
0000
1300
0001
0100
0000
0020
0000
0230
0000
0310
1000
0010
0000
,
0010
0000
1000
0000
1010
0000
1000
0000
1100
0000
0100
0100
0010
0001
2000
0000
,
3001
M1M1
0100
M11M
0010
1M1M
1000
11MM
,
1000
0000
1MM1
0000
0001
0000
0100
0100
0010
0100
0010
1000
0010
1000
0200
0000
,
0320
0000
0230
0000
2300
0000
3002
0000
0103
0000
0010
1000
0000
0010
1000
0000
,
0100
0000
0010
0000
0001
0000
0100
0100
0010
1000
0001
1000
0100
0010
0002
0000
,
0203
0000
0320
0030
0200
0000
0302
0000
1003
0000
0100
0010
0000
0100
0010
0000
,
0001
0000
1000
0000
0100
0000
0010
0010
0001
0100
0010
0100
0001
1000
0200
0000
,
0320
0000
0032
0000
0023
0000
0230
0000
1300
0000
0001
0100
0000
0001
0100
0000
,
0010
0000
0100
0000
0001
0000
1000
1000
0100
1000
0010
0100
0001
1000
0100
0000
,
0010
0000
0001
0000
0100
0010
1000
0000
0100
0010
0001
0001
0100
0010
0200
0000
,
0302
0000
2003
0000
3200
0000
0010
0000
0310
0000
0001
0001
0100
0010
1000
0000
,
0100
0000
0010
0100
0000
1000
0001
0000
0100
0010
1000
1000
0100
0010
0100
0000
,
1000
0000
0001
0000
0200
0000
0010
0000
0310
0000
1000
1000
0001
1000
0001
0000
,
0100
0000
0010
1000
0000
0010
1000
0000
0100
0010
0001
0000
0001
0100
0020
0000
,
0230
0000
0302
0000
2003
0000
3100
0000
0001
0000
0100
0100
0010
0100
0010
0000
,
0001
0000
1000
0100
0000
0010
0001
0000
0100
0010
1000
0000
1000
0100
0010
0000
,
0100
0000
1000
0000
0001
0000
0100
0000
0010
0000
1000
1000
0100
0010
0100
0000
,
1000
1MM1
0001
M1M1
0100
M11M
0010
1M1M
,
1000
0000
11MM
0000
0100
0000
0010
0010
0001
0010
0001
0001
0100
0010
1000
0000
,
0100
0000
0001
0000
0100
0000
0010
0000
0001
0000
0100
0010
0000
0010
1000
0000
,
0100
0000
0010
0000
0100
0000
1000
1000
0001
1000
0001
0001
1000
0001
0100
0000
,
0010
0000
1010
0000
1000
0000
1100
0000
0100
0000
0010
0001
0000
0010
0001
0000
,
0100
0000
0010
0000
0100
0000
0001
0001
1000
0001
1000
1000
0100
0010
0100
0000
,
1000
0000
0001
0000
0100
0000
1000
0000
0100
0000
0010
1000
0000
0100
0010
0000
,
0001
0000
0100
0000
0010
0000
0100
0100
0010
0100
0010
0010
0100
0010
1000
0000
,
0100
0020
0030
0000
0000
0000
0000
0000
;
