#TITLE:TRIP MACHINE;
#SUBTITLE:X2miX;
#ARTIST:DE-SIRE and X2;
#TITLETRANSLIT:;
#SUBTITLETRANSLIT:;
#ARTISTTRANSLIT:;
#CREDIT:;
#BANNER:Trip Machine(X2miX).png;
#BACKGROUND:Trip Machine(X2miX)-bg.png;
#LYRICSPATH:;
#CDTITLE:cdtitle.PNG;
#MUSIC:Trip Machine(X2miX).mp3;
#OFFSET:-6.020;
#SAMPLESTART:37.500;
#SAMPLELENGTH:12.000;
#SELECTABLE:YES;
#BPMS:0.000=160.100;
#STOPS:25.000=0.040
;
#BGCHANGES:;
// cache tags:
#FIRSTBEAT:1.000;
#LASTBEAT:241.000;
#SONGFILENAME:Songs/new/Trip Machine(X2miX)/Trip Machine(X2miX).sm;
#HASMUSIC:1;
#HASBANNER:1;
#MUSICLENGTH:98.750;
// end cache tags

//---------------dance-single - ----------------
#NOTES:
     dance-single:
     :
     Hard:
     9:
     0.512,0.549,0.385,0.041,0.000,312.000,38.000,4.000,0.000,0.000:
0000
0000
0101
0000
0100
0000
1000
0010
,
0001
0000
0101
0000
0100
0000
0001
0100
,
1000
0000
0101
0000
0010
0000
1000
0010
,
0001
0000
0101
0000
0100
0000
1000
0010
,
0001
0100
1000
0000
1100
0000
0100
0000
,
0011
0100
1010
0100
,
0101
0110
1010
0110
,
1010
0110
0101
0110
,
1010
0000
0100
1000
0100
0001
0100
1000
,
0010
0001
0010
1000
0100
0001
0100
1000
,
0010
0001
0010
0000
1000
0000
0001
0100
,
1000
0000
1000
0000
0001
0100
1000
0010
,
0001
0100
1000
0000
0001
0000
1000
0100
,
0001
0000
0001
0000
1000
0100
0001
0010
,
1000
0100
0001
0000
0100
0000
0001
0010
,
1000
0000
1000
0000
0001
0010
1000
0100
,
0001
0010
1000
0000
0100
0000
1000
0010
,
0001
0000
0001
0000
1000
0010
0001
0100
,
1000
0010
0001
0000
1000
0100
0001
0000
,
0010
1000
0100
0000
0001
0100
1000
0000
,
0010
0001
0100
0000
1000
0010
0001
0000
,
0100
1000
0010
0000
0001
0010
1000
0100
,
0001
0010
1000
0000
0001
0100
1000
0000
,
1000
1000
1000
0000
1000
0010
0001
0000
,
0001
0001
0001
0000
0001
0100
1000
0000
,
1000
1000
1000
0000
1000
0100
0001
0000
,
1100
0000
2002
0000
3003
0000
0000
0110
,
0000
1010
0101
0000
0100
0000
0000
1100
,
0000
0101
0000
1010
0101
1000
0100
0001
,
0000
0001
0010
1000
0100
0001
0000
1000
,
0010
0001
1001
0000
0000
0000
0000
0110
,
0000
1010
0000
0101
1010
0000
0000
0001
,
0100
1000
1001
0000
0000
0000
0000
0101
,
0000
1010
0000
0001
0100
1000
1010
0000
,
1001
1000
0010
0001
,
0100
0000
1000
0000
0010
0000
0001
0010
,
1000
0001
0100
1000
,
0010
0000
0001
0000
0100
0000
1000
0010
,
0001
0100
1000
0000
0010
0000
0001
0000
,
0100
0000
1000
0000
0010
0000
0001
0100
,
1000
0010
0001
0100
,
1000
0000
0010
0000
0001
0000
1000
0100
,
0001
1001
0000
0000
,
0000
0000
0001
0100
1000
0000
0001
0100
,
1000
0000
1000
0100
0001
0010
0000
1000
,
0100
0000
1000
0010
0001
0000
1000
0010
,
0001
0000
1000
0000
0100
0000
0001
0010
,
1000
0000
0100
0000
0001
0000
0010
1000
,
0100
0000
0001
0000
0010
0000
1000
0100
,
0001
0000
0010
0000
1000
0000
0010
0001
,
0100
0000
1000
0000
0100
0000
0000
0001
,
0000
0100
0000
0010
1000
0100
0000
0001
,
0100
1000
0000
1000
0010
0000
0100
0000
,
0000
0001
0000
0100
0000
1000
0100
0001
,
0000
0001
0010
1000
0000
1000
0100
0001
,
0000
1001
0000
1000
0100
0001
0010
1000
,
0100
0001
0010
1000
0000
1000
0010
0000
,
0001
0100
0000
1000
0010
0000
0000
0001
,
0100
1000
0010
0001
0000
1000
0010
0000
,
0100
0001
0000
1000
2002
0000
0000
0000
,
0000
3003
0000
0000
;
