#TITLE:SPHERE;
#SUBTITLE:;
#ARTIST:Tatsh feat. K.Nayuki;
#TITLETRANSLIT:;
#SUBTITLETRANSLIT:;
#ARTISTTRANSLIT:;
#CREDIT:;
#BANNER:SPHERE-bn.png;
#BACKGROUND:SPHERE-bg.png;
#LYRICSPATH:;
#CDTITLE:CDtitle.PNG;
#MUSIC:sphere.mp3;
#OFFSET:-0.207;
#SAMPLESTART:36.196;
#SAMPLELENGTH:13.500;
#SELECTABLE:YES;
#BPMS:0.000=160.000,68.000=120.000,92.000=160.000;
#STOPS:164.000=0.380
;
#BGCHANGES:8.000=spherelogo.avi=1.000=1=0=1,
16.000=shere1.avi=1.000=0=0=1,
24.000=sphere1-2.avi=1.000=0=0=1,
32.000=sphere2.avi=1.000=0=0=1,
48.000=sphere1-2.avi=1.000=0=1=1,
56.000=sphere3.avi=1.000=0=1=1,
64.000=SPHERE-bg.png=1.000=1=0=1,
68.000=sphereorgan.avi=1.000=0=0=1,
92.000=sphereloop.avi=1.000=0=0=1,
108.000=sphere1-2.avi=1.000=0=0=1,
116.000=shere1.avi=1.000=0=0=1,
124.000=sphere2.avi=1.000=0=0=1,
140.000=sphere3.avi=1.000=0=0=1,
148.000=spherelogo.avi=1.000=0=0=1,
164.000=SPHERE-bg.png=1.000=0=0=1,
167.000=sphere2.avi=1.000=0=0=1,
175.000=sphere3.avi=1.000=0=0=1,
183.000=sphereloop.avi=1.000=0=0=1,
191.000=sphere1-2.avi=1.000=0=0=1,
199.000=sphere2.avi=2.000=0=0=1,
203.000=shere1.avi=2.000=0=0=1,
207.000=spherelogo.avi=2.000=0=0=1,
211.000=SPHERE-bg.png=1.000=0=0=1,
215.000=sphereloop.avi=1.000=0=0=1,
219.000=shere1.avi=2.000=0=0=1,
223.000=sphere1-2.avi=2.000=0=0=1,
227.000=sphereorgan.avi=1.000=0=0=1,
251.000=sphereloop.avi=1.000=0=0=1,
253.000=sphere2.avi=2.000=0=0=1,
255.000=SPHERE-bg.png=1.000=0=0=1,
256.000=sphere3.avi=2.000=0=0=1,
257.000=sphere1-2.avi=2.000=0=0=1,
258.000=sphereloop.avi=2.000=0=0=1,
259.000=shere1.avi=2.000=0=0=1,
259.500=sphere1-2.avi=2.000=0=0=1,
260.000=sphere2.avi=2.000=0=0=1,
260.500=sphere3.avi=2.000=0=0=1,
261.000=spherelogo.avi=2.000=0=0=1,
261.500=sphere2.avi=2.000=0=0=1,
262.000=spherelogo.avi=2.000=0=0=1,
262.500=sphere1-2.avi=2.000=0=0=1,
263.000=shere1.avi=2.000=0=0=1,
263.250=sphere1-2.avi=1.000=0=0=1,
263.750=sphere3.avi=1.000=0=0=1,
264.250=sphereloop.avi=1.000=0=0=1,
264.750=shere1.avi=1.000=0=0=1,
265.250=sphereorgan.avi=1.000=0=0=1,
265.750=sphere2.avi=1.000=0=0=1,
266.250=sphereloop.avi=1.000=0=0=1,
267.000=SPHERE-bg.png=1.000=0=0=1,
99999=-nosongbg-=1.000=0=0=0 // don't automatically add -songbackground-
;
// cache tags:
#FIRSTBEAT:8.000;
#LASTBEAT:275.000;
#SONGFILENAME:Songs/toune 2/Sphere/sphere.sm;
#HASMUSIC:1;
#HASBANNER:1;
#MUSICLENGTH:109.590;
// end cache tags

//---------------dance-single - ----------------
#NOTES:
     dance-single:
     :
     Challenge:
     8:
     0.555,0.565,0.036,0.082,0.169,413.000,4.000,9.000,0.000,0.000:
0000
0000
0000
0000
,
0000
0000
0000
0000
,
1001
0000
0000
1000
0100
1000
0001
1000
,
0200
0000
0000
0300
,
1000
0100
0000
0000
0010
0000
0001
0000
0010
0000
0100
0000
1000
0000
0000
0000
,
0100
0010
0010
0010
,
0001
0100
0000
0000
0010
0000
1000
0000
0010
0000
0100
0000
0001
0000
0000
0000
,
0020
0000
0000
0000
0001
0000
0001
0030
,
0001
1000
0100
0010
0001
0100
0010
1000
,
0100
0010
0000
0010
0000
0000
0001
0000
0000
1000
0000
0000
0001
0000
1000
0000
,
0001
0010
0000
0000
0100
0000
1000
0000
0100
0000
1000
0000
0001
0000
0010
0000
,
0001
1000
0000
0001
0000
0000
1000
0000
0001
0000
0001
0000
0000
1000
0000
0000
,
0001
0010
0001
0010
0100
0000
0100
1000
,
0001
0100
0001
1000
0001
0000
0001
0100
,
0001
1000
0001
0100
0001
0100
0010
0100
,
0001
1000
0010
1000
0001
1000
0002
0200
,
0000
0000
0000
0303
,
0101
0000
0000
0000
0000
0000
0001
0000
0000
0100
0000
0000
0001
0000
0000
0000
0000
0000
0001
0000
0000
0000
0000
0000
0001
0000
0000
0000
0000
0000
1000
0000
,
0000
0001
0000
0000
1000
0000
0000
0000
0000
0000
1000
0000
0000
0000
0000
0000
0010
0000
0000
1000
0000
0000
0010
0000
0000
0000
0000
0000
0010
0000
0000
0000
,
0000
0000
0010
0000
0000
0000
0000
0000
0100
0000
0000
0010
0000
0000
0100
0000
0000
0000
0000
0000
0100
0000
0000
0000
0000
0000
0100
0000
0000
0000
0000
0000
,
0100
0000
0000
0000
0000
0000
0001
0000
0000
0100
0000
0000
0001
0000
0000
0000
0000
0000
0001
0000
0000
0000
0000
0000
0001
0000
0000
0000
0000
0000
0010
0000
,
0000
0001
0000
0000
0010
0000
0000
0000
0000
0000
0010
0000
0000
0000
0000
0000
0001
0000
0000
1000
0000
0000
0001
0000
0000
0000
0000
0000
0001
0000
0000
0000
,
0000
0000
0001
0000
0000
0000
0000
0000
0100
0000
0000
0001
0000
0000
0100
0000
0000
0000
0000
0000
0100
0000
0000
0000
0000
0000
0100
0000
0000
0000
0000
0000
,
0001
1000
0010
0100
0001
1000
0010
0000
,
0010
0100
1000
0100
0010
1000
0100
0000
,
0100
0001
0100
1000
0001
0010
0100
0000
,
0100
1000
0010
0001
0010
1000
0100
0000
,
0100
0010
0001
0100
1000
0100
0001
0000
,
0001
0010
1000
0010
0001
0010
0100
0000
,
0100
0001
0100
1000
0001
0010
0100
1000
,
0001
0100
0010
1000
0001
0100
0010
1000
,
0001
1000
0001
0100
0001
1000
1000
0000
,
0100
0010
0100
1000
0100
0010
0100
1000
,
0100
0100
0010
0001
0100
0010
1000
0000
,
0100
0100
0010
0010
0001
0001
1000
0100
,
0010
0001
1000
0001
0000
0010
0100
0010
,
0000
1000
0010
1000
0000
0010
0001
0010
,
0100
1000
0100
0010
0000
0100
0010
0001
,
0100
0010
0100
0002
0000
0013
0100
0000
,
1000
0100
1000
0100
1000
0000
0000
0000
0001
0010
0001
0010
0001
0000
0000
0000
,
1000
1000
0001
0001
,
2002
3003
1000
0100
0010
0001
1000
0000
,
0001
0001
1000
1000
,
0010
0010
0100
0100
,
0001
1000
0010
0100
,
0001
0010
0100
1000
,
0001
0100
1000
0100
,
0001
1000
0100
0001
,
0100
1000
0001
0001
0100
0010
0100
0000
,
0001
0010
0100
1000
0001
0000
0001
0000
,
0010
0100
1000
0001
0010
0000
0010
0000
,
0100
1000
0001
0010
0100
0000
0100
0000
,
1000
0001
0010
0100
1000
0001
0010
0000
,
0001
0000
0010
0000
0001
0010
0001
0000
,
1000
0000
0100
0000
1000
0100
1000
0000
,
0001
1000
0001
1000
,
0010
0000
0100
0000
0010
0000
0100
0010
,
0100
0010
0010
1000
0001
1000
0001
1000
,
0010
1000
0010
0010
0100
0100
0001
1000
,
0100
0100
0001
0100
1000
0100
0001
0100
,
1000
0001
0010
0010
1000
0010
0001
1000
,
0100
0010
0001
0001
0100
0010
0100
0000
,
0001
1000
0001
1000
0001
0100
0010
1000
,
0010
0000
0100
0001
0100
0000
0001
0010
,
0001
0010
0100
1000
0100
1000
0001
1000
,
0001
0100
0010
1000
0001
1000
0010
0100
,
0010
0100
0001
1000
0010
0100
0220
0000
,
0000
0000
0000
0000
,
0000
0000
0000
0330
;

//---------------dance-single - ----------------
#NOTES:
     dance-single:
     :
     Hard:
     7:
     0.489,0.533,0.456,0.246,0.068,298.000,50.000,27.000,0.000,0.000:
0000
0000
0000
0000
,
0000
0000
0000
0000
,
1001
0000
0001
0010
,
2200
0000
0000
3300
,
1000
0100
0000
0000
1000
0000
0000
0000
0001
0000
0100
0000
0001
0000
0000
0000
,
0022
0000
0000
0033
,
0001
0010
0000
0000
0001
0000
0000
0000
1000
0000
0100
0000
0010
0000
0000
0000
,
2002
0003
0010
3010
,
1001
0000
0010
0000
1000
0100
1000
0000
,
0001
0010
0000
0001
0000
0000
1000
0000
0000
0100
0000
0000
1000
0000
0001
0000
,
0100
0100
0101
1010
,
0001
0010
0000
0100
0000
0000
1000
0000
0010
0000
0100
0000
0000
0010
0000
0000
,
1000
0100
1010
0100
,
0011
0100
0011
0100
,
1001
1001
1001
1001
,
0100
0010
1000
0001
0010
0100
1000
0000
,
0220
0000
0000
0330
,
0200
0000
0000
0000
0000
0000
0000
0000
0000
0001
0000
0000
0002
0000
0000
0000
,
0000
0000
0303
0000
0110
0000
0000
1001
,
0000
0000
0000
0000
0101
0000
0000
2000
0000
0000
0020
0000
0000
0030
0000
0000
,
0002
0000
0000
0000
3000
0000
0000
0000
0000
1003
0000
0000
2200
0000
0000
0000
,
0000
0000
0000
0000
0000
0000
0000
0000
3300
0000
0000
0000
0000
0000
1000
0000
0000
0001
0000
0000
0000
0000
0000
0000
0000
0000
0000
0000
0110
0000
0000
0000
,
0000
0000
0000
0000
1000
0000
0000
1000
0000
0000
1001
0000
0000
1001
0000
0000
,
0001
0010
0001
0010
0001
0000
0100
0000
,
0010
1000
0010
1000
0010
0000
0100
0000
,
0010
0001
0010
0001
0010
0000
0100
0000
,
0001
0010
0100
1000
,
0010
0100
0001
0100
0010
1000
0010
0000
,
0100
0001
0100
0010
1000
0010
0100
0000
,
0001
0001
1001
0110
,
0002
0000
0000
0000
2000
0000
0000
3003
,
1000
0000
0001
0010
0000
0001
0100
0000
,
1010
0101
0011
1001
,
0010
0000
1000
0100
0000
0010
0001
0000
,
1000
1010
0001
0011
,
1000
0000
0001
0010
0000
0001
0100
1000
,
0000
0100
0001
0010
0000
1000
0010
0000
,
0001
1000
0001
1000
0000
0010
0100
0001
,
1000
0100
0010
0001
0000
1000
1000
0000
,
0001
0001
1000
1001
,
0010
0110
0010
0110
,
1001
0000
0220
0000
0000
0330
1000
0000
,
0100
0010
0001
0100
,
1000
0001
0010
1000
,
1001
0010
1001
0100
,
0010
1000
0200
0000
,
1000
1000
1300
0001
,
0010
0100
1000
0001
,
0100
0100
0010
0010
1000
1000
0001
0000
,
0220
0000
0330
1000
,
0220
0000
0330
0010
,
1002
0000
0100
0000
0103
0000
0001
1000
,
0001
1001
1100
0001
,
0110
0000
0100
0000
0010
1000
0010
0000
,
0110
0000
0100
0000
0001
0010
0001
0000
,
1000
0010
0100
0001
,
0010
0100
1000
1001
,
0001
0000
1000
0010
1000
0000
1001
0000
,
1000
0000
0001
0010
0001
0000
0110
0000
,
0001
0000
1000
0100
1000
0000
0110
0000
,
1000
0000
0001
0100
0001
1000
0010
0000
,
0110
0000
1000
0100
0010
0001
0100
0000
,
0100
0000
0001
1000
0001
0000
1000
0100
,
1000
0000
0010
0100
0010
0000
1000
0010
,
1000
0010
0100
0001
0100
0001
1000
0100
,
1000
0100
0010
0001
0010
0001
1000
0100
,
0010
0001
0010
0100
1000
0000
0220
0000
,
0000
0000
0000
0000
,
0000
0000
0000
0330
;

//---------------dance-single - ----------------
#NOTES:
     dance-single:
     :
     Medium:
     6:
     0.438,0.533,0.356,0.265,0.023,268.000,39.000,29.000,0.000,0.000:
0000
0000
0000
0000
,
0000
0000
0000
0000
,
1001
0000
0100
0010
,
0220
0000
0000
0330
,
0100
0010
0000
0000
0000
0000
0000
0000
1000
0000
0000
0000
0100
0000
0000
0000
,
0220
0000
0000
0330
,
0010
0100
0000
0000
0000
0000
0000
0000
0001
0000
0000
0000
0010
0000
0000
0000
,
0220
0030
0010
0310
,
1000
0100
0010
0001
,
1000
0010
0001
0000
0010
0000
1000
0000
,
0001
0010
0100
1000
,
0001
0010
1000
0000
0010
0000
0010
0000
,
0001
1001
0001
1001
,
0100
0110
0100
0110
,
0001
0101
0001
0101
,
1000
1010
1000
1010
,
2002
0000
0000
3003
,
2000
0000
0000
0002
,
0000
0000
3003
0000
0200
0000
0000
0302
,
0000
0000
0000
0000
2003
0000
0000
0010
0000
0000
3010
0000
0000
0000
0000
0000
,
0200
0000
0000
0002
,
0000
0000
0303
0000
2000
0000
0000
3200
,
0000
0000
0000
0000
0310
0000
0000
0010
0000
0000
0110
0000
0000
0110
0000
0000
,
1000
0100
1000
0000
0001
0000
0001
0000
,
0010
0100
0010
0000
0001
0000
0001
0000
,
1000
0010
1000
0000
0001
0000
0001
0000
,
1000
1001
0001
1001
,
0100
0010
0100
0010
0100
0000
0010
0000
,
1000
0100
1000
0100
1000
0000
0100
0000
,
0010
0001
0010
0001
0010
0000
0001
0000
,
0100
0110
0010
0110
,
1000
0000
0001
1000
0000
0001
1000
0000
,
0100
0001
0100
1000
,
0100
0000
0010
0100
0000
0010
0100
0000
,
0010
1000
0010
0001
,
1000
0001
1000
0001
0000
0100
0010
0100
,
0000
0001
0100
0001
0000
1000
0001
0000
,
0100
0010
0001
0010
,
0100
0000
0001
1000
0000
0001
1000
0000
,
0010
0010
0100
0100
,
0001
1001
1000
1001
,
0110
0002
0000
2003
,
0001
3002
0100
0203
,
0010
0320
1000
2030
,
0100
3200
0010
0320
,
0001
0032
1000
2003
,
0001
3001
0100
0010
,
1000
0100
0010
0001
,
1000
0001
1000
0001
1000
0001
0100
0000
,
0110
0000
0000
0001
,
1001
0000
0000
0100
,
0101
0000
1001
0000
,
1010
1000
1001
0010
,
0110
0000
0001
1001
,
1000
1001
0000
0100
,
0101
0010
1010
1000
,
1001
0001
1001
1000
,
0001
0000
1000
0010
1000
0000
0001
0000
,
1000
0000
0001
0010
0001
0000
1000
0000
,
0001
0000
1000
0100
1000
0000
0001
0000
,
1000
0000
0001
0100
0001
0000
1000
0000
,
1001
0001
1001
0100
,
0000
0000
0001
0000
1001
0000
0001
1000
,
0001
0000
1000
0001
1000
0000
0001
1000
,
0001
1000
0001
0100
0001
0100
0001
0010
,
0001
0010
0100
1000
0100
1000
0100
0010
,
0100
0010
0001
0010
0100
0000
0220
0000
,
0000
0000
0000
0000
,
0000
0000
0000
0330
;

//---------------dance-single - ----------------
#NOTES:
     dance-single:
     :
     Easy:
     5:
     0.361,0.471,0.201,0.228,0.000,230.000,22.000,25.000,0.000,0.000:
0000
0000
0000
0000
,
0000
0000
0000
0000
,
1001
0000
0010
0100
,
0020
0000
0000
0030
,
1000
1000
0001
0100
,
0002
0000
0000
0003
,
1000
1000
0100
0001
,
0200
0000
0010
0310
,
1000
0001
1000
0001
,
0100
0100
0010
0010
,
0100
0001
0100
0001
,
0100
0100
0010
0010
,
1000
1001
1000
1001
,
0010
0110
0010
0110
,
1000
1010
1000
1010
,
0001
1000
0001
1000
0010
0100
0010
0000
,
0220
0000
0000
0330
,
2000
0000
0000
0002
,
0000
0000
3003
0000
0200
0000
0000
0320
,
0000
0000
2030
0000
0000
3200
0000
0000
,
0320
0000
0000
0032
,
0000
0000
0000
0000
2003
0000
0000
3020
,
0000
0000
0230
0000
0000
0302
0000
0000
,
1003
0010
0001
0010
,
1000
0010
0001
0010
,
1000
0100
0001
0100
,
1000
0100
0001
0100
,
1000
0001
1000
0001
,
0100
0010
0100
0010
,
1000
0100
0010
0001
,
2000
0000
0002
3003
,
1001
0000
0000
1010
0000
0000
0101
0000
,
0000
0100
0010
0100
,
0110
0000
0000
1100
0000
0000
0011
0000
,
0000
0001
1000
0001
,
1000
0000
0100
1000
0000
0000
1000
0000
,
0001
0000
0010
0001
0000
0000
0001
0000
,
1000
0000
0001
1000
0000
0000
1000
0000
,
0010
0000
0100
0010
0000
0000
0100
0000
,
0001
0100
0010
1000
,
0001
0001
1000
1000
,
0010
0220
0330
2002
,
0000
3003
1000
0100
,
1000
0100
0010
0001
,
0010
0001
1000
0010
,
1000
0010
0001
0010
,
0001
0010
1000
0100
,
0010
0001
1000
0100
,
0010
0010
0100
0100
,
1000
1000
0001
0100
,
0010
0010
1000
1000
,
0100
0010
0001
0100
,
0010
1000
0001
1001
,
0000
0100
0010
0110
,
0000
1000
0100
1100
,
0000
0001
0100
0101
,
0001
0101
0100
0001
,
1000
0001
1000
0010
,
0100
0010
0100
0001
,
0100
0000
0001
0100
0001
0000
1000
0000
,
0100
1000
0100
0001
,
0100
1000
0001
0100
,
0000
0000
0010
0000
1000
0000
0001
0100
,
0001
0000
0100
0000
0001
0000
1000
0100
,
1000
0100
1000
0001
,
0010
0100
1000
0001
,
0100
0010
1000
2002
,
0000
0000
0000
0000
,
0000
0000
0000
3003
;

//---------------dance-single - ----------------
#NOTES:
     dance-single:
     :
     Beginner:
     2:
     0.163,0.188,0.100,0.018,0.000,112.000,11.000,2.000,0.000,0.000:
0000
0000
0000
0000
,
0000
0000
0000
0000
,
0001
0000
0001
0000
,
0001
0000
0000
0000
,
1000
0000
1000
0000
,
1000
0000
0000
0000
,
0010
0000
0010
0000
,
0010
0000
0000
0000
,
1000
0000
0100
0000
,
1000
0000
0100
0000
,
0010
0000
0001
0000
,
0010
0000
0001
0000
,
1000
0000
0001
0000
,
1000
0000
0001
0000
,
0100
0000
0010
0000
,
0100
0000
0010
0000
,
1001
0000
0000
0000
,
1001
0000
0000
0110
,
0000
0000
1010
0000
,
0000
0101
0000
0000
,
1001
0000
0000
0110
,
0000
0000
1100
0000
,
0000
0011
0000
0000
,
1000
0000
0100
0000
,
0001
0000
0100
0000
,
1000
0000
0010
0000
,
0001
0000
0010
0000
,
1000
0000
0100
0000
,
0010
0000
0001
0000
,
1000
0000
0010
0000
,
0100
0000
0001
0000
,
1000
0000
1000
0000
,
1000
0000
0000
0000
,
0001
0000
0001
0000
,
0001
0000
0000
0000
,
0100
0000
0000
0000
,
0010
0000
0000
0000
,
1000
0000
0000
0000
,
0001
0000
0000
0000
,
0100
0000
0100
0000
,
0010
0000
0010
0000
,
0110
0000
0000
1000
,
0000
1000
0000
0001
,
0000
0001
0000
0100
,
0000
0100
0000
0010
,
0000
0010
0000
1000
,
0000
0100
0000
1000
,
0000
0100
0000
0010
,
0000
0001
0000
0010
,
0000
0010
0000
0100
,
0000
0100
0000
1000
,
0000
1000
0000
0001
,
0000
1000
0000
0001
,
0000
0000
0000
0100
,
0000
0000
0000
0010
,
0000
0000
0000
1000
,
0000
0000
0000
0001
,
0000
0100
0000
1000
,
0000
0100
0000
0001
,
0000
0010
0000
1000
,
0000
0010
0000
0001
,
0000
0100
0000
1000
,
0000
0001
0000
0010
,
0000
1000
0000
0100
,
0000
0010
0000
0001
,
0000
0100
0000
0010
,
0000
1000
0000
2002
,
0000
0000
0000
0000
,
0000
0000
0000
3003
;
