#TITLE:Battle With Exdeath;
#SUBTITLE:Final Fantasy V (1992);
#ARTIST:植松伸夫;
#TITLETRANSLIT:;
#SUBTITLETRANSLIT:;
#ARTISTTRANSLIT:Nobuo Uematsu;
#CREDIT:;
#BANNER:Battle With Exdeath.jpg;
#BACKGROUND:Battle With Exdeath-bg.jpg;
#LYRICSPATH:;
#CDTITLE:!yesssss-cdtitle.png;
#MUSIC:Battle With Exdeath.mp3;
#OFFSET:-0.066;
#SAMPLESTART:89.160;
#SAMPLELENGTH:12.000;
#SELECTABLE:YES;
#BPMS:0.000=84.000,15.000=80.000,16.000=168.500,42.000=167.500,104.000=166.000,120.000=167.000,128.000=165.000,160.000=166.800,192.000=165.000,200.000=166.800,232.000=166.300,256.000=164.300,280.000=168.000,288.000=167.200,318.000=164.000,320.000=167.800,352.000=175.000,353.000=167.600;
#STOPS:319.667=0.010
;
#BGCHANGES:;
// cache tags:
#FIRSTBEAT:0.000;
#LASTBEAT:416.000;
#SONGFILENAME:Songs/VGMP 3/Battle With Exdeath (Yesssss)/Battle With Exdeath.sm;
#HASMUSIC:1;
#HASBANNER:1;
#MUSICLENGTH:160.365;
// end cache tags

//---------------dance-single - ----------------
#NOTES:
     dance-single:
     :
     Hard:
     12:
     1.000,1.000,0.935,0.954,1.000,900.000,150.000,153.000,0.000,44.000:

1100
0000
0000
0000
0000
0000
0002
0000
0000
1003
0100
0010
0200
0000
0000
0000
0000
0000
0320
0000
0000
0031
1000
0001
,
0200
0000
0000
0000
0000
0000
0000
0000
0000
0301
1000
0001
1000
0000
0000
0000
0000
0000
0002
0000
0000
0000
0000
0000
,
1013
0000
0000
0000
0000
0000
0002
0000
0000
1003
0100
0010
0200
0000
0000
0000
0000
0000
0320
0000
0000
0031
1000
0001
,
0200
0000
0000
0000
0000
0000
0000
0000
0000
0301
1000
0001
1000
0000
0000
0000
0000
0000
2000
0000
0000
0000
0000
0000
,
3001
0010
0100
0001
0100
1000
0001
0000
1000
0001
0000
0100
,
0001
0000
0010
0100
1000
0000
0001
0000
0010
0000
0100
0000
0001
0000
0010
0000
1000
0000
0001
0000
0000
0000
1000
0000
,
0001
0000
1000
0001
0000
1000
0001
0000
1000
0001
0000
1000
,
0001
0000
1000
0100
1000
0000
0001
0000
0010
0000
0100
0000
0001
0000
0010
0000
1000
0000
0001
0000
0000
0000
1000
0000
,
0001
0000
1000
0001
0000
1000
0001
0000
1000
0001
0000
1000
,
0001
0000
1000
0100
1000
0000
0001
0000
0010
0000
0100
0000
0001
0000
0100
0000
1000
0000
0001
0000
0000
0000
1000
0000
,
0001
0000
1000
0001
0000
1000
0012
0000
0000
0000
0000
0000
,
2013
0000
0000
0000
0000
0000
3001
0010
0100
1000
0100
0010
,
0001
1000
0100
1000
0000
0100
0021
0000
0000
0000
0000
0000
,
1230
0000
0000
0000
0000
0000
0301
1000
0100
1000
0010
0100
,
1000
0010
0100
0001
0000
1000
0012
0000
0000
0000
0000
0000
,
0213
0000
0000
0000
0000
0000
0301
0100
0010
1000
0010
0100
,
0001
1000
0010
0100
0000
0100
0012
0000
0000
0000
0000
0000
,
1023
0000
0000
0000
0000
0000
0031
0010
0100
1000
0100
0010
,
1000
0010
1000
0001
0000
1000
0011
0000
1000
0001
0000
1000
,
0110
0000
1000
0001
0000
1000
0001
0010
0100
1000
0100
0010
,
0100
0010
0001
0100
0000
1000
0110
0000
1000
0001
0000
1000
,
0101
0000
1000
0010
0000
1000
0010
0100
0001
0100
0010
1000
,
0100
0010
0100
0010
0000
0100
0011
0000
0100
0010
0000
0100
,
1010
0000
0100
0001
0000
0100
0001
0010
0100
1000
0100
0010
,
0100
1000
0010
1000
0000
1000
0011
0000
1000
0010
0000
0100
,
1010
0000
0000
0000
0100
0000
0001
0000
0000
0000
0100
0000
0001
0000
0010
0000
0100
0000
1000
0000
0010
0000
1000
0100
,
0022
0000
0033
0022
0000
0033
1100
0000
0000
0011
0011
0011
,
0011
0000
0000
1100
0000
0000
0101
0101
0101
0101
0000
0000
,
2020
0000
3030
2020
0000
3030
0101
0000
0000
1010
1010
1010
,
1010
0000
0000
0101
0000
0000
1100
1100
1100
1100
1100
1100
,
1000
0100
0010
0100
1000
0001
0100
0010
1000
0100
0010
0100
1000
0001
0100
0010
,
1000
0100
0010
0100
1000
0001
0100
0010
1000
0100
0010
0100
1000
0001
0100
0010
,
1000
0000
0100
0000
0020
0030
0100
0000
1000
0000
0001
0000
0010
0000
0100
0000
0020
0030
0001
0000
0100
0000
0010
0000
0100
0000
0010
0000
1000
0000
0010
0000
,
2000
3000
0200
0300
2000
3000
0010
0000
0100
0000
0010
0000
2000
3000
0200
0300
2000
3000
0001
0000
0100
0000
0010
0000
2000
3000
0200
0300
2000
3000
0001
0000
,
0100
0000
0010
0000
0200
0300
0001
0000
1000
0000
0010
0000
0100
0000
0010
0000
2000
3000
0100
0000
0010
0000
0001
0000
0100
0000
0001
0000
2000
3000
0200
0300
,
2000
3000
0200
0300
2000
3000
0001
0000
0100
0000
0010
0000
0200
0300
0020
0030
0200
0300
0020
0030
0200
0300
0010
0000
2000
3000
0200
0300
2000
3000
0001
0000
,
1000
0000
0100
0000
0020
0030
0001
0000
0100
0000
0010
0000
1000
0000
0010
0000
0200
0300
0001
0000
1000
0000
0010
0000
0100
0000
0010
0000
0100
0000
0010
0000
,
2000
3000
0200
0300
2000
3000
0100
0000
0010
0000
0001
0000
2000
3000
0020
0030
2000
3000
0010
0000
1000
0000
0001
0000
2000
3000
0200
0300
2000
3000
0100
0000
,
0010
0000
0100
0000
0020
0030
0001
0000
1000
0000
0100
0000
0010
0000
0001
0000
2000
3000
0100
0000
0010
0000
0001
0000
0100
0000
0010
0000
2000
3000
0200
0300
,
2000
3000
0200
0300
2000
3000
0100
0000
0010
0000
0100
0000
2000
3000
0200
0300
2000
3000
0200
0300
2000
3000
0001
0000
0200
0300
0002
0003
2000
3000
0001
0100
,
0020
0001
1230
0010
,
0321
0100
1032
0100
,
1023
0001
2130
0010
,
3102
0000
0000
0000
0000
0000
0000
0000
0010
0000
0000
0000
0000
0000
0000
0000
1203
0000
0000
0000
0000
0000
0000
0000
0001
0000
0000
0000
0300
0000
1000
0100
,
0020
0100
2031
0010
,
3102
1000
0123
1000
,
0231
0010
2301
0100
,
3021
0100
1000
0100
,
1030
0000
1010
0000
0000
0000
0000
0000
0110
0110
1001
0000
0000
0000
0101
0101
,
1010
0000
0000
0000
0000
0000
0000
0000
0011
0000
0011
0000
1100
0000
0000
0000
0000
0000
0000
0000
1010
0000
1010
0000
0101
0000
0000
0000
0000
0000
1000
0100
,
0010
0000
0100
0010
1000
0000
0100
0010
1001
0000
0010
0100
0001
0000
1000
0100
,
1001
0000
0100
1000
0001
0000
0010
0100
1001
0000
0010
1000
0001
0000
0100
1000
,
0011
0000
0100
0001
1000
0000
0001
1000
0110
0000
0001
1000
0100
0000
0010
0100
,
1001
0000
0000
0000
0010
0000
1000
0000
0001
0000
0000
0000
0100
0000
0010
0000
1001
0000
0000
0000
0010
0000
1000
0000
0100
0000
0000
0000
1000
0000
0010
0100
,
0001
0000
0010
1000
0001
0000
0100
0010
1001
0000
0010
1000
0100
0000
0001
0100
,
1010
0000
0100
0010
1000
0000
0001
0010
0101
0000
1000
0001
1000
0000
0001
0010
,
1100
0000
0010
0100
0001
0000
1000
0001
0010
0000
0100
1000
0010
0000
0100
0010
,
0001
0000
0010
1000
0001
0000
0010
1000
0001
0000
0100
1000
0001
0010
0100
1000
,
0100
0010
0100
1000
0100
0010
0001
1000
0022
0000
0000
0000
0130
0000
1103
0000
,
1001
0101
2010
0001
3110
1000
0110
0011
,
1020
0100
1031
0110
2010
0010
3101
1010
,
0201
0000
0001
0000
2301
0000
0001
3000
2100
0000
0100
3000
0120
0000
0100
0030
,
0001
0010
0100
1000
0001
0100
0010
1000
0022
0000
0000
0000
1030
0000
0113
0000
,
1001
0101
2010
0100
0001
3100
0110
1010
,
1001
0000
1010
0102
1000
0013
0101
1000
,
0200
0000
0000
0000
0000
0000
1300
0000
0010
0000
0100
0000
0001
0000
0000
0100
0000
0000
1001
0000
0000
0010
0000
0000
,
0201
0000
1000
0321
1000
0130
1010
0101
,
1020
0001
1000
0032
0000
1013
1001
0110
,
2001
0000
0100
3002
1000
0103
1010
0100
,
0020
0000
0000
0000
0000
0000
1031
0000
0100
0000
0010
0000
1001
0000
0000
0010
0000
0000
0101
0000
0000
1000
0000
0000
,
1200
0000
0000
1301
0010
0100
0021
0000
0000
1130
0000
0000
,
1001
0000
0000
0000
0022
0000
0000
0033
2002
0000
0000
0000
0000
0000
3003
0000
,
0101
0000
0000
0000
1000
0000
0001
0000
0000
0000
1000
0000
0001
0000
1000
0001
0100
0000
0010
0000
0100
0000
0001
0000
,
1000
0000
0000
0000
0100
0000
0001
0000
0000
0000
0100
0000
0010
0000
1000
0001
0010
0000
0100
0000
0010
0000
1000
0000
,
0001
0000
0000
0000
0100
0000
0010
0000
0000
0000
0100
0000
1000
0000
0010
1000
0001
0000
0010
0000
1000
0000
0010
0000
,
0100
0000
0000
0000
0100
0000
0001
0000
0000
0000
1000
0000
0010
0000
0100
0001
1000
0000
0010
0000
0100
0000
0010
0000
,
1000
0000
0000
0000
0100
0000
0001
0000
0000
0000
1000
0000
0001
0000
0010
1000
0001
0000
0100
0000
0010
0000
1000
0000
,
0001
0000
0000
0000
0100
0000
0001
0000
0000
0000
0100
0000
0010
0000
0100
0001
1000
0000
0100
0000
0010
0000
0001
0000
,
0100
0000
0000
0000
0100
0000
0010
0000
0000
0000
1000
0000
0010
0000
0100
0001
1000
0000
0001
0000
0010
0000
0100
0000
,
1000
0000
0100
0010
0000
0000
0001
0000
1000
0001
1000
0001
,
1000
0000
1000
0001
0000
1000
0001
0000
0010
1000
0000
0100
,
0001
0000
0100
0010
1000
0000
0100
0000
0010
0000
1000
0000
0001
0000
1000
0000
0001
0000
0010
0000
0000
0000
1000
0000
,
0001
0000
0001
0100
0000
0010
1000
0000
1000
0001
0000
0100
,
0010
0000
0001
0100
0010
0000
1000
0000
0010
0000
1000
0000
0001
0000
1000
0000
0010
0000
1000
0000
0000
0000
0010
0000
,
0100
0000
1000
0001
0000
0010
0100
0000
1000
0001
0000
0100
,
0001
0000
0100
0010
1000
0000
0010
0000
0100
0000
0010
0000
1000
0000
0010
0000
1000
0000
0001
0000
0000
0000
0100
0000
,
0001
0000
1000
0001
0000
0010
1000
0000
1000
0001
0000
0100
,
1000
0000
0010
0100
0001
0000
1000
0000
0010
0000
0100
0000
0001
0000
0010
0000
0100
0000
1000
0000
0000
0000
0100
0000
,
2001
0000
0000
3101
0100
0100
0020
0000
0000
1000
0000
0000
,
0032
0000
0000
1103
0100
0100
2000
0000
0000
3102
0000
0000
,
0023
0000
0000
1130
0100
0100
2000
0000
0000
3201
0000
0000
,
0302
0100
0023
0100
,
2030
0000
0000
3101
0100
0100
0020
0000
0000
1000
0000
0000
,
0032
0000
0000
1013
0010
0010
0200
0000
0000
1302
0000
0000
,
0023
0000
0000
0131
0100
0100
2000
0000
0000
3120
0000
0000
,
0032
1000
0000
1000
,
2023
0000
0000
0000
0000
3030
0202
0000
0000
0000
0000
0303
,
2200
0000
0000
0310
,
0002
0000
0000
0000
0000
0000
0000
0000
0003
0100
0010
0001
,
0200
0000
0000
0000
,
3322
0000
0000
0000
0000
0033
2002
0000
0000
0000
0000
3003
,
2020
0000
0000
0000
0000
0000
0000
0000
0000
0000
0000
0030
,
0100
0000
0100
0000
0010
0000
0001
0000
0001
0000
0100
0000
,
0010
0000
0010
0000
0001
0000
3001
0010
0100
1000
0100
0010
,
1001
0000
0000
0000
;

//---------------dance-single - Copied from----------------
#NOTES:
     dance-single:
     Copied from:
     Challenge:
     12:
     1.000,1.000,1.000,1.000,1.000,926.000,322.000,161.000,0.000,74.000:




1100
0000
0000
0000
0000
0000
0002
0000
0000
0010
0100
0010
2103
0000
0000
0000
0000
0000
3020
0000
0000
0001
1000
0001
,
1230
0000
0000
0000
0000
0000
0000
0000
0000
0001
0010
0001
0010
0000
0000
0000
0000
0000
0002
0000
0000
0000
0000
0000
,
1313
0000
0000
0000
0000
0000
0002
0000
0000
0010
0100
0010
2103
0000
0000
0000
0000
0000
3020
0000
0000
0001
1000
0001
,
1230
0000
0000
0000
0000
0000
0000
0000
0000
0001
0010
0001
0010
0000
0000
0000
0000
0000
2000
0000
0000
0000
0000
0000
,
3301
0010
1000
0001
0010
1000
0001
0000
1000
0001
0000
0100
,
0001
0000
0010
0100
1000
0000
0001
0000
0010
0000
1000
0000
0001
0000
0010
0000
1000
0000
0001
0000
0000
0000
1000
0000
,
0011
0100
1000
0011
0100
1000
0011
0000
1000
0011
0000
1000
,
0011
0000
0100
0010
1000
0000
0011
0000
0100
0000
1000
0000
0011
0000
0100
0000
1000
0000
0011
0000
0000
0000
1000
0000
,
0011
0100
1000
0011
0100
1000
0011
0000
1000
0011
0000
1000
,
0011
0000
0100
0010
1000
0000
0011
0000
0100
0000
1000
0000
0011
0000
0100
0000
1000
0000
0011
0000
0000
0000
1000
0000
,
0011
0100
1000
0011
0100
1000
0012
0000
1000
0010
0000
0100
,
2013
0000
0000
0000
0000
0000
3001
0010
0100
1000
0010
0001
,
1010
0100
1000
0010
0000
0100
0021
0000
1000
0001
0000
0001
,
1230
0000
0000
0000
0000
0000
0301
1000
0100
0001
0010
1000
,
0101
0010
1000
0010
0000
1000
0012
0000
0100
0010
0000
1000
,
0213
0000
0000
0000
0000
0000
0301
0010
1000
0100
0010
0001
,
1010
0100
1000
0001
0000
0100
0012
0000
1000
0010
0000
0100
,
1023
0000
0000
0000
0000
0000
0031
0010
0100
1000
0010
0001
,
1100
0010
1100
0011
0000
1100
0012
0000
1000
0010
0000
1000
,
0213
0000
1000
0001
0000
1000
0301
0010
0100
1000
0010
0001
,
1010
0101
0010
1001
0000
1001
0120
0000
1000
0001
0000
1000
,
0231
0000
1000
0001
0000
1000
0301
0010
1000
0100
0010
0001
,
1010
0101
0010
1001
0000
0110
1002
0000
0100
0010
0000
0100
,
2013
0000
0100
0001
0000
0100
3001
0010
0100
1000
0010
0001
,
1010
0101
0010
1001
0000
1100
0012
0000
1000
0010
0000
0100
,
1023
0000
0000
0000
0100
0000
0001
0000
0000
0000
0100
0000
0031
0000
0010
0000
0100
0000
1000
0000
0010
0000
1000
0100
,
0022
0000
0033
0022
0000
0033
1100
0000
0000
0011
0011
0011
,
0011
0000
0000
1100
0000
0000
0101
0101
0101
0101
0000
0000
,
2020
0000
3030
2020
0000
3030
0101
0000
0000
1010
1010
1010
,
1010
0000
0000
0101
0000
0000
1100
1100
1100
1100
1100
1100
,
1001
0100
0010
1000
0101
0010
1000
0010
1001
0100
0010
1000
0101
0010
1000
0010
,
1001
0100
0010
1000
0101
0010
1000
0010
1001
0100
0010
1000
0101
0010
1000
0010
,
1001
0000
0100
0000
0002
0003
0100
0000
1010
0000
0100
0000
0001
0000
1000
0000
0012
0003
1000
0000
0100
0000
0010
0000
0101
0000
0010
0000
1000
0000
0010
0000
,
2001
3000
0200
0300
2000
3000
0010
0000
0101
0000
0010
0000
0200
0300
2000
3000
0210
0300
0001
0000
0100
0000
0010
0000
2001
3000
0200
0300
2000
3000
0001
0000
,
0110
0000
1000
0000
0002
0003
0100
0000
1001
0000
0010
0000
0100
0000
1000
0000
0012
0003
0100
0000
0010
0000
1000
0000
0110
0000
0001
0000
2000
3000
0200
0300
,
2010
3000
0200
0300
2000
3000
0001
0000
0110
0000
1000
0000
0200
0300
2000
3000
0201
0300
2000
3000
0200
0300
0010
0000
2001
3000
0200
0300
2000
3000
0001
0000
,
1010
0000
0100
0000
0002
0003
1000
0000
0101
0000
0010
0000
0100
0000
1000
0000
0012
0003
0100
0000
1000
0000
0010
0000
0101
0000
0010
0000
0100
0000
0010
0000
,
2001
3000
0200
0300
2000
3000
0100
0000
0011
0000
1000
0000
0200
0300
2000
3000
0201
0300
0010
0000
1000
0000
0001
0000
2010
3000
0200
0300
2000
3000
0010
0000
,
0101
0000
1000
0000
0002
0003
0100
0000
1010
0000
0100
0000
0010
0000
1000
0000
0012
0003
0100
0000
0010
0000
1000
0000
0101
0000
0010
0000
2000
3000
0200
0300
,
2001
3000
0200
0300
2000
3000
0100
0000
0011
0000
0100
0000
2000
3000
0200
0300
2010
3000
0200
0300
2000
3000
0001
0000
0210
0300
2000
3000
0200
0300
0001
0010
,
2100
0001
3210
1000
,
0321
0100
1032
0100
,
1023
0001
2130
0010
,
3102
0000
0000
0000
0000
0000
0000
0000
0010
0000
0000
0000
0000
0000
0000
0000
1203
0000
0000
0000
0000
0000
0000
0000
0001
0000
0000
0000
0300
0000
1000
0100
,
0021
0100
2031
0010
,
3102
1000
0123
1000
,
0231
0010
2301
0100
,
3021
0100
1000
0100
,
1030
0000
1010
0000
0000
0000
0000
0000
0110
0110
1001
0000
0000
0000
0101
0101
,
1010
0000
0000
0000
0000
0000
0000
0000
0011
0000
0011
0000
1100
0000
0000
0000
0000
0000
0000
0000
1010
0000
1010
0000
0101
0000
0000
0000
0000
0000
1000
0100
,
0011
0000
0100
0010
1000
0000
0100
0010
1001
0000
0010
0100
0001
0000
1000
0100
,
1001
0000
0100
1000
0001
0000
0010
0100
1001
0000
0010
1000
0001
0000
0100
1000
,
0011
0000
0100
0001
1000
0000
0001
1000
0110
0000
0001
1000
0100
0000
0010
0100
,
1001
0000
0000
0000
0010
0000
1000
0000
0001
0000
0000
0000
0100
0000
0010
0000
1001
0000
0000
0000
0010
0000
1000
0000
0100
0000
0000
0000
1000
0000
0010
0100
,
1001
0000
0010
1000
0001
0000
0100
0010
1001
0000
0010
1000
0100
0000
0001
0100
,
1010
0000
0100
0010
1000
0000
0001
0010
0101
0000
1000
0001
1000
0000
0001
0010
,
1100
0000
0010
0100
0001
0000
1000
0001
0010
0000
0100
1000
0010
0000
0100
0010
,
0001
0000
0010
1000
0001
0000
0010
1000
0001
0000
0100
1000
0001
0010
0100
1000
,
0101
0010
0100
1000
0100
0010
0001
1000
0022
0000
0000
0000
0130
0000
1103
0000
,
1001
0111
2010
0001
3110
1000
0110
0011
,
1120
0100
1131
0110
2010
0010
3111
1010
,
0201
0000
0001
0000
2311
0000
0001
3000
2100
0000
0100
3000
0121
0000
0100
0030
,
1001
0010
0100
1000
0010
0001
1000
0100
0022
0000
0000
0000
1030
0000
0113
0000
,
1001
0111
2010
0100
0011
3100
0110
1001
,
1011
0000
1010
0102
1000
0013
0101
1000
,
0200
0000
0000
0000
0000
0000
1301
0000
0010
0000
0100
0000
0001
0000
0000
0100
0000
0000
1001
0000
0000
0010
0000
0000
,
0201
0000
1001
0321
1000
0130
1010
0101
,
1020
0001
1100
0032
0000
1013
1001
0110
,
2001
0000
0110
3002
1000
0103
1010
0100
,
0020
0000
0000
0000
0000
0000
1031
0000
0100
0000
0010
0000
1001
0000
0000
0010
0000
0000
0101
0000
0000
1000
0000
0000
,
1201
0000
0000
1301
0010
0100
1021
0000
0000
1130
0000
0000
,
1001
0000
0000
0000
0122
0000
0000
0033
2102
0000
0000
0000
0000
0000
3003
0000
,
0101
0000
0000
0000
1000
0000
0001
0000
0000
0000
1000
0000
0101
0000
1000
0001
0100
0000
0010
0000
0001
0000
1000
0000
,
0011
0000
0000
0000
0100
0000
0001
0000
0000
0000
0100
0000
1001
0000
0100
0010
1000
0000
0101
0000
0010
0000
0001
0000
,
1100
0000
0000
0000
1000
0000
0001
0000
0000
0000
0100
0000
1001
0000
0010
1000
0001
0000
0110
0000
1000
0000
0010
0000
,
1001
0000
0000
0000
0100
0000
0001
0000
0000
0000
1000
0000
0011
0000
0100
0001
1000
0000
0010
0000
0100
0000
0010
0000
,
1001
0000
0000
0000
0100
0000
0010
0000
0000
0000
1000
0000
0101
0000
0010
1000
0001
0000
0100
0000
1000
0000
0001
0000
,
1010
0000
0000
0000
0100
0000
0001
0000
0000
0000
0100
0000
0011
0000
0100
0010
1000
0000
0101
0000
0010
0000
1000
0000
,
0011
0000
0000
0000
0100
0000
0010
0000
0000
0000
0100
0000
1010
0000
0100
0001
1000
0000
0101
0000
0010
0000
0100
0000
,
1010
0000
0100
0010
0000
0000
0011
0000
1100
0011
1100
0011
,
1001
0010
1100
0011
0100
1010
0101
0000
0010
1001
0000
0100
,
0011
0000
0100
0010
1000
0000
0101
0000
0010
0000
1100
0000
0011
0000
1000
0000
0101
0000
1010
0000
0000
0000
1000
0000
,
0011
0100
1001
0110
1000
0110
1001
0000
1100
0011
0000
0100
,
1010
0000
0001
0100
0010
0000
1001
0000
0010
0000
1100
0000
0011
0000
1000
0000
0110
0000
1001
0000
0000
0000
0010
0000
,
0101
0010
1100
0011
1000
0110
1001
0000
1100
0011
0000
0100
,
0011
0000
0100
0010
1000
0000
0011
0000
0100
0000
1010
0000
0101
0000
0010
0000
1100
0000
0011
0000
0000
0000
0100
0000
,
1001
0010
1100
0011
1000
0110
1001
0000
1010
0101
0000
0100
,
1001
0000
0010
0100
0001
0000
1100
0000
0010
0000
0101
0000
1010
0000
0100
0000
0011
0000
1100
0000
0000
0000
0100
0000
,
2001
0000
0000
3111
0100
0100
0020
0000
0000
1100
0000
0000
,
0032
0000
0000
1113
0100
0100
2000
0000
0000
3112
0000
0000
,
0023
0000
0000
1131
0100
0100
2000
0000
0000
3211
0000
0000
,
0302
1100
0023
1100
,
2030
0000
0000
3111
0100
0100
0020
0000
0000
1100
0000
0000
,
0032
0000
0000
1113
0010
0010
0200
0000
0000
1312
0000
0000
,
0023
0000
0000
1131
0100
0100
2000
0000
0000
3121
0000
0000
,
0032
1100
0000
1100
,
2023
0000
0000
0000
0000
3030
0202
0000
0000
0000
0000
0303
,
2200
0000
0000
0310
,
0002
0000
0000
0000
0000
0000
0000
0000
0003
0100
0010
0001
,
0200
0000
0000
0000
,
3322
0000
0000
0000
0000
0033
2002
0000
0000
0000
0000
3003
,
2020
0000
0000
0000
0000
0000
0000
0000
0000
0000
0000
0030
,
0100
0000
0100
0000
0010
0000
0001
0000
0001
0000
0100
0000
,
0010
0000
0010
0000
0001
0000
0001
0010
0100
0001
0100
0010
,
3101
0000
0000
0000
;
