#TITLE:MAX QUARTET;
#SUBTITLE:(ALL-STARS MEGAMIX);
#ARTIST:NAOKI with 2MB;
#TITLETRANSLIT:;
#SUBTITLETRANSLIT:;
#ARTISTTRANSLIT:;
#CREDIT:;
#BANNER:MAX QUARTET-banner.BMP;
#BACKGROUND:MAX QUARTET-bg.BMP;
#LYRICSPATH:;
#CDTITLE:./cdtitles/konami.png;
#MUSIC:MAX QUARTET.mp3;
#OFFSET:-0.020;
#SAMPLESTART:12.760;
#SAMPLELENGTH:12.000;
#SELECTABLE:YES;
#BPMS:0.000=300.000,291.000=280.000,291.250=260.000,291.500=240.000,291.750=220.000,292.000=200.000,292.250=180.000,292.500=160.000,292.750=140.000,293.000=120.000,293.250=100.000,293.500=80.000,293.750=60.000,294.000=300.000,591.000=280.160,623.000=300.000,655.000=150.000,671.000=300.000,703.000=140.280,711.250=120.000,711.500=110.000,711.750=100.000,712.000=90.000,712.250=80.000,712.500=70.000,712.750=60.000,713.000=320.000,874.000=333.000,1200.000=166.501,1201.000=83.250,1210.000=333.000,1346.000=300.000,1554.000=180.000,1598.000=300.000,1662.000=599.999,1786.000=150.000;
#STOPS:294.000=1.100
,713.000=1.880
,1201.500=0.720
,1554.000=1.340
;
#BGCHANGES:;
// cache tags:
#FIRSTBEAT:16.000;
#LASTBEAT:1835.000;
#SONGFILENAME:Songs/IzzySM Keyboard Mega Pack/MAX QUARTET/MAX QUARTET.sm;
#HASMUSIC:1;
#HASBANNER:1;
#MUSICLENGTH:376.954;
// end cache tags

//---------------dance-single - ----------------
#NOTES:
     dance-single:
     :
     Challenge:
     11:
     0.940,1.000,0.602,0.196,0.062,2179.000,227.000,74.000,0.000,0.000:
0000
0000
0000
0000
,
0000
0000
0000
0000
,
0000
0000
0000
0000
,
0000
0000
0000
0000
,
1000
0000
0001
0000
1000
0001
0000
0001
,
1000
0000
0100
0000
0010
0001
0000
0001
,
0010
0000
0100
0000
1000
0010
0000
0010
,
1000
0100
0110
0000
,
0001
0000
1000
0000
0010
0100
0000
0001
,
1000
0000
0100
0000
1000
0001
0000
0100
,
0010
0000
1000
0000
0010
1000
0000
0001
,
0100
0010
1010
0000
,
1000
0000
0001
1000
0001
1000
0001
1000
,
0001
0000
1000
0010
1000
0010
1000
0010
,
1000
0001
0100
0000
0010
1000
0100
0000
,
1000
0100
0010
0001
0100
0010
1000
0001
,
0100
0000
0010
0000
0000
1000
0000
0001
,
0100
0000
0010
0000
0000
1000
0000
0010
,
0100
0000
0001
0000
0000
0100
0000
0010
,
1000
0001
0100
0010
,
1000
0000
0010
0000
0000
1000
0000
0001
,
0100
0000
1000
0000
0000
0001
0000
1000
,
0010
0000
0100
0000
0000
0001
0000
1000
,
0010
0100
0001
1000
,
0010
0000
0100
0000
0000
0001
0000
1000
,
0001
0000
0100
0000
0000
0010
0000
1000
,
0010
0000
0100
0000
0000
0001
0000
0100
,
0010
1000
0001
0100
,
1000
0000
0001
0000
0000
0100
0000
0010
,
0100
0000
0001
0000
0000
1000
0000
0100
,
0010
0000
0000
1010
0000
0000
0101
0000
,
1000
0010
0100
0001
1000
0100
0010
0001
,
1000
0010
1000
0001
,
0100
0001
1000
0010
,
0100
0001
1000
0010
,
1000
0001
0100
1000
,
0010
0001
1000
0010
,
0100
0001
0100
0001
0100
1000
0100
1000
,
0100
0001
0100
1000
,
0010
0100
0001
1000
,
0001
0100
0010
0100
,
0001
1000
0010
0100
,
0001
0000
0100
0010
0100
1000
0100
0000
,
0011
0110
1100
0100
,
0001
0100
0001
0100
0010
0100
0010
0100
,
0001
1000
0001
1000
0100
0010
0100
0010
,
0001
0100
0001
0100
0010
1000
0010
1000
,
0001
1000
0001
1000
0100
1000
0100
1000
,
0010
1000
0010
1000
0001
0010
0001
0010
,
0100
1000
0100
1000
0010
0100
0010
0100
,
0001
1000
0001
1000
0010
0100
0010
0100
,
0001
0100
0001
0100
0010
1000
0010
1000
,
0100
1000
0100
1000
0001
0100
0001
0100
,
0010
1000
0010
1000
0001
0010
0001
0010
,
0100
0010
0100
0010
0001
0000
0000
0000
,
0011
0000
1100
0000
,
0001
0000
0100
0000
0000
0010
0000
1000
,
0001
0000
0100
0000
0000
0001
0000
1000
,
0010
0000
0100
0000
0000
0001
0000
0100
,
0110
1010
1001
0000
,
0001
0000
0100
0000
0000
0010
0000
1000
,
0100
0000
0010
0000
0000
0001
0000
1000
,
0100
0000
0010
0000
0000
0100
0000
1000
,
1010
0110
0101
0000
,
0010
0000
0100
0000
0000
0010
0000
1000
,
0001
0000
0100
0000
0000
0001
0000
0010
,
0100
0000
1000
0000
0000
0001
0000
0010
,
0011
0110
1100
0000
,
0001
0000
1000
0100
1000
0010
1000
0100
,
1000
0000
0001
0010
0001
0100
0001
0010
,
0001
0000
1000
0000
0100
0000
0010
0000
0001
0000
1000
0000
,
0100
0000
0010
0000
0001
0000
2002
0000
0000
0000
0000
0000
,
0000
0000
0000
0000
,
0000
0000
3003
0001
,
0100
0000
0001
0100
0010
1000
0001
0010
,
0100
1000
0010
0100
0001
0000
1000
0000
,
0001
1000
0010
0100
0010
0000
0100
1000
,
0100
0010
0100
0000
0001
0010
0001
0100
,
0010
1000
0010
0100
0001
0100
0001
0000
,
1000
0010
0100
0001
0100
0000
0001
0100
,
0000
0000
0001
0000
1000
0100
0010
0001
,
0010
0100
1000
0000
0010
0000
1000
0100
,
1000
0100
1000
0000
0001
0010
0001
0010
,
0001
0000
1000
0010
0100
0010
1000
0000
,
0001
0100
0010
0100
0001
0000
1000
0100
,
0010
0001
1000
0000
0010
0100
0010
1000
,
0001
0000
1000
0001
0100
0010
1000
0000
,
0010
1000
0001
0010
0001
0000
1000
0010
,
0100
0001
0100
0000
0010
0100
0001
1000
,
0010
1000
0001
0100
0010
1000
0001
0000
,
0001
0100
0000
0100
0010
0000
1000
0000
,
0101
0000
0000
1010
0000
0000
0010
0000
,
0010
0100
0000
0100
0001
0000
1000
0000
,
0110
0000
0000
1001
0000
0000
0100
0000
,
0100
0010
0000
0010
1000
0000
0001
0000
,
1000
0100
0000
0010
0001
0000
0010
0000
,
0100
1000
0000
0010
0100
0000
0001
0000
,
0110
0000
0000
0110
0000
0000
1000
0000
,
0001
0100
0010
0000
1000
0000
0100
0000
,
0010
0001
0100
0000
0001
0000
1000
0000
,
0010
1000
0001
0000
0100
0000
0001
0000
,
1000
0010
0100
0000
0001
0000
1000
0010
,
1000
0100
0010
0001
1000
0010
0100
0001
,
0010
0000
0000
0100
0000
0000
1000
0000
0000
0010
0000
0000
1000
0000
0000
0001
0000
0000
0100
0000
0000
0000
0010
0000
,
0000
0100
0000
0000
0000
0000
0000
0000
0000
1000
0000
0010
,
0000
1000
0000
0000
0000
0000
0000
0000
0000
1000
0000
0010
,
0000
0100
0000
0001
0000
0100
0000
0010
0000
2002
0000
0000
,
0000
0000
3003
0110
,
0000
0110
0000
0000
0000
0000
1000
0000
,
0010
0100
0001
1010
,
0000
0101
0000
0000
0000
0000
0010
0000
,
0100
0001
1000
0011
,
0000
1100
0000
0000
0000
0000
0010
0000
,
1000
0001
0100
0101
,
0000
1010
0000
0000
0000
1000
0001
1000
,
0001
1000
0001
1000
0000
0000
0010
0000
,
1000
0002
0000
0000
0103
0000
1000
0100
,
1000
0100
1000
0000
0001
0000
0100
0000
,
0010
2000
0000
0000
3100
0000
0010
0001
,
0010
0001
0010
0000
0100
0000
1000
0000
,
0010
0200
0000
0000
0301
0000
0100
0010
,
0100
0010
0100
0000
0001
0000
1001
0000
,
0000
1100
0000
0000
0011
0000
0100
0010
,
1000
0001
0010
0100
1000
0001
0100
0000
,
0010
2000
0000
0010
0000
3010
0100
0000
,
0001
0200
0000
0010
0000
0310
1000
0000
,
0100
2000
0000
0001
0000
3001
0100
0010
,
0000
1000
0000
0001
0000
0100
0010
0000
,
2000
0100
0000
0100
0000
3100
0010
0000
,
0002
0100
0000
0100
0000
0103
0010
0000
,
0200
0001
0000
0001
0000
0301
1000
0010
,
0000
0100
0000
0001
0000
1000
0010
0000
,
0100
0002
0000
0010
0000
1003
0010
0000
,
1000
0200
0000
0010
0000
1300
0001
0000
,
0100
0020
0000
1000
0000
0130
0101
0000
,
1001
1100
1001
0100
,
0002
0010
0000
0100
0000
0013
0100
0000
,
2000
0010
0000
0100
0000
3010
0100
0000
,
0002
1000
0000
0100
0000
1003
1100
0000
,
0110
0011
1001
0100
,
0020
2000
0030
0001
0000
3001
0100
0000
,
0002
2000
0003
0010
0000
3001
0100
0000
,
0020
0200
0030
0001
0000
0310
1010
0000
,
0110
0101
1001
0010
,
2000
0020
3000
0100
0000
0130
0001
0000
,
2000
0020
3000
0100
0000
0130
0001
0000
,
0200
0020
0300
1000
0000
1030
1000
0010
,
1000
0001
0100
0010
1000
0001
2000
0000
,
0000
0000
3020
0000
,
0000
0230
0000
0302
,
0000
0000
2003
0000
,
0000
3020
0100
0230
,
0000
0302
1000
0000
,
0103
0200
0010
0320
,
0000
0000
1000
0000
2030
0000
0000
3001
,
0100
0010
1000
0010
0100
0001
1000
0100
,
1000
0000
0010
0100
0010
0000
0100
0001
,
0100
0000
0010
1000
0010
0000
0100
0001
,
0100
0000
0010
1000
0010
0000
0100
0010
,
0100
0000
0001
1000
0001
0000
0100
0010
,
1000
0000
0001
0010
0100
0000
1000
0010
,
0100
0000
0001
1000
0010
0000
0100
0010
,
1000
0000
0001
0100
0010
1000
0100
0010
,
0001
0100
0010
1000
0001
0100
0010
0110
,
0000
1010
0000
0000
0101
0000
0000
1100
0000
0000
1001
0000
0000
0000
0011
0000
,
0000
0110
0000
0000
1100
0000
0000
0101
0000
0000
0110
0000
1001
0000
0110
0000
,
0000
1100
0000
0000
0110
0000
0000
0011
0000
0000
1001
0000
0000
0000
1100
0000
,
0000
0011
0000
0000
1010
0000
0000
0101
0000
0000
1001
0000
1000
0000
0000
0000
,
0010
0100
0001
1000
,
0010
1000
0001
0100
,
0010
0000
1000
0000
0001
0000
1000
0100
,
1000
0100
0000
0000
0001
0000
0100
0000
,
0001
1000
0010
0100
,
0001
1000
0010
1001
,
0100
0000
1001
0000
0010
0000
1000
0001
,
0100
0010
1000
0010
0100
0001
1000
0110
,
0000
0101
0000
0000
1010
0000
0000
1001
0000
0000
0110
0000
0000
0000
1010
0000
,
0000
0101
0000
0000
0110
0000
0000
1100
0000
0000
0011
0000
2002
0000
0000
0000
,
0000
0000
0000
0000
0000
3003
0000
0000
1000
0000
0000
0000
0010
0000
0000
0000
,
1000
0001
0100
0010
,
1000
0010
0100
0001
,
1000
0010
1000
0001
,
1000
0010
0000
0100
0001
0000
1000
0000
,
0001
0100
0010
1000
,
0001
1000
0100
0001
,
0010
0000
1000
0000
0001
0000
0010
0100
,
0010
0100
0010
0000
0001
0000
1000
0000
,
0010
0001
0100
0001
,
1000
0010
0100
1000
,
0001
0100
0010
1000
,
0001
0000
1000
0010
0100
0000
0001
0000
,
1000
0010
1000
0001
,
0100
0000
0010
0000
1000
0010
1000
0000
,
0001
0100
0001
0000
0100
0010
1000
0001
,
0010
0100
1000
0001
1000
0000
0000
0110
,
0000
0000
0110
0000
1100
0000
0000
0011
,
0000
0000
1000
0100
1000
0000
0000
1010
,
0000
0000
0001
0100
0001
0100
0020
0000
,
0000
0000
0030
0000
1000
0100
0010
0001
,
0000
0000
0110
0000
0001
0010
0100
1000
,
0000
0000
0110
0000
1000
0100
1000
0100
,
0000
0000
0001
0100
0001
0100
0001
0000
,
1000
0010
1000
0010
0100
0000
0000
0101
,
0000
0000
0010
0100
0001
0000
0000
1010
,
0000
0000
0010
0100
0001
0000
0000
1100
,
0000
0011
1001
1100
,
0011
0000
0110
0000
1000
0010
0100
0001
,
0000
0000
1100
0000
0001
0100
0010
1000
,
0000
0000
0001
0000
0100
0010
1000
0010
,
0000
0110
0101
1010
,
0000
1000
0100
0010
0001
0100
0010
0000
,
1000
0010
0100
0000
0001
1000
0010
0000
,
0100
0010
1000
0000
0001
0100
0001
0000
,
1000
0010
0100
0000
0001
1000
0001
0000
,
0100
0010
1000
0000
0010
0100
0010
0000
,
1000
0001
0100
0000
0010
0100
0001
0100
,
0010
1000
0010
0100
0001
0000
1000
0200
,
0000
0000
0310
0001
0100
0010
1000
0002
,
0000
0000
0103
0010
1000
0000
0001
0000
,
0100
0010
0100
0001
,
0100
0010
1000
0001
,
1000
0010
0100
0010
,
1000
0100
0010
0001
,
0100
0010
1000
0010
,
0100
0001
1000
0010
,
1000
0001
0100
1001
,
1001
0000
0010
0001
0010
0000
1000
0000
,
0010
0100
0001
0100
,
0010
1000
0100
1000
,
0001
0100
1000
0100
,
0001
0100
0010
1000
,
0010
0001
0100
1000
,
2002
3003
0100
0010
,
1000
0000
0001
0000
1000
0010
0100
0001
,
1000
0100
0010
0001
1000
0000
0001
0100
,
0000
0000
0100
0010
0000
0000
0010
1000
,
0000
0000
1000
0100
0000
0000
0100
0010
,
0000
0000
0010
0000
1010
0000
0000
0101
,
0000
0000
0110
0000
0001
0000
1000
0100
,
0000
0000
0100
1000
0000
0000
1000
0001
,
0000
0000
0001
0100
0000
0000
0100
0010
,
0000
0000
0010
0000
0110
0000
0000
0011
,
0000
0000
1100
0000
0001
0000
0001
0100
,
0000
0000
0100
0010
0000
0000
0010
1000
,
0000
0000
1000
0001
0000
0000
0001
0100
,
0000
0000
0100
0000
1010
0000
0000
0101
,
0000
0000
1100
0000
0010
0000
0010
1000
,
0000
0000
1000
0001
0000
0000
0001
0100
,
0000
0000
0001
0100
0001
0000
0110
0000
,
0110
0000
0100
1000
0200
0000
0000
0000
,
0000
0000
0300
0000
0001
0000
1000
0100
,
1000
0000
0010
0100
0010
0000
1000
0010
,
1000
0000
0001
0100
0001
0000
1000
0100
,
1000
0000
0001
0000
0110
0000
0000
1010
,
0000
0000
0101
0000
1000
0000
0010
0100
,
0010
0000
0100
0001
0100
0000
0010
1000
,
0010
0000
1000
0001
1000
0000
0010
0100
,
0010
0000
1000
0000
1001
0000
0000
0101
,
0000
0000
1010
0000
0100
0000
0001
0100
,
0010
0000
1000
0010
0100
0000
0010
0100
,
0001
0000
1000
0100
0010
0000
0001
1000
,
0010
0000
0100
0000
1010
0000
0000
0110
,
0000
0101
1000
0010
,
0101
1000
0010
0100
,
0011
1000
0010
0110
,
0100
1100
1000
1001
,
0001
0100
0010
1000
0001
0000
0001
0100
,
0000
0000
0100
0010
0000
0000
0010
1000
,
0000
0000
1000
0001
0000
0000
0001
0100
,
0000
0000
0100
0010
0000
0000
0010
1000
,
0000
0000
1000
0010
0000
0000
0010
0100
,
0000
0000
0100
0001
0000
0000
0001
0100
,
0000
0000
0100
0010
0000
0000
0010
1000
,
0000
0000
1000
0010
0000
0000
0010
0100
,
0000
0000
0100
0001
0000
0000
0001
1000
,
0000
0000
1000
0010
0000
0000
0010
0100
,
0000
0000
0100
0001
0000
0000
0001
0100
,
0000
0000
0100
0010
0000
0000
0010
1000
,
0000
0000
1000
0001
0000
0000
0001
0100
,
0000
0000
0100
0001
0000
0000
0001
0010
,
0000
0000
0010
0100
0000
0000
0100
1000
,
0000
0000
1000
0001
0100
0010
1000
0001
,
0010
0100
1000
0001
1000
0000
1000
0010
,
0000
0000
0010
0001
0000
0000
0001
0100
,
0000
0000
0100
1000
0000
0000
1000
0010
,
0000
0000
0010
0100
0000
0000
0100
0001
,
0000
0000
0001
0100
0000
0000
0100
1000
,
0000
0000
1000
0001
0000
0000
0001
0100
,
0000
0000
0100
0010
0000
0000
0010
0001
,
0000
0000
0001
1000
0000
0000
1000
0010
,
0000
0000
0010
0100
0001
0000
0001
0000
,
0100
0100
1000
1000
,
0010
0010
0001
0001
,
0100
0100
1000
1000
,
0010
0010
1000
0010
,
0202
0303
0010
1000
,
0220
0330
1010
0101
,
0110
0000
1001
0000
0001
0100
0010
1000
,
0010
0100
0001
0100
2002
0000
0000
0000
,
0000
0000
0000
0000
,
0000
0000
0000
0000
0000
0000
0000
0000
0000
0000
0000
0000
0000
0000
0000
0000
0000
0000
0000
0000
0000
3003
0000
0000
1000
0000
0000
0000
0010
0000
0000
0000
0000
0100
0000
0000
0001
0000
0000
0000
0000
0000
0000
0000
0000
0010
0000
0000
,
0110
0000
0000
0000
0000
0000
0000
0000
0000
1000
0000
0000
1000
0000
0000
0000
0001
0000
0000
0000
0000
0100
0000
0000
0010
0000
0000
0000
1000
0000
0000
0000
0000
0001
0000
0000
0100
0000
0000
0000
0000
0000
0000
0000
0000
1000
0000
0000
,
1010
0000
0000
0000
0000
0000
0010
0000
0000
0100
0000
0000
0001
0000
0000
0000
1000
0000
0100
0000
0000
0010
0000
0000
0001
0000
0000
0000
0000
0000
0000
0000
0000
0000
0000
0000
1000
0000
0000
0000
0000
0000
0000
0000
0000
0000
0000
0000
,
0010
0100
0001
1000
,
0010
0100
0001
1000
,
0001
0100
0010
1000
,
0001
1000
0010
0100
,
0001
0100
0010
1000
,
0001
1000
0010
0100
,
0010
1000
0010
0001
,
0100
0000
1000
0000
0001
0000
0100
0010
,
0100
0000
0001
0100
0001
0000
1000
0010
,
1000
0000
0001
0100
0001
0000
1000
0010
,
1000
0000
0010
0100
0010
0000
1000
0100
,
1000
0000
0001
0100
0001
0000
1000
0010
,
0100
0000
0001
0100
0010
0000
1000
0001
,
0100
0000
0010
1000
0001
0000
0100
0010
,
1000
0000
0001
0100
0010
0000
1000
0001
,
0100
0000
0010
1000
0001
0100
0001
0100
,
0010
1000
0010
1000
0001
1000
0001
1000
,
0010
0100
0010
0100
0001
0010
0001
0010
,
0100
1000
0100
1000
0010
0100
0010
0100
,
0001
1000
0001
1000
0010
0100
0001
1000
,
0100
0010
0001
0100
0001
1000
0010
0100
,
0001
0010
0001
1000
0010
0100
0010
1000
,
0001
0100
0010
1000
0010
1000
0100
0010
,
0001
0100
0010
1000
1001
0000
0000
1010
,
0000
0000
0110
0000
0101
0000
0000
0110
,
0000
0000
1010
0000
1100
0000
0000
0011
,
0000
0000
0110
0000
1001
0000
0000
1100
,
0000
0000
0110
0000
0011
0000
0000
1010
,
0000
0000
0101
0000
0011
0000
0000
1010
,
0000
0000
1100
0000
1001
0000
0000
0110
,
0000
0000
0011
0000
1010
0000
0000
0101
,
0000
1100
2002
0000
,
0000
0000
0000
0000
,
0000
3003
0001
0100
,
0010
1000
1100
1001
,
0011
0110
1001
0011
,
1001
0000
0011
0000
0100
1000
0001
1000
,
0100
1000
0010
1000
0100
0000
1000
0000
,
0000
0101
0000
1001
0000
0011
0000
0110
,
0000
1001
0000
0011
0000
1001
0000
0011
,
0000
0001
0000
0001
0100
0001
1000
0001
,
0100
0001
0010
0000
0001
0000
0010
0000
,
0100
1000
0000
0100
1000
0000
0010
0000
,
0100
0001
0000
0100
0001
0000
1000
0000
,
0001
0010
0000
0001
0100
0001
1000
0001
,
0100
0001
0010
0000
0001
0000
0010
0000
,
0100
1000
0000
0100
1000
0000
0010
0000
,
0100
0001
0000
0100
0001
0000
1000
0000
,
0001
0010
0000
0001
0100
0001
1000
0001
,
0100
0001
0010
0000
0010
0000
1000
0100
,
1000
0100
1000
0100
1000
0000
0001
0100
,
0001
0100
0001
0100
0010
0000
1000
0100
,
1000
0100
1000
0100
1000
0001
0100
0010
,
1000
0010
0100
0010
1000
0000
0001
0100
,
0001
0100
0001
0100
0001
0000
1000
0100
,
1000
0100
1000
0100
0010
0001
0010
0100
,
1000
0100
1000
0000
1000
0100
1000
0000
,
0100
0001
0100
0000
1000
0000
0100
0000
,
1000
0100
1100
1001
,
0011
0110
1001
0011
,
1001
0000
0011
0000
0100
1000
0001
1000
,
0100
1000
0010
1000
0001
0000
0010
0000
,
0000
1100
0000
1001
0000
1010
0000
0110
,
0000
1001
0000
0011
0000
1001
0000
1010
,
0000
1000
0000
1000
0100
1000
0001
1000
,
0100
1000
0010
1000
0001
0000
0010
0000
,
0001
0010
0011
1001
,
1100
0110
1001
1100
,
1001
0000
1100
0000
0100
0001
1000
0001
,
0100
0001
0010
0100
1000
0001
1000
0001
,
1000
0001
1000
0001
0010
0100
1000
0001
,
1000
0100
0010
0001
0010
0100
1000
0010
,
0100
0010
1000
0001
0010
0001
1000
0010
,
0100
0001
1000
0000
0012
0000
0000
0000
,
1003
1000
0010
1000
,
0001
0000
0010
0000
0001
1000
0001
0000
,
1000
0000
0010
0000
0100
0001
1000
0010
,
1000
0001
1000
0010
1000
0000
1000
0000
,
0001
1000
0010
1000
,
0001
0010
2010
0000
,
3001
0000
0001
0000
1000
0001
0010
0001
,
1000
0100
0010
0001
1000
0001
0010
0001
,
1000
0010
1000
0010
1000
0000
0001
0010
,
0001
1000
0001
0000
1000
0010
1000
0000
,
0100
0000
0001
1000
0001
0100
0001
0010
,
0001
1000
0011
1000
,
0010
1000
0001
0000
0100
0000
0010
0001
,
1000
0010
0001
0000
1010
0000
0001
0000
,
0010
0001
1000
0000
0100
0000
0010
1000
,
0001
0010
1000
0000
0100
0000
0100
0000
,
1001
0000
1000
0010
0100
0000
0101
0000
,
1010
0000
0000
0000
0100
1000
1000
1000
,
0100
1000
1000
0000
0100
0001
0001
0001
,
0100
0001
0001
0000
0010
0001
0010
0001
,
0001
0001
0001
0000
0010
1000
0010
1000
,
1000
1000
1000
0000
0100
0000
0001
0000
,
0010
0000
1000
0000
0001
1000
0010
1000
,
0001
0000
1000
0010
1000
0001
0000
0000
,
1000
0001
0010
0001
1000
0000
0010
0100
,
0001
0000
0000
1000
0001
0100
0010
1000
,
0000
0010
0000
1000
0001
0010
0000
0001
,
0000
0001
1000
0010
0000
1000
0001
0000
,
0100
1000
0100
0000
0001
0000
0001
0100
,
0000
1000
0010
1000
0010
0000
0001
0010
,
0001
0000
0001
0010
0000
1000
0000
0001
,
0000
0000
1000
0010
1000
0010
1000
0000
,
1000
0001
0000
0001
0100
0010
1000
0000
,
1000
0010
1000
0000
0001
0010
0001
0000
,
0010
0000
1000
0001
1000
0000
0000
0001
,
0000
0000
0100
0001
0000
1000
0010
1000
,
0000
0000
0100
0000
0010
0100
0010
0000
,
0010
0000
1000
0000
1000
0010
0100
0001
,
1000
0010
1000
0010
1000
0000
0010
0000
,
1000
0010
1000
0001
,
1000
0001
0010
0001
,
0010
0001
1000
0001
,
1000
0010
1000
0010
,
1000
0010
1000
0001
,
1000
0001
0100
0001
,
1000
0001
0100
0001
,
0010
0001
0010
0100
,
1000
0100
1000
0001
,
1000
0001
0100
0001
,
0100
0001
0100
0010
,
0100
0010
0100
0001
,
0100
0001
1000
0001
,
1000
0001
0100
0001
,
1000
0001
0100
0001
,
0100
0001
1000
0100
,
0010
0001
1000
0001
,
1000
0010
1000
0010
,
0100
0001
0010
0100
,
1000
0010
1000
0001
,
1000
0001
1000
0010
,
1000
0010
0100
0001
,
1000
0001
0100
0001
,
0010
0001
0010
0001
,
0100
0010
1000
0010
,
0100
0010
0100
0001
,
1000
0100
1000
0001
,
0010
0001
1000
0010
,
1000
0001
1000
0010
,
0100
0010
1000
0010
,
1000
0001
2002
0000
,
0000
0000
0000
0000
,
0000
0000
0000
0000
3003
0000
0011
0110
,
1100
1010
2002
0000
0000
0000
0000
0000
,
0000
0000
0000
0000
0000
0000
0000
0000
0000
3003
0000
0000
0000
2020
0000
0000
,
0000
0000
0000
0000
,
0000
0000
0000
0000
0000
0000
0000
0000
0000
3030
0000
0000
0000
0202
0000
0000
,
0000
0000
0000
0000
0000
0000
0000
0000
0000
0303
0000
0000
0000
0101
0000
0110
,
0000
1010
0000
1100
0000
2002
0000
0000
0000
3003
0000
0000
0000
2200
0000
0000
,
0000
0000
0000
0000
,
0000
0000
0000
0000
0000
0000
0000
0000
0000
3300
0000
0000
0000
0022
0000
0000
,
0000
0000
0000
0000
,
0000
0000
0033
1001
;
