#TITLE:V;
#SUBTITLE:(Winter Carnival Remix);
#ARTIST:byakko_of_the_west;
#TITLETRANSLIT:;
#SUBTITLETRANSLIT:;
#ARTISTTRANSLIT:;
#CREDIT:;
#BANNER:;
#BACKGROUND:;
#LYRICSPATH:;
#CDTITLE:;
#MUSIC:V (Winter Carnival Remix).mp3;
#OFFSET:0.000;
#SAMPLESTART:100.000;
#SAMPLELENGTH:12.000;
#SELECTABLE:YES;
#BPMS:0.000=160.000,272.000=150.000,280.000=140.000,282.000=110.000,282.500=90.000,283.000=70.000;
#STOPS:;
#BGCHANGES:;
// cache tags:
#FIRSTBEAT:8.000;
#LASTBEAT:291.000;
#SONGFILENAME:Songs/toune 2/V (Winter Carnival Remix)/V (Winter Carnival Remix).sm;
#HASMUSIC:1;
#HASBANNER:0;
#MUSICLENGTH:117.505;
// end cache tags

//---------------dance-single - ----------------
#NOTES:
     dance-single:
     :
     Challenge:
     9:
     0.631,0.743,0.068,0.077,0.302,502.000,8.000,9.000,0.000,0.000:
0000
0000
0000
0000
,
0000
0000
0000
0000
,
0001
0100
0000
0010
0000
0100
0001
0000
,
1000
0100
0000
0001
0000
0100
1000
0000
,
0010
0100
0000
0001
0000
0100
0010
0000
,
0001
0100
0000
1000
0000
0100
0001
0000
,
0010
0100
0000
0001
0000
0100
0010
0000
,
0100
1000
0000
0001
0000
1000
0100
0000
,
1000
0100
0000
0010
0000
0100
1000
0000
,
0001
1000
0000
0100
0000
1000
0001
0000
,
1000
0100
0000
0001
0000
0100
1000
0000
,
0010
0001
0000
0100
0000
0001
0010
0000
,
0100
0001
0000
1000
0000
0001
0100
0000
,
1000
0010
0000
0001
0000
0010
1000
0000
,
0100
1000
0000
0001
0000
1000
0100
0000
,
1000
0100
0000
0001
0000
0100
1000
0000
,
0010
0100
0000
1000
0000
0100
0010
0000
,
0001
0100
0000
0010
0000
0100
0001
0000
,
1000
0001
0000
0010
0000
0001
1000
0000
,
0100
0001
0000
1000
0000
0001
0100
0000
,
0010
0100
0000
1000
0000
0100
0010
0000
,
1000
0100
0000
0001
0000
0100
1000
0000
,
0001
0100
0000
1000
0000
0100
0001
0000
,
1000
0100
0000
0010
0000
0100
1000
0000
,
1001
0000
0000
0100
0000
0000
0100
0000
0010
0000
1000
0000
0100
0000
0001
0000
,
0000
0020
0000
0130
0000
2000
0000
3001
,
1001
1000
0010
0010
0100
0001
0010
1000
,
0010
0100
1000
1000
0010
0100
0001
1000
,
1001
0000
0000
0010
0000
0000
0010
0000
1000
0000
0100
0000
0001
0000
0100
0000
,
0000
2000
0000
3010
0000
0002
0000
1003
,
1001
0001
0100
0100
0010
1000
0100
0001
,
0100
0010
1000
1000
0100
0001
0010
0001
,
1001
0000
0000
0100
0000
0000
1000
0000
0010
0000
0100
0000
0001
0000
0010
0000
,
0000
0200
0000
1300
0000
0020
0000
0031
,
1001
1000
0010
0010
0100
0001
0010
0100
,
0010
1000
0100
0100
0001
0010
1000
0001
,
1001
0000
0000
0010
0000
0000
0001
0000
0100
0000
0010
0000
0001
0000
1000
0000
,
0000
0002
0000
0013
0000
2000
0000
3001
,
1001
0001
0100
0100
0010
1000
0100
0001
,
0100
0000
1000
0000
0001
0000
0001
0000
0100
0000
0010
0100
1000
0000
0100
0000
,
0001
0010
0000
0000
0001
1000
0000
0000
0001
0100
0000
0000
1000
0010
0000
0000
,
1000
0001
0000
0000
1000
0100
0000
0000
0010
1000
0000
0000
0010
0100
0000
0000
,
0010
0001
0000
0000
0100
1000
0000
0000
0100
0001
0000
0000
0100
0010
0000
0000
,
1000
0100
0000
0000
1000
0010
0000
0000
1000
0001
0000
0000
0010
0100
0000
0000
,
0010
0001
0000
0000
0010
1000
0000
0000
0001
0100
0000
0000
0001
0010
0000
0000
,
0001
1000
0000
0000
0100
0001
0000
0000
0100
0010
0000
0000
0100
1000
0000
0000
,
0001
0100
0000
0000
0001
0010
0000
0000
0001
1000
0000
0000
0100
0010
0000
0000
,
0100
0001
0000
0000
0100
1000
0000
0000
0010
1000
0000
0000
0010
0100
0000
0000
,
0010
1000
0100
0001
0100
0001
0010
0100
,
1000
0010
0100
0010
0001
0010
0001
0100
,
1000
0010
0100
0001
1000
0100
0001
0100
,
1000
0010
0001
0010
0100
0001
0100
0001
,
0100
1000
0100
1000
0010
0100
0001
0100
,
0010
1000
0001
0100
1000
0100
0010
0001
,
0100
0010
1000
0010
0100
0001
0010
0100
,
1000
0010
0100
0001
0100
0001
0100
1000
,
0001
0000
0100
0010
0100
0010
0100
0010
0100
0000
0001
0000
0010
0000
1000
0000
,
0001
0100
0010
0100
0001
1000
0100
1000
,
0001
0000
0010
1000
0010
1000
0010
1000
0010
0000
0100
0000
1000
0000
0100
0000
,
0001
0010
0100
0010
1000
0100
1000
0010
,
0100
0000
0010
0001
0010
0001
0010
0001
0010
0000
0100
0000
0001
0000
1000
0000
,
0010
0100
1000
0100
0001
0010
1000
0001
,
1000
0000
0010
0100
0010
0100
0010
0100
0010
0000
1000
0000
0001
0000
0010
0000
,
1000
0100
0001
0100
0010
0100
0001
1000
,
0001
0100
0001
0000
1000
0100
1000
0000
0001
0010
0001
0000
1000
0010
1000
0000
,
0001
0000
1000
0010
1000
0010
1000
0010
1000
0000
0100
0000
0010
0000
0001
0000
,
0010
0000
1000
0100
1000
0100
1000
0100
1000
0000
0001
0000
0010
0000
0100
0000
,
1000
0000
0100
0001
0100
0001
0100
0001
0100
0000
0010
0000
0001
0000
0010
0000
,
0100
0000
1000
0001
1000
0001
1000
0001
1000
0000
0010
0000
0100
0000
0001
0000
,
0010
0000
0100
1000
0100
1000
0100
1000
0100
0000
0010
0000
0001
0000
0100
0000
,
1000
0000
0010
0100
0010
0100
0010
0100
0010
0000
0100
0000
1000
0000
0100
0000
,
0020
0000
0000
0000
,
0000
0000
0000
0030
;

//---------------dance-single - ----------------
#NOTES:
     dance-single:
     :
     Hard:
     10:
     0.744,0.681,0.000,0.009,0.621,611.000,0.000,1.000,0.000,0.000:
0000
0000
0000
0000
,
0000
0000
0000
0000
,
0001
1000
0001
0000
0100
0000
0010
1000
0000
1000
0010
0000
0100
0000
0001
0000
,
1000
0010
1000
0000
0100
0000
0001
0010
0000
0010
0001
0000
0100
0000
1000
0000
,
0010
0100
0010
0000
1000
0000
0001
0100
0000
0100
0001
0000
0010
0000
0100
0000
,
1000
0001
1000
0000
0100
0000
0010
0001
0000
0001
0010
0000
0100
0000
0001
0000
,
0010
1000
0010
0000
0100
0000
0001
1000
0000
1000
0001
0000
0010
0000
0100
0000
,
1000
0010
1000
0000
0001
0000
0100
0010
0000
0010
0100
0000
0001
0000
0010
0000
,
1000
0100
1000
0000
0010
0000
0001
0100
0000
0100
0001
0000
1000
0000
0010
0000
,
0100
0001
0100
0000
0010
0000
1000
0001
0000
0001
1000
0000
0100
0000
0010
0000
,
0001
1000
0001
0000
0100
0000
0010
1000
0000
1000
0010
0000
0100
0000
0001
0000
,
0010
0100
0010
0000
1000
0000
0001
0100
0000
0100
0001
0000
0010
0000
0100
0000
,
1000
0001
1000
0000
0010
0000
0100
0001
0000
0001
0100
0000
0010
0000
0100
0000
,
1000
0010
1000
0000
0100
0000
0001
0010
0000
0010
0001
0000
0100
0000
0010
0000
,
0001
1000
0001
0000
0010
0000
0100
1000
0000
1000
0100
0000
0010
0000
0100
0000
,
0001
0010
0001
0000
0100
0000
0001
0010
0000
0010
0001
0000
0100
0000
0010
0000
,
1000
0001
1000
0000
0010
0000
1000
0001
0000
0001
1000
0000
0100
0000
0001
0000
,
0100
0010
0100
0000
1000
0000
0001
0010
0000
0010
0001
0000
0100
0000
0010
0000
,
0001
1000
0001
0000
1000
0000
0010
1000
0000
1000
0010
0000
0100
0000
0010
0000
,
1000
0100
1000
0000
0001
0000
0010
0100
0000
0100
0010
0000
1000
0000
0001
0000
,
0010
1000
0010
0000
0001
0000
0100
1000
0000
1000
0100
0000
0010
0000
0100
0000
,
0001
0010
0001
0000
0100
0000
1000
0010
0000
0010
1000
0000
0100
0000
0010
0000
,
0001
1000
0001
0000
0100
0000
0001
1000
0000
1000
0001
0000
0010
0000
0100
0000
,
0010
0001
0010
0000
1000
0000
0100
0001
0000
0001
0100
0000
0010
0000
1000
0000
,
0100
0000
0000
0001
0000
0000
0010
0000
1000
0000
0100
0000
0001
0000
0010
0000
,
0100
0000
1000
0100
0000
0100
1000
0000
0010
0000
1000
0001
0000
0001
1000
0000
,
1000
0100
0010
0001
0100
0001
0100
1000
,
0100
0001
0100
1000
0010
1000
0010
0100
,
0001
0000
0000
0010
0000
0000
1000
0000
0001
0000
0100
0000
0010
0000
1000
0000
,
0001
0000
0100
0010
0000
0010
0100
0000
1000
0000
0100
0001
0000
0001
0100
0000
,
0010
1000
0100
0001
0100
0001
0010
1000
,
0100
0001
0100
0010
0100
0001
1000
0100
,
0010
0000
0000
1000
0000
0000
0001
0000
0100
0000
0010
0000
0100
0000
0001
0000
,
1000
0000
0100
0001
0000
0001
0100
0000
0010
0000
1000
0001
0000
0001
1000
0000
,
0010
0100
0001
0010
1000
0010
0100
0001
,
0100
1000
0100
1000
0010
0100
0001
1000
,
0010
0000
0000
0100
0000
0000
0001
0000
0010
0000
1000
0000
0010
0000
0100
0000
,
0001
0000
0010
1000
0000
1000
0010
0000
0001
0000
0010
0100
0000
0100
0010
0000
,
1000
0001
0100
0010
1000
0100
1000
0100
,
0001
0100
0001
0010
1000
0010
0001
0100
,
1000
0010
0000
0000
0100
1000
0000
0000
0010
0001
0000
0000
0100
0001
0000
0000
,
0010
0100
0000
0000
0001
1000
0000
0000
0100
0010
0000
0000
0100
1000
0000
0000
,
0100
0001
0000
0000
0010
0001
0000
0000
1000
0100
0000
0000
0001
1000
0000
0000
,
0010
0100
0000
0000
0010
0001
0000
0000
1000
0010
0000
0000
0100
1000
0000
0000
,
0001
0100
0000
0000
0001
0010
0000
0000
1000
0001
0000
0000
0100
1000
0000
0000
,
0100
0010
0000
0000
1000
0001
0000
0000
0001
0100
0000
0000
0010
0100
0000
0000
,
1000
0001
0000
0000
0010
1000
0000
0000
0010
0100
0000
0000
0001
1000
0000
0000
,
1000
0100
0000
0000
0100
0010
0000
0000
0100
0001
0000
0000
0010
1000
0000
0000
,
0001
0100
0010
0100
0001
0100
0010
0100
,
1000
0001
0010
0001
1000
0001
0010
0001
,
0100
0010
1000
0010
0100
0010
1000
0010
,
0001
0100
1000
0100
0001
0100
1000
0100
,
0010
1000
0100
1000
0010
1000
0100
1000
,
0001
0100
1000
0100
0001
0100
1000
0100
,
0010
1000
0001
1000
0010
1000
0001
1000
,
0100
0001
0010
0001
0100
0001
0010
0001
,
1000
0000
0100
0001
0100
0001
0100
0010
0100
0000
0001
0000
0010
0000
0100
0000
,
1000
0010
0000
0001
0000
0010
1000
0000
,
0010
0000
0100
1000
0100
1000
0100
0010
0100
0000
0001
0000
1000
0000
0100
0000
,
0010
0001
0000
1000
0000
0001
0010
0000
,
0100
0000
0010
0001
0010
0001
0010
1000
0010
0000
0100
0000
0001
0000
0010
0000
,
1000
0100
0000
0001
0000
0100
1000
0000
,
0001
0000
0010
1000
0010
1000
0010
0100
0010
0000
1000
0000
0100
0000
0010
0000
,
0001
0100
0000
0010
0000
0100
0001
0000
,
0010
1000
0010
0000
0100
0001
0100
0000
0001
0010
0001
0000
1000
0100
1000
0000
,
0001
0000
0010
0100
0000
0010
0100
0000
1000
0000
0001
0000
1000
0000
0001
0000
,
1000
0000
0100
0001
0000
1000
0010
0000
0001
0000
1000
0000
0001
0000
1000
0000
,
0001
0000
1000
0100
0000
0010
0001
0000
1000
0000
0001
0000
1000
0000
0001
0000
,
1000
0000
0010
0100
0000
0010
0100
0000
0001
0000
1000
0000
0001
0000
1000
0000
,
0001
0000
0010
1000
0000
0001
0100
0000
1000
0000
0001
0000
1000
0000
0001
0000
,
1000
0000
0010
0100
0000
0010
0100
0000
0001
0000
1000
0000
0001
0000
1000
0000
,
0020
0000
0000
0000
,
0000
0000
0000
0030
;

//---------------dance-single - ----------------
#NOTES:
     dance-single:
     :
     Medium:
     7:
     0.523,0.526,0.136,0.119,0.017,400.000,16.000,14.000,0.000,0.000:
0000
0000
0000
0000
,
0000
0000
0000
0000
,
1000
0100
0010
0000
0010
0100
1000
0000
,
0001
0010
1000
0000
1000
0010
0001
0000
,
0100
1000
0010
0000
0010
1000
0100
0000
,
0010
1000
0001
0000
0001
1000
0010
0000
,
1000
0100
0001
0000
0001
0100
1000
0000
,
0001
0010
0100
0000
0100
0010
0001
0000
,
0100
0001
0010
0000
0010
0001
0100
0000
,
0001
1000
0100
0000
0100
1000
0001
0000
,
0100
1000
0010
0000
0010
1000
0100
0000
,
1000
0100
0010
0000
0010
0100
1000
0000
,
0001
0010
1000
0000
1000
0010
0001
0000
,
0010
0100
0001
0000
0001
0100
0010
0000
,
1000
0010
0100
0000
0100
0010
1000
0000
,
0010
0100
1000
0000
1000
0100
0010
0000
,
0100
0001
1000
0000
1000
0001
0100
0000
,
1000
0100
0001
0000
0001
0100
1000
0000
,
0010
0100
0001
0000
0001
0100
0010
0000
,
1000
0010
0100
0000
0100
0010
1000
0000
,
0001
1000
0100
0000
0100
1000
0001
0000
,
0100
0010
0001
0000
0001
0010
0100
0000
,
0001
1000
0010
0000
0010
1000
0001
0000
,
0100
0010
1000
0000
1000
0010
0100
0000
,
0001
0000
0000
1000
0000
0000
0001
0000
0000
0000
1000
0000
0010
0000
0001
0000
,
0000
0010
0100
1000
0100
0001
0100
0001
,
0010
1000
0010
0001
0010
0001
0100
1000
,
0020
0000
0000
0000
,
1030
0000
0000
0001
0000
0000
1000
0000
0000
0000
0001
0000
0010
0000
1000
0000
,
0000
0100
0001
0100
0001
0010
1000
0100
,
1000
0100
0001
0100
1000
0010
0100
0001
,
0020
0000
0000
0000
,
0031
0000
0000
0100
0000
0000
0001
0000
0000
0000
1000
0000
0100
0000
0001
0000
,
0000
0010
1000
0010
0100
0001
0010
1000
,
0010
0100
0001
0100
0001
0010
1000
0010
,
0200
0000
0000
0000
,
0301
0000
0000
1000
0000
0000
0001
0000
0000
0000
1000
0000
0010
0000
0001
0000
,
0000
0100
1000
0010
0100
1000
0100
0010
,
1000
0100
0001
0100
1000
0010
0001
0010
,
0200
0000
0000
0000
,
0301
1010
0010
0110
,
1000
1100
0001
1001
,
0100
0011
1000
0101
,
0010
1100
0100
0110
,
0001
1010
1000
0101
,
0100
0011
1000
1010
,
0010
1001
0010
0101
,
0001
0110
1000
1001
,
1000
0100
0001
0100
1000
0010
1000
0010
,
0001
0100
1000
0100
0001
0010
0001
0010
,
0100
1000
0010
1000
0100
0001
0100
0001
,
1000
0010
0100
0010
1000
0100
0010
0100
,
1000
0001
0010
0001
1000
0100
0001
0100
,
1000
0010
1000
0010
0001
0010
0001
0100
,
1000
0010
0100
0001
0100
0010
1000
0001
,
1000
0100
0001
0100
0001
0100
1000
0100
,
2000
0000
0000
0000
3010
0100
0001
0010
,
1000
0001
0100
0000
1000
0010
0001
0000
,
0020
0000
0000
0000
0031
0010
1000
0001
,
1000
0100
0010
0000
0100
0001
1000
0000
,
0002
0000
0000
0000
1003
0010
0100
1000
,
0010
0100
0001
0000
0010
0100
1000
0000
,
0200
0000
0000
0000
0301
0010
0100
1000
,
0010
0100
1000
0000
0100
0001
0010
0000
,
0100
0001
1000
0000
0010
0100
0001
0100
,
2000
0000
0000
0000
3010
0100
1000
0100
,
0020
0000
0000
0000
0130
0001
0010
0100
,
2000
0000
0000
0000
3001
0010
0100
1000
,
0200
0000
0000
0000
0301
0010
0001
0010
,
2000
0000
0000
0000
3000
0010
0100
0010
,
1000
0100
0001
0100
1000
0010
0100
0001
,
0020
0000
0000
0000
,
0000
0000
0000
0030
;

//---------------dance-single - ----------------
#NOTES:
     dance-single:
     :
     Easy:
     5:
     0.339,0.526,0.170,0.119,0.000,245.000,20.000,14.000,0.000,0.000:
0000
0000
0000
0000
,
0000
0000
0000
0000
,
1000
0000
0000
0100
0000
0000
1000
0000
,
0010
0000
0000
0100
0000
0000
0010
0000
,
1000
0000
0000
0001
0000
0000
1000
0000
,
0001
0000
0000
0010
0000
0000
0001
0000
,
0010
0000
0000
1000
0000
0000
0010
0000
,
0100
0000
0000
0001
0000
0000
0100
0000
,
1000
0000
0000
0010
0000
0000
1000
0000
,
0100
0000
0000
0010
0000
0000
0100
0000
,
0001
0000
0000
1000
0000
0000
0001
0000
,
0010
0000
0000
1000
0000
0000
0010
0000
,
1000
0000
0000
0100
0000
0000
1000
0000
,
0100
0000
0000
0001
0000
0000
0100
0000
,
0001
0000
0000
1000
0000
0000
0001
0000
,
0010
0000
0000
0100
0000
0000
0010
0000
,
1000
0000
0000
0010
0000
0000
1000
0000
,
0010
0000
0000
0001
0000
0000
0010
0000
,
0001
0000
0000
1000
0000
0000
0001
0000
,
0010
0000
0000
1000
0000
0000
0010
0000
,
0100
0000
0000
1000
0000
0000
0100
0000
,
0001
0000
0000
0010
0000
0000
0001
0000
,
1000
0001
1000
0001
1000
0001
1000
0001
,
0100
0010
0100
0010
0100
0010
0100
0010
,
0200
0000
0000
0000
,
0300
0100
0000
0001
0000
0010
0000
1000
,
0100
0010
0001
0010
,
0100
1000
0010
0100
,
2000
0000
0000
0000
,
3000
1000
0000
0010
0000
0100
0000
1000
,
0001
0010
0100
0001
,
0100
0010
1000
0100
,
0002
0000
0000
0000
,
0003
0001
0000
0100
0000
0010
0000
1000
,
0100
1000
0001
0010
,
0100
1000
0100
0001
,
0020
0000
0000
0000
,
0030
0010
0000
0100
0000
0001
0000
1000
,
0010
0100
0001
0100
,
0010
1000
0100
0010
,
1000
1010
1000
1100
,
0100
0101
0100
1100
,
0010
0110
0010
1010
,
0001
1001
0001
0011
,
1000
1001
0010
0110
,
0100
1100
0001
0101
,
1000
1010
0100
1100
,
0010
0110
0001
1001
,
0010
1000
0001
1000
,
0010
0100
1000
0100
,
0010
1000
0001
1000
,
0010
0001
1000
0001
,
0010
0100
1000
0100
,
0010
1000
0100
1000
,
0010
0100
0001
0100
,
0010
1000
0001
1000
,
0020
0000
0000
0000
,
1030
0000
0000
1001
0000
0000
0001
0000
,
0200
0000
0000
0000
,
0310
0000
0000
1010
0000
0000
1000
0000
,
0002
0000
0000
0000
,
0013
0000
0000
0110
0000
0000
0100
0000
,
2000
0000
0000
0000
,
3001
0000
0000
1001
0000
0000
1000
0000
,
0010
0100
0010
0100
0010
0100
0010
0100
,
0020
0000
0000
0000
1030
0001
1000
0000
,
0020
0000
0000
0000
0031
1000
0001
0000
,
0020
0000
0000
0000
0130
0001
0100
0000
,
0020
0000
0000
0000
0130
1000
0100
0000
,
0020
0000
0000
0000
0031
1000
0001
0000
,
1000
0100
0010
0001
1000
0100
0010
0001
,
0020
0000
0000
0000
,
0000
0000
0000
0030
;

//---------------dance-single - ----------------
#NOTES:
     dance-single:
     :
     Beginner:
     3:
     0.218,0.279,0.068,0.060,0.000,164.000,8.000,7.000,0.000,0.000:
0000
0000
0000
0000
,
0000
0000
0000
0000
,
1000
0000
1000
1000
,
0000
0100
0000
0100
,
0010
0000
0010
0010
,
0000
1000
0000
1000
,
0001
0000
0001
0001
,
0000
0010
0000
0010
,
0100
0000
0100
0100
,
0000
0001
0000
0001
,
1000
0000
1000
1000
,
0000
0100
0000
0100
,
0010
0000
0010
0010
,
0000
0100
0000
0100
,
0001
0000
0001
0001
,
0000
1000
0000
1000
,
0010
0000
0010
0010
,
0000
0100
0000
0100
,
0001
0000
0001
0001
,
0000
0100
0000
0100
,
0010
0000
0010
0010
,
0000
1000
0000
1000
,
0100
0000
0100
0100
,
0000
0001
0000
0001
,
1000
0000
1000
0000
,
1001
0000
1001
0000
,
0010
0010
0010
0010
,
0010
0010
0010
0010
,
0001
0000
0001
0000
,
1001
0000
1001
0000
,
0100
0100
0100
0100
,
0100
0100
0100
0100
,
0010
0000
0010
0000
,
0110
0000
0110
0000
,
1000
1000
1000
1000
,
1000
1000
1000
1000
,
0100
0000
0100
0000
,
0110
0000
0110
0000
,
0001
0001
0001
0001
,
0001
0001
0001
0001
,
0200
0000
0000
0000
,
0000
0000
0000
0000
,
0000
0000
0000
0000
,
0000
0000
0000
0000
,
0000
0000
0000
0000
,
0000
0000
0000
0000
,
0000
0000
0000
0000
,
0000
0000
0000
0000
,
0310
0010
0010
0000
,
1000
1000
1000
0000
,
0001
0001
0001
0000
,
0100
0100
0100
0000
,
0010
0010
0010
0000
,
0100
0100
0100
0000
,
0001
0001
0001
0000
,
1000
1000
1000
0000
,
0200
0000
0000
0000
,
0301
1000
0001
1000
,
0020
0000
0000
0000
,
1030
0001
1000
0001
,
0200
0000
0000
0000
,
0301
1000
0001
1000
,
0020
0000
0000
0000
,
1030
0001
1000
0001
,
0200
0000
0000
0000
,
0310
0000
0010
0000
,
0010
0000
0010
0000
,
0010
0000
0010
0000
,
0010
0000
0010
0000
,
0010
0000
0010
0000
,
0010
1000
0001
1000
,
0020
0000
0000
0000
,
0000
0000
0000
0030
;
