#TITLE:Full Metal Alchemist - Main Theme;
#SUBTITLE:;
#ARTIST:Akirasan2;
#TITLETRANSLIT:;
#SUBTITLETRANSLIT:;
#ARTISTTRANSLIT:;
#CREDIT:Akirasan2;
#BANNER:baner.jpg;
#BACKGROUND:Full-Metal-Alchemist.jpg;
#LYRICSPATH:;
#CDTITLE:;
#MUSIC:Full Metal Alchemist - Main Theme.mp3;
#OFFSET:-0.777;
#SAMPLESTART:42.441;
#SAMPLELENGTH:12.000;
#SELECTABLE:YES;
#BPMS:0.000=144.008;
#STOPS:;
#BGCHANGES:0.000=Full-Metal-Alchemist.jpg=1.000=0=0=1,
99999=-nosongbg-=1.000=0=0=0 // don't automatically add -songbackground-
;
// cache tags:
#FIRSTBEAT:4.500;
#LASTBEAT:555.000;
#SONGFILENAME:Songs/cedric step/Full Metal Alchemist - Main Theme/Full Metal Alchemist - Main Theme.sm;
#HASMUSIC:1;
#HASBANNER:1;
#MUSICLENGTH:234.091;
// end cache tags

//---------------dance-single - Basic----------------
#NOTES:
     dance-single:
     Basic:
     Easy:
     3:
     0.234,0.267,0.043,0.000,0.000,373.000,10.000,0.000,0.000,0.000:
0000
0000
0000
0000
0000
0000
0000
0000
,
0000
0000
0000
0000
1000
0000
0001
0000
,
0001
0000
0000
0000
0000
0000
1000
0000
,
0000
0000
1000
0000
1000
0000
1000
0000
,
0001
0000
0001
0000
0000
0000
0010
0000
,
0000
0000
1000
0000
1000
0000
1000
0000
,
1000
0000
0000
0000
0001
0000
0100
0000
,
0001
0000
0010
0000
0001
0000
0000
0000
,
0001
0000
0000
0000
0011
0000
1000
0000
,
0000
0000
1000
0000
0010
0000
1000
0000
,
0000
0000
1000
0000
0001
0000
0001
0000
,
1100
0000
1000
0000
0100
0000
0000
0000
,
0001
0000
0000
0000
0011
0000
1000
0000
,
0000
0000
1000
0000
0010
0000
1000
0000
,
0000
0000
1000
0000
0110
0000
1000
0000
,
0000
0000
1000
0000
1000
0000
1000
0000
,
0000
0000
1000
0000
0100
0000
0010
0000
,
0001
0000
0000
0000
0000
0000
1000
0000
,
1000
0000
0000
0000
0000
0000
0001
0000
,
0001
0000
0000
0000
0000
0000
1000
0000
,
1000
0000
0000
0000
0000
0000
0001
0000
,
0001
0000
0000
0000
0000
0000
1000
0000
,
1000
0000
0000
0000
0000
0000
0001
0000
,
1000
0000
0000
0000
0000
0000
0001
0000
,
0000
0000
1000
0000
1000
0000
1000
0000
,
1000
0000
0000
0000
0001
0000
0100
0000
,
1000
0000
0000
0000
0001
0000
1000
0000
,
1000
0000
0000
0000
0001
0000
0100
0000
,
1000
0000
0000
0000
0001
0000
0100
0000
,
1000
0000
0000
0000
0001
0000
0100
0000
,
0001
0000
0000
0000
1000
0000
0010
0000
,
1000
0000
0000
0000
0001
0000
0100
0000
,
0000
0000
1000
0000
1000
0000
1000
0000
,
0000
0000
1000
0000
1000
0000
1000
0000
,
1000
0000
0000
0000
0001
0000
0100
0000
,
0001
0000
0000
0000
1000
0000
0010
0000
,
0000
0000
1000
0000
1000
0000
1000
0000
,
0001
0000
0001
0000
0000
0000
0010
0000
,
0000
0000
1000
0000
1000
0000
1000
0000
,
1000
0000
0010
0000
0000
0000
0000
0000
,
0001
0000
1000
0000
0000
0000
0001
0000
,
1000
0000
0000
0000
0001
0000
0100
0000
,
1000
0000
0000
0000
0001
0000
0010
0000
,
1000
0000
0000
0000
0001
0000
0010
0000
,
0001
0000
0001
0000
0000
0000
0010
0000
,
0000
0000
1000
0000
1000
0000
1000
0000
,
1000
0000
0000
0000
0001
0000
0100
0000
,
0001
0000
0001
0000
0000
0000
0000
0000
,
0000
0000
1000
0000
0001
0000
0001
0000
,
1000
0000
0000
0000
0001
0000
0100
0000
,
0001
0000
0000
0000
1000
0000
0010
0000
,
0001
0000
0010
0000
0001
0000
0000
0000
,
1000
0000
0000
0000
0001
0000
0100
0000
,
1000
0000
0000
0000
0001
0000
0010
0000
,
0001
0000
0000
0000
1000
0000
0100
0000
,
1000
0000
0000
0000
0001
0000
0010
0000
,
0001
0000
0001
0000
0000
0000
0000
0000
,
0001
0000
0000
0000
0010
0000
0000
0000
,
1000
0000
0010
0000
0000
0000
0000
0000
,
0001
0000
0000
0000
0000
0000
1000
0000
,
0000
0000
1100
0000
0001
0000
0001
0000
,
1100
0000
1000
0000
0100
0000
0000
0000
,
1000
0000
0000
0000
0001
0000
0100
0000
,
1000
0000
0000
0000
0001
0000
0100
0000
,
0001
0000
0000
0000
1000
0000
0100
0000
,
0001
0000
0000
0000
1000
0000
0010
0000
,
1000
0000
0000
0000
0001
0000
0100
0000
,
0001
0000
0000
0000
0000
0000
1000
0000
,
0001
0000
0001
0000
0000
0000
0010
0000
,
0001
0000
0000
0000
0000
0000
1000
0000
,
0001
0000
0000
0000
0010
0000
0000
0000
,
0000
0000
0000
0000
1000
0000
0001
0000
,
0000
0000
0000
0000
1000
0000
0001
0000
,
0001
0000
0000
0000
0000
0000
1000
0000
,
1000
0000
0000
0000
0000
0000
0001
0000
,
1000
0000
0010
0000
0000
0000
0000
0000
,
0000
0000
1000
0000
0100
0000
0010
0000
,
1000
0000
0000
0000
0001
0000
0100
0000
,
0001
0000
0000
0000
1000
0000
0010
0000
,
0001
0000
0000
0000
1000
0000
0100
0000
,
0001
0000
0001
0000
0000
0000
0010
0000
,
1000
0000
1000
0000
0000
0000
0010
0000
,
1000
0000
0000
0000
0001
0000
0100
0000
,
0000
0000
1000
0000
1000
0000
1000
0000
,
0000
0000
1000
0000
0100
0000
0010
0000
,
1000
0000
0000
0000
0001
0000
0100
0000
,
0001
0000
0000
0000
1000
0000
0100
0000
,
1000
0000
0000
0000
0001
0000
0100
0000
,
0001
0000
1000
0000
0000
0000
0001
0000
,
0001
0000
0001
0000
0000
0000
0010
0000
,
1000
0000
0000
0000
0001
0000
0100
0000
,
0001
0000
0000
0000
1000
0000
0100
0000
,
0001
0000
0001
0000
0000
0000
0000
0000
,
0001
0000
1000
0000
0000
0000
0000
0000
,
0000
0000
0000
0000
1000
0000
0001
0000
,
1000
0000
0010
0000
0000
0000
0000
0000
,
0001
0000
1000
0000
0000
0000
0001
0000
,
0001
0000
0001
0000
0000
0000
0010
0000
,
0001
0000
0010
0000
0001
0000
0000
0000
,
1000
0000
0010
0000
0000
0000
0000
0000
,
0000
0000
1000
0000
0100
0000
0010
0000
,
1100
0000
1000
0000
0100
0000
0000
0000
,
0000
0000
1000
0000
1000
0000
1000
0000
,
1000
0000
0010
0000
0000
0000
0000
0000
,
0000
0000
1000
0000
0001
0000
0001
0000
,
1100
0000
1000
0000
0100
0000
0000
0000
,
0000
0000
1000
0000
0001
0000
0001
0000
,
1100
0000
1000
0000
0100
0000
0000
0000
,
0000
0000
1100
0000
0001
0000
0001
0000
,
0001
0000
0000
0000
0000
0000
1000
0000
,
0001
0000
0000
0000
0000
0000
1000
0000
,
1000
0000
0000
0000
0000
0000
0001
0000
,
1000
0000
0010
0000
0000
0000
0000
0000
,
0001
0000
0000
0000
0000
0000
1000
0000
,
1000
0000
0000
0000
0001
0000
1000
0000
,
0001
0000
0000
0000
0000
0000
1000
0000
,
1000
0000
0000
0000
0001
0000
0100
0000
,
0001
0000
0000
0000
1000
0000
0100
0000
,
1000
0000
0000
0000
0001
0000
0100
0000
,
1000
0000
0000
0000
0001
0000
0010
0000
,
0000
0000
1000
0000
1000
0000
1000
0000
,
1000
0000
0000
0000
0001
0000
0100
0000
,
1000
0000
0000
0000
0001
0000
0100
0000
,
0000
0000
1000
0000
1000
0000
1000
0000
,
0000
0000
1000
0000
1000
0000
1000
0000
,
1000
0000
0000
0000
0001
0000
0100
0000
,
0001
0000
0000
0000
1000
0000
0100
0000
,
0001
0000
0000
0000
1000
0000
0100
0000
,
0001
0000
0000
0000
0000
0000
1000
0000
,
1000
0000
0000
0000
0001
0000
0100
0000
,
0001
0000
0000
0000
1000
0000
0100
0000
,
1000
0000
0000
0000
0001
0000
0010
0000
,
0000
0000
1000
0000
0100
0000
0010
0000
,
1000
0000
0000
0000
0001
0000
0100
0000
,
0001
0000
0001
0000
0000
0000
0000
0000
,
0001
0000
0000
0000
0000
0000
1000
0000
,
0001
0000
0000
0000
0000
0000
1000
0000
,
0001
0000
0000
0000
0000
0000
1000
0000
,
0000
0000
0001
0000
0000
0000
0010
0000
,;

//---------------dance-single - Standard----------------
#NOTES:
     dance-single:
     Standard:
     Medium:
     5:
     0.315,0.326,0.043,0.000,0.000,506.000,10.000,0.000,0.000,0.000:
0000
0000
0000
0000
0000
0000
0000
0000
,
0000
0000
0001
0000
0010
0000
0001
0000
,
0001
0000
0100
0000
0000
0000
0010
0000
,
0001
0000
0001
0000
0001
0000
0001
0000
,
1000
0000
1000
0000
0100
0000
1000
0000
,
0001
0000
0001
0000
0001
0000
0001
0000
,
1000
0000
0001
0000
0100
0000
0010
0000
,
1000
0000
0010
0000
1000
0000
0001
0000
,
0001
0000
0100
0000
1010
0000
1000
0000
,
1000
0000
0001
0000
1000
0000
0100
0000
,
1000
0000
0001
0000
1000
0000
1000
0000
,
1001
0000
1000
0000
0010
0000
0010
0000
,
0001
0000
0100
0000
1010
0000
1000
0000
,
1000
0000
0001
0000
1000
0000
0100
0000
,
0001
0000
0001
0000
0011
0000
0001
0000
,
0001
0000
0001
0000
0001
0000
0001
0000
,
1000
0000
0010
0000
0100
0000
0010
0000
,
0001
0000
0100
0000
0000
0000
0010
0000
,
1000
0000
0010
0000
0000
0000
0100
0000
,
0001
0000
0100
0000
0000
0000
0010
0000
,
0001
0000
0100
0000
0000
0000
0010
0000
,
1000
0000
0100
0000
0000
0000
0010
0000
,
0001
0000
0100
0000
0000
0000
0010
0000
,
1000
0000
0100
0000
0000
0000
0010
0000
,
0001
0000
0001
0000
0001
0000
0001
0000
,
1000
0000
0001
0000
0100
0000
0010
0000
,
0001
0000
0000
0000
0100
0000
0001
0000
,
1000
0000
0001
0000
0100
0000
0010
0000
,
0001
0000
1000
0000
0100
0000
0010
0000
,
1000
0000
0001
0000
0010
0000
0100
0000
,
0001
0000
1000
0000
0100
0000
0010
0000
,
0001
0000
1000
0000
0100
0000
0010
0000
,
0001
0000
0001
0000
0001
0000
0001
0000
,
1000
0000
1000
0000
1000
0000
1000
0000
,
1000
0000
0001
0000
0100
0000
0010
0000
,
1000
0000
0001
0000
0010
0000
0100
0000
,
0001
0000
0001
0000
0001
0000
0001
0000
,
1000
0000
1000
0000
0100
0000
1000
0000
,
0001
0000
0001
0000
0001
0000
0001
0000
,
1000
0000
0100
0000
0010
0000
0000
0000
,
1000
0000
0010
0000
0000
0000
0001
0000
,
1000
0000
0001
0000
0100
0000
0010
0000
,
1000
0000
0001
0000
0010
0000
0100
0000
,
1000
0000
0001
0000
0100
0000
0010
0000
,
1000
0000
1000
0000
0100
0000
1000
0000
,
0001
0000
0001
0000
0001
0000
0001
0000
,
1000
0000
0001
0000
0100
0000
0010
0000
,
0001
0000
0001
0000
0000
0000
0100
0000
,
1000
0000
0001
0000
1000
0000
1000
0000
,
1000
0000
0001
0000
0100
0000
0010
0000
,
1000
0000
0001
0000
0100
0000
0010
0000
,
1000
0000
0010
0000
1000
0000
0001
0000
,
1000
0000
0001
0000
0100
0000
0010
0000
,
0001
0000
1000
0000
0010
0000
0100
0000
,
1000
0000
0001
0000
0100
0000
0010
0000
,
0001
0000
1000
0000
0100
0000
0010
0000
,
0001
0000
0001
0000
0000
0000
0100
0000
,
1000
0000
0100
0000
0010
0000
0000
0000
,
1000
0000
0100
0000
0010
0000
0000
0000
,
0001
0000
0100
0000
0000
0000
0010
0000
,
0001
0000
0011
0000
0001
0000
0001
0000
,
1001
0000
1000
0000
0010
0000
0010
0000
,
1000
0000
0001
0000
0100
0000
0010
0000
,
1000
0000
0001
0000
0100
0000
0010
0000
,
1000
0000
0001
0000
0100
0000
0010
0000
,
1000
0000
0001
0000
0010
0000
0100
0000
,
0001
0000
1000
0000
0100
0000
0010
0000
,
0001
0000
0100
0000
0000
0000
0010
0000
,
1000
0000
1000
0000
0100
0000
1000
0000
,
0001
0000
0100
0000
0000
0000
0010
0000
,
1000
0000
0100
0000
0010
0000
0000
0000
,
0000
0000
0001
0000
0010
0000
0001
0000
,
0000
0000
0001
0000
0010
0000
0001
0000
,
0001
0000
0100
0000
0000
0000
0010
0000
,
1000
0000
0010
0000
0000
0000
0100
0000
,
1000
0000
0100
0000
0010
0000
0000
0000
,
1000
0000
0010
0000
0100
0000
0010
0000
,
1000
0000
0001
0000
0100
0000
0010
0000
,
1000
0000
0001
0000
0100
0000
0010
0000
,
0001
0000
1000
0000
0100
0000
0010
0000
,
1000
0000
1000
0000
0100
0000
1000
0000
,
0001
0000
0001
0000
0100
0000
0001
0000
,
1000
0000
0001
0000
0100
0000
0010
0000
,
0001
0000
0001
0000
0001
0000
0001
0000
,
1000
0000
0010
0000
0100
0000
0010
0000
,
1000
0000
0001
0000
0100
0000
0010
0000
,
0001
0000
1000
0000
0010
0000
0100
0000
,
1000
0000
0001
0000
0010
0000
0100
0000
,
1000
0000
0010
0000
0000
0000
0001
0000
,
1000
0000
1000
0000
0100
0000
1000
0000
,
1000
0000
0001
0000
0100
0000
0010
0000
,
0001
0000
1000
0000
0100
0000
0010
0000
,
0001
0000
0001
0000
0000
0000
0100
0000
,
1000
0000
0001
0000
0010
0000
0000
0000
,
0000
0000
0001
0000
0010
0000
0001
0000
,
1000
0000
0100
0000
0010
0000
0000
0000
,
1000
0000
0010
0000
0000
0000
0001
0000
,
1000
0000
1000
0000
0100
0000
1000
0000
,
1000
0000
0010
0000
1000
0000
0001
0000
,
1000
0000
0100
0000
0010
0000
0000
0000
,
1000
0000
0001
0000
0100
0000
0001
0000
,
1001
0000
1000
0000
0010
0000
0010
0000
,
0001
0000
0001
0000
0001
0000
0001
0000
,
1000
0000
0100
0000
0010
0000
0000
0000
,
1000
0000
0001
0000
1000
0000
1000
0000
,
1001
0000
1000
0000
0010
0000
0010
0000
,
1000
0000
0001
0000
1000
0000
1000
0000
,
1001
0000
1000
0000
0010
0000
0010
0000
,
0001
0000
0011
0000
0001
0000
0001
0000
,
0001
0000
0100
0000
0000
0000
0010
0000
,
1000
0000
0100
0000
0000
0000
0010
0000
,
0001
0000
0010
0000
0000
0000
0100
0000
,
1000
0000
0100
0000
0010
0000
0000
0000
,
0001
0000
0100
0000
0000
0000
0010
0000
,
0001
0000
0000
0000
0100
0000
0001
0000
,
0001
0000
0100
0000
0000
0000
0010
0000
,
1000
0000
0001
0000
0100
0000
0010
0000
,
1000
0000
0001
0000
0100
0000
0010
0000
,
0001
0000
1000
0000
0010
0000
0100
0000
,
0001
0000
1000
0000
0100
0000
0010
0000
,
0001
0000
0001
0000
0001
0000
0001
0000
,
1000
0000
0001
0000
0100
0000
0010
0000
,
1000
0000
0001
0000
0010
0000
0100
0000
,
0001
0000
0001
0000
0001
0000
0001
0000
,
0001
0000
0001
0000
0001
0000
0001
0000
,
1000
0000
0001
0000
0100
0000
0010
0000
,
1000
0000
0001
0000
0010
0000
0100
0000
,
1000
0000
0001
0000
0100
0000
0010
0000
,
0001
0000
0100
0000
0000
0000
0010
0000
,
1000
0000
0001
0000
0100
0000
0010
0000
,
1000
0000
0001
0000
0010
0000
0100
0000
,
0001
0000
1000
0000
0100
0000
0010
0000
,
1000
0000
0010
0000
0100
0000
0010
0000
,
1000
0000
0001
0000
0100
0000
0010
0000
,
0001
0000
0001
0000
0000
0000
0100
0000
,
0001
0000
0100
0000
0000
0000
0010
0000
,
1000
0000
0010
0000
0000
0000
0100
0000
,
1000
0000
0010
0000
0000
0000
0100
0000
,
1000
0000
0010
0000
0000
0000
0100
0000
,;

//---------------dance-single - Heavy----------------
#NOTES:
     dance-single:
     Heavy:
     Hard:
     9:
     0.570,0.504,0.346,0.017,0.000,849.000,81.000,4.000,0.000,0.000:
0000
0000
0000
0000
,
0000
0001
0000
0100
0001
0010
0100
1000
,
0001
0000
1000
1000
0100
0000
1000
0010
,
0001
0001
0001
1000
1000
0001
0001
0000
,
0011
0000
0001
0010
0100
1000
0001
1000
,
0001
0001
0001
1000
1000
0001
0001
0000
,
0101
0000
0001
0100
0010
0100
0010
1000
,
0001
0001
0010
0000
0100
1000
0100
1000
,
0001
0010
0001
0000
0101
0000
0010
0000
,
1100
0000
0100
0010
0100
0010
0001
0010
,
0001
0000
0100
0001
0100
0001
0001
0000
,
0101
0000
1000
0010
1000
0100
0100
0000
,
0001
0010
0001
0000
0101
0000
0010
0000
,
1100
0000
0100
0010
0100
0010
0001
0010
,
0000
0000
0001
0000
1001
0000
0100
0010
,
0001
0001
0001
1000
1000
0001
0001
0000
,
0011
0000
0100
1000
0010
1000
0001
0000
,
0001
0000
1000
1000
0100
0000
1000
0010
,
0001
0000
1000
1000
0100
0000
1000
0010
,
1000
0000
0001
0001
0010
0000
0001
0100
,
0001
0000
1000
1000
0010
0000
1000
0100
,
1000
0000
0001
0001
0010
0000
0001
0100
,
0001
0000
1000
1000
0010
0000
1000
0100
,
1000
0000
0001
0001
0100
0000
0001
0010
,
0001
0001
0001
1000
1000
0001
0001
0000
,
0101
0000
0001
0100
0010
0100
0010
0000
,
0110
1000
1100
1000
,
0101
0000
0001
0100
0010
0100
0010
0000
,
0011
0000
0001
0010
0100
0010
0100
0000
,
0011
0000
0001
0010
0100
0010
0100
0000
,
1100
0000
1000
0100
0010
0100
0010
0000
,
0101
0000
0001
0100
0010
0100
0010
1000
,
0001
0001
0001
1000
1000
0001
0001
0000
,
0001
0001
0001
1000
1000
0001
0001
0000
,
0101
0000
0001
0100
0010
0100
0010
0000
,
1100
0000
1000
0100
0010
0100
0010
0001
,
0001
0001
0001
1000
1000
0001
0001
0000
,
0011
0000
0001
0010
0100
1000
0001
1000
,
0001
0001
0001
1000
1000
0001
0001
0000
,
0001
0100
0010
1000
0010
1000
0000
0010
,
1000
0001
1000
0100
0100
1000
0100
0000
,
0101
0000
0001
0100
0010
0100
0010
0000
,
0011
0000
0001
0010
0100
0010
0100
0000
,
0011
0000
0001
0010
0100
0010
0100
0000
,
0011
0000
0001
0010
0100
1000
0001
1000
,
0001
0001
0001
1000
1000
0001
0001
0000
,
0101
0000
0001
0100
0010
0100
0010
0000
,
0110
0000
1000
0010
0000
1000
0001
0010
,
0001
0000
0100
0001
0100
0001
0001
0000
,
0101
0000
0001
0100
0010
0100
0010
0000
,
1010
0000
1000
0010
0100
0010
0100
0001
,
0001
0001
0010
0000
0100
1000
0100
0000
,
0101
0000
0001
0100
0010
0100
0010
0000
,
1100
0000
1000
0100
0010
0100
0010
0000
,
1010
0000
1000
0010
0100
0010
0100
0000
,
1010
0000
1000
0010
0100
0010
0100
0000
,
0110
0000
1000
0010
0000
1000
0001
0010
,
1000
0100
0000
1000
0100
1000
0000
0100
,
0001
0100
0010
1000
0010
1000
0000
0010
,
0001
0000
1000
1000
0100
0000
1000
0010
,
0001
0000
0011
0000
0100
0010
0010
0000
,
0101
0000
1000
0010
1000
0100
0100
0000
,
0101
0000
0001
0100
0010
0100
0010
0000
,
0011
0000
0001
0010
0100
0010
0100
0000
,
1010
0000
1000
0010
0100
0010
0100
0000
,
1010
0000
1000
0010
0100
0010
0100
0000
,
1100
0000
1000
0100
0010
0100
0010
0001
,
0001
0000
1000
1000
0100
0000
1000
0000
,
0011
0000
0001
0010
0100
1000
0001
1000
,
0001
0000
1000
1000
0100
0000
1000
0010
,
1000
0100
0000
1000
0100
1000
0000
0100
,
0000
0001
0000
0100
0001
0010
0100
1000
,
0000
1000
0000
0100
1000
0010
0100
0001
,
0001
0000
1000
1000
0100
0000
1000
0010
,
0001
0000
1000
1000
0100
0000
1000
0010
,
0001
0100
0010
1000
0010
1000
0000
0000
,
0011
0000
0100
1000
0010
1000
0001
0000
,
0101
0000
0001
0100
0010
0100
0010
0000
,
0101
0000
0001
0100
0010
0100
0010
0000
,
0101
0000
0001
0100
0010
0100
0010
0000
,
0011
0000
0001
0010
0100
1000
0001
0000
,
0011
0000
0001
0010
0100
1000
0001
0000
,
0101
0000
0001
0100
0010
0100
0010
1000
,
0001
0001
0001
1000
1000
0001
0001
0000
,
0011
0000
0100
1000
0010
1000
0001
0000
,
0101
0000
0001
0100
0010
0100
0010
0000
,
1100
0000
1000
0100
0010
0100
0010
0000
,
0011
0000
0001
0010
0100
0010
0100
1000
,
1000
0001
1000
0100
0100
1000
0100
0000
,
0011
0000
0001
0010
0100
1000
0001
0000
,
0101
0000
0001
0100
0010
0100
0010
0000
,
1010
0110
2002
3003
,
0110
0000
1000
0010
0000
1000
0001
0010
,
1000
0001
0010
0010
0000
0001
0000
0000
,
0000
0001
0000
0100
0001
0010
0100
1000
,
0001
0100
0010
1000
0010
1000
0000
0010
,
1000
0001
1000
0100
0100
1000
0100
0000
,
0011
0000
0001
0010
0100
1000
0001
1000
,
0001
0001
0010
0000
0100
1000
0100
1000
,
0001
0100
0010
1000
0010
1000
0000
0010
,
1000
0000
0010
1000
0001
0100
0010
0000
,
0101
0000
1000
0010
1000
0100
0100
0000
,
0001
0001
0001
1000
1000
0001
0001
0000
,
0001
0100
0010
1000
0010
1000
0000
0010
,
0001
0000
0100
0001
0100
0001
0001
0000
,
0101
0000
1000
0010
1000
0100
0100
0000
,
0001
0000
0100
0001
0100
0001
0001
0000
,
0101
0000
1000
0010
1000
0100
0100
0000
,
0001
0000
0011
0000
0100
0010
0010
0000
,
0001
0000
1000
1000
0100
0000
1000
0010
,
0001
0000
1000
1000
0100
0000
1000
0010
,
1000
0000
0001
0001
0100
0000
0001
0010
,
0001
0100
0010
1000
0010
1000
0000
0010
,
0001
0000
1000
1000
0100
0000
1000
0000
,
0110
0000
1000
0000
1100
0000
1000
0001
,
0001
0000
1000
1000
0100
0000
1000
0000
,
0101
0000
0001
0100
0010
0100
0010
0000
,
1100
0000
1000
0100
0010
0100
0010
0000
,
1100
0000
1000
0100
0010
0100
0010
0000
,
1010
0000
1000
0010
0100
0010
0100
0001
,
0001
0001
0001
1000
1000
0001
0001
0000
,
0101
0000
0001
0100
0010
0100
0010
0000
,
1100
0000
1000
0100
0010
0100
0010
0001
,
0001
0001
0001
1000
1000
0001
0001
0000
,
1000
1000
1000
0001
0001
1000
1000
0000
,
0101
0000
0001
0100
0010
0100
0010
0000
,
1010
0000
1000
0010
0100
0010
0100
0000
,
0101
0000
0001
0100
0010
0100
0010
1000
,
0001
0000
1000
1000
0100
0000
1000
0000
,
0101
0000
0001
0100
0010
0100
0010
0000
,
0101
0000
0001
0100
0010
0100
0010
0000
,
0101
0000
0001
0100
0010
0100
0010
0000
,
0011
0000
0100
1000
0010
1000
0001
0000
,
0101
0000
0001
0100
0220
0000
0000
0000
,
0330
0000
1000
0010
0000
1000
0001
0010
,
0001
0000
1000
1000
0100
0000
1000
0010
,
1000
0000
0001
0001
0100
0000
0001
0010
,
0001
0000
1000
1000
0010
0000
1000
0100
,
0001
1000
0100
0001
0000
0000
0101
0000
;
