#TITLE:My Red Hot Car;
#SUBTITLE:;
#ARTIST:Squarepusher;
#TITLETRANSLIT:;
#SUBTITLETRANSLIT:;
#ARTISTTRANSLIT:;
#CREDIT:;
#BANNER:my red hot car - banner.png;
#BACKGROUND:my red hot car - bg.png;
#LYRICSPATH:;
#CDTITLE:!phynnTitle.gif;
#MUSIC:02 - my red hot car.mp3;
#OFFSET:0.050;
#SAMPLESTART:100.000;
#SAMPLELENGTH:12.000;
#SELECTABLE:YES;
#BPMS:0.000=142.000,35.500=71.000,36.000=142.000,115.500=71.000,116.000=142.000,224.000=71.000,225.000=35.500,229.000=142.000,244.000=71.000,244.500=142.000,247.000=71.000,247.250=142.000,278.000=284.000,278.250=142.000,280.000=70.999,280.500=142.000,282.000=70.999,282.500=142.000,290.000=70.999,290.500=141.999,340.000=70.999,340.500=141.999,347.500=70.999,349.500=141.999,409.000=70.999,411.000=141.999,415.000=35.499;
#STOPS:7.500=0.211
,15.000=0.211
,46.000=0.211
,62.500=0.053
,62.625=0.053
,62.750=0.053
,62.875=0.053
,63.000=0.211
,63.500=0.053
,63.625=0.053
,63.750=0.053
,63.875=0.053
,68.000=0.211
,76.500=0.106
,76.750=0.106
,77.000=0.053
,77.125=0.053
,77.250=0.053
,77.375=0.053
,77.500=0.211
,78.000=0.053
,78.125=0.053
,78.250=0.053
,78.375=0.053
,81.500=0.211
,90.000=0.053
,90.125=0.053
,90.250=0.053
,90.375=0.053
,90.500=0.211
,91.000=0.053
,91.125=0.053
,91.250=0.026
,91.313=0.026
,91.375=0.026
,91.500=0.053
,91.625=0.053
,91.750=0.053
,91.875=0.053
,92.000=0.053
,95.000=0.211
,102.000=0.106
,102.250=0.106
,102.500=0.106
,102.750=0.106
,103.000=0.106
,103.250=0.106
,103.500=0.106
,103.750=0.026
,103.813=0.026
,103.875=0.026
,104.000=0.053
,104.125=0.053
,104.250=0.106
,108.000=0.211
,116.000=0.026
,116.063=0.026
,116.125=0.026
,116.250=0.053
,116.375=0.053
,116.500=0.106
,120.250=0.106
,124.000=0.053
,124.125=0.053
,124.250=0.053
,124.625=0.053
,129.500=0.106
,129.750=0.106
,131.500=0.053
,131.625=0.053
,131.750=0.053
,131.875=0.053
,132.000=0.053
,132.125=0.053
,132.250=0.053
,132.375=0.053
,143.500=0.106
,143.750=0.106
,144.500=0.106
,144.750=0.106
,145.000=0.106
,145.750=0.106
,158.000=0.106
,158.250=0.106
,158.500=0.106
,158.750=0.106
,159.000=0.106
,159.250=0.106
,159.500=0.106
,159.750=0.106
,160.000=0.106
,160.250=0.106
,160.500=0.106
,160.750=0.106
,161.000=0.106
,161.250=0.106
,161.500=0.106
,161.750=0.211
,171.250=0.026
,171.313=0.026
,171.375=0.026
,171.500=0.053
,171.625=0.053
,171.750=0.026
,173.000=0.026
,173.063=0.026
,173.125=0.053
,173.250=0.053
,173.375=0.053
,173.500=0.053
,173.625=0.053
,173.750=0.053
,173.875=0.158
,185.000=0.106
,185.250=0.106
,185.500=0.053
,185.625=0.053
,185.750=0.053
,186.125=0.053
,186.250=0.053
,186.375=0.053
,198.750=0.106
,199.000=0.106
,199.250=0.106
,199.500=0.053
,199.625=0.053
,199.750=0.053
,199.875=0.053
,200.000=0.053
,200.125=0.053
,200.250=0.053
,200.750=0.053
,201.125=0.053
,201.750=0.053
,201.875=0.053
,202.250=0.026
,202.313=0.026
,202.375=0.053
,202.500=0.053
,202.625=0.053
,202.750=0.053
,212.500=0.106
,212.750=0.106
,213.000=0.106
,213.250=0.053
,213.375=0.053
,214.000=0.106
,214.250=0.053
,214.375=0.053
,214.500=0.053
,214.625=0.053
,214.750=0.106
,215.000=0.106
,215.250=0.026
,215.313=0.026
,215.375=0.053
,215.500=0.106
,215.750=0.106
,216.000=0.211
,261.250=0.106
,278.250=0.053
,298.500=0.106
,298.750=0.106
,299.000=0.106
,299.250=0.106
,299.500=0.026
,299.563=0.026
,299.625=0.026
,299.688=0.026
,299.750=0.026
,299.813=0.026
,299.875=0.053
,300.000=0.053
,300.125=0.053
,300.250=0.053
,300.375=0.053
,300.500=0.106
,300.750=0.106
,361.500=0.053
,361.625=0.053
,361.750=0.053
,361.875=0.053
;
#BGCHANGES:;
// cache tags:
#FIRSTBEAT:0.500;
#LASTBEAT:415.500;
#SONGFILENAME:Songs/Community Keyboard Megapack - Volume 2/(Phynn) My Red Hot Car/my red hot car.sm;
#HASMUSIC:1;
#HASBANNER:1;
#MUSICLENGTH:199.915;
// end cache tags

//---------------dance-single - ----------------
#NOTES:
     dance-single:
     :
     Challenge:
     12:
     1.000,1.000,1.000,0.650,1.000,1203.000,390.000,130.000,0.000,10.000:
0000
0001
0000
0001
0000
0001
0100
1001
,
0001
0000
1000
0000
0100
0000
0011
0000
1000
0100
0011
1000
0100
0000
1001
2000
,
3002
2003
3001
0000
0011
0000
1000
0010
1100
0010
0100
0000
0011
0000
0001
0000
,
1001
0000
0001
0000
1100
0000
0100
0001
1010
0100
0001
0000
1010
0000
1001
0000
,
0010
0000
1010
0000
1010
0100
0011
0000
0011
0000
1100
0000
1000
0000
0101
0000
,
0010
0000
1010
0000
0100
0001
1010
0001
0100
0000
2100
3001
0100
0010
1000
0000
,
0000
0000
1010
0000
0100
1000
0011
0100
1000
0000
0011
0000
0010
0000
0100
0000
,
1000
0000
1010
0000
0101
0010
1000
0001
0110
0000
0100
0000
0101
0000
0010
0000
,
1000
0000
0011
0000
0010
1000
0110
0001
2000
3000
0101
0000
0010
0000
1200
0300
,
0011
0000
0001
0100
1010
0001
1000
0000
0011
0000
0101
0000
0010
0000
1000
1000
,
0011
0000
0100
0100
1010
0001
0100
0000
1001
0000
1001
0010
1000
0000
0010
1000
,
0010
0000
1000
0001
1010
0100
0001
0000
1001
0000
2000
3000
0100
0000
0011
0000
,
0011
0000
1000
0010
0100
0000
0011
0000
0101
0000
0020
0000
0030
0000
0200
0000
,
0301
1000
0110
0001
1010
0000
1010
0100
0001
0010
1100
0000
0000
0000
1010
0000
,
0100
0000
1010
0001
0100
0000
0100
0001
1010
0000
0100
0001
0100
0001
1100
0000
,
0010
0000
0000
0000
1001
0000
0000
0000
0001
0000
1100
0000
1010
0000
0000
0000
1001
0000
0000
0000
1000
0100
1000
0100
1000
0000
0000
0000
0001
0010
0001
0010
,
0002
0003
2100
0100
0100
0100
0100
0100
,
3011
0000
1100
0000
0010
0000
0101
0000
0010
1000
0101
0010
1000
0000
0101
0000
,
1000
0000
0110
0000
0001
0000
1100
0000
1000
0010
1100
0001
0010
0000
1100
0000
,
0011
0000
0000
0000
1100
0000
0011
0000
1000
0010
1000
0001
1000
0000
0000
0000
0001
0100
0001
1000
0002
0000
0000
0000
0003
0000
0000
0000
0201
0000
0000
0000
,
0010
0000
0000
0000
0010
0000
0000
0000
0010
0000
0000
0000
1310
0000
0000
0010
1100
0000
0000
0000
0000
0000
1000
0100
0011
0000
0000
0000
1000
0000
0001
0000
,
1010
0100
0001
0000
1010
0000
0100
0000
0101
0000
0010
0000
1010
0000
0001
1000
,
0101
0000
0000
0000
0010
0000
0000
0000
1000
0000
0000
0000
0000
0000
0000
0000
0011
0000
0000
0000
0000
0000
0000
0000
1100
0000
0000
0000
0000
0000
0000
0000
2100
0000
0100
0000
0100
0000
0100
0000
3001
0000
0000
0000
0000
0000
0000
0000
1000
0000
0100
0000
1000
0100
0010
0000
0001
0000
1000
0000
0010
0000
0100
0000
,
0002
0000
0010
0000
0010
0000
0010
0000
0010
0000
0010
0000
1103
0010
2000
3200
,
1300
0000
0011
0000
0010
1000
0101
0010
1000
0000
0101
0000
0101
0000
1000
0100
,
1000
0000
0000
0000
0000
0000
0000
0000
0011
0000
0000
0000
0000
0000
0000
0000
0000
0000
0000
0000
1000
0000
0100
0000
0011
0000
0000
0000
0000
0000
0000
0000
1100
0000
0000
0000
0011
0000
0000
0000
1010
0000
0000
0000
0101
0000
0000
0000
0110
0000
0000
0000
0110
0000
0000
0000
1001
0000
0000
0000
0001
0010
0100
0000
,
1000
0100
2000
0000
0000
0000
0000
3000
0101
0000
0000
0000
0010
0000
0000
0000
2010
0000
0000
0000
0010
0000
0000
0000
0010
0000
0000
0000
0010
0000
0000
0000
,
3101
0000
1010
0000
1200
0300
0011
0000
0100
0000
1010
0001
0100
0000
0010
1000
,
0101
0000
0101
0000
1000
0000
0000
0000
0100
0000
1000
0000
0012
0000
0103
0000
1000
0000
0000
0000
2020
0000
3030
0000
0202
0000
0303
0000
2200
3300
0022
0033
,
1000
0100
0010
0000
0001
0000
1000
0000
0100
0000
0000
0000
1000
0000
0000
0000
0010
0000
0000
0000
0100
0000
0000
0000
0010
0000
0000
0000
1000
0000
0000
0000
0000
0000
0000
0000
0011
0000
0000
0000
0000
0000
0000
0000
0100
0000
0000
0000
1000
0000
0000
0000
0011
0000
0000
0000
0000
0000
0000
0000
0100
0000
0000
0000
,
0000
0000
1010
0000
0001
0000
0100
0000
0010
0000
0000
0000
1000
0000
0000
0000
1000
0000
0000
0000
0000
0000
0000
0000
1100
0000
0000
0001
0010
0001
0000
0000
,
1000
0100
0010
0000
0000
0010
0000
0000
0100
0000
0000
0000
0011
0000
0000
0000
0100
0000
0000
0000
1100
0000
0100
0000
0010
0000
0000
0000
0101
0000
0000
0000
,
0010
0000
1000
0000
0100
0000
0000
0000
0021
0000
0030
0000
1100
0000
0011
0000
2000
0000
0000
0000
3200
0000
0000
0000
0320
0000
0000
0000
0031
1000
0010
0100
,
0001
1000
0100
2000
0000
0000
3000
0000
0101
0000
0000
0000
0010
0000
0000
0000
1100
0000
0000
0000
0010
0000
0001
0000
1100
0000
0001
0000
1000
0000
0000
0000
,
2002
0000
0000
0000
3003
0000
0000
0000
1001
0000
0000
0000
0020
0000
0000
0000
1130
0000
0000
0000
0200
0000
0000
0000
0320
0000
0030
0000
0002
0003
0000
0000
,
0200
0300
0000
0000
0010
0000
0000
0000
2200
0000
0000
0000
3300
0000
0000
0000
0022
0000
0000
0000
0033
0000
0000
0000
1001
0000
0000
0000
1100
0000
0011
0000
,
1000
0000
0010
0100
0001
0000
0000
1000
0000
0000
1001
0010
0100
0001
2000
0000
,
3000
0000
0000
0101
0010
0000
1000
0000
0100
0000
0010
0000
0001
0000
0100
1000
0010
1000
0001
1000
0100
0010
0000
0000
,
2000
3100
1100
0000
0010
0000
0001
0010
0100
0000
1100
0000
0010
0000
0011
0000
,
0010
0000
1100
0000
0001
0100
1001
0000
1000
0100
0010
0101
1010
0100
0010
0101
,
1010
0001
0100
1010
1010
1010
1001
1010
0000
0001
0010
0100
1000
0010
0010
1100
,
0000
0010
0001
0200
0320
1031
0100
0010
0001
0010
0010
1100
0010
0100
0001
0000
,
1000
0000
0000
0000
0010
0000
0000
0000
1100
0000
0000
0000
0000
0000
0000
0000
0001
0000
0000
0000
1010
0000
0000
0000
0000
0000
0000
0000
0100
0000
0000
0000
0000
0000
0010
0000
0101
0000
0000
0000
0000
0000
0000
0000
2020
0000
3030
0000
0000
0000
0000
0000
0001
0010
0100
0000
1000
0000
0100
0000
0020
0000
0000
0000
,
0032
0000
0000
0000
0023
0000
0000
0000
0130
0000
0000
0000
1000
0000
0000
0000
0100
0010
0001
0000
0100
0000
0010
0000
1000
0000
0100
0000
0010
0000
0001
0000
0000
0000
0000
0000
0000
0000
0000
0000
0011
0000
0000
0000
0000
0000
0000
0000
0010
0000
0000
0000
0000
0000
0000
0000
0110
0000
0000
0000
0000
0000
0000
0000
,
0010
0000
1100
0000
0001
0001
1001
0000
0001
0010
1001
0000
1100
0000
0100
0000
,
1010
0000
0101
0000
1000
0100
0011
0100
2000
3000
0001
0100
0010
0000
1010
0000
,
0001
0000
0000
0000
1010
0000
0000
0000
1100
0000
0011
0000
0100
0010
0001
0000
0000
1000
0100
0010
0000
0000
1001
0000
0000
0000
0110
0000
0000
0000
0012
0000
,
0000
1103
0000
0010
0000
1001
0000
0010
0100
0011
0000
1100
0000
0110
0001
1000
,
0000
0101
0000
0010
1000
0101
0000
0010
1000
0101
0000
0101
0000
0101
0010
1000
,
0000
0000
1010
0000
0000
0000
0100
0000
0000
0000
1001
0000
0000
0000
0110
0000
0000
0000
0001
0000
1000
0000
0110
0000
2002
3003
0100
0000
0001
0010
0100
1000
,
0010
0000
0100
0000
0001
0000
0000
0000
0000
0000
0000
0000
0010
0000
0000
0000
0000
0000
0010
0000
0000
0000
0000
0000
1100
0000
0000
0000
0001
0000
0010
0000
0000
0000
0000
0000
0001
0010
0100
0000
1000
0000
0010
0000
0100
0000
0000
0000
0011
0000
0000
0000
0000
0000
0000
0000
0011
0000
0000
0000
0000
0000
0000
0000
,
1000
0000
0201
0320
0000
0030
1001
0000
0010
0000
1001
0001
0010
0000
1100
0000
,
0010
0100
0001
0000
1100
0000
0101
0000
0010
1000
0101
0000
0010
1000
0001
0010
,
2001
0000
0000
0000
3000
0000
0000
0000
0100
0000
0000
0000
0010
0000
0000
0000
0101
0000
0000
0000
0010
0000
0100
0000
0000
0000
0000
0000
0000
0000
0000
0000
0001
0000
0000
0000
0010
0000
1000
0000
0100
0000
0010
0000
0101
0000
0000
0000
1010
0000
0000
0000
0001
0010
0100
0000
1000
0000
0000
0000
0100
0000
0000
0000
,
1000
0010
0101
0000
1000
0100
0011
0000
0011
1000
0200
0310
0101
0000
0010
0100
,
0011
0000
1100
0000
0010
0100
1010
0000
0001
1000
0001
1000
0101
0000
0010
1000
,
1010
0100
0110
0011
0100
0100
0100
0100
0100
0100
0100
0100
0100
0100
0100
0100
,
0100
0100
0100
0100
0100
0000
0100
0000
0100
0000
0100
0000
0100
0000
0100
0000
,
0100
0100
0010
0010
0010
0010
0010
0010
,
0010
0000
0010
0000
0010
0000
0010
0000
0010
1000
0010
1000
0010
1000
0010
1000
,
0010
1000
0001
0100
0011
1000
0011
1000
1100
0000
0010
0000
1010
0000
0001
0000
,
2002
0000
3003
0000
1000
0000
0100
0000
0010
0000
0000
0000
0100
0000
0010
0000
0001
0000
1000
0000
0010
0000
0000
0000
0202
0303
1000
0000
0100
0000
0010
0000
,
0000
0000
0010
0000
0000
0000
1000
0001
1000
0010
0101
0000
0000
0000
0011
0000
1000
0000
0100
0000
0010
0000
0101
0000
0000
0000
0001
0000
0010
0000
1000
0000
,
0100
0010
0000
0100
0001
0001
0000
0100
0100
1100
0000
0100
0000
1000
0100
0010
,
0001
1200
0300
1020
0030
0200
0000
0301
1000
0101
0000
0010
1000
0100
0010
0001
,
0000
1010
0000
1010
0000
0101
1010
0000
0200
0300
0011
0000
1000
0001
1000
0010
,
0101
0000
0000
0000
1000
0100
0010
0000
0001
0000
0100
0000
0010
0000
1000
0000
0001
0000
1000
0000
1000
0000
1000
0000
0100
0000
0010
0000
0001
0000
0000
0000
,
1100
0000
1100
0000
1100
0000
1100
0000
0011
0000
1010
0000
0001
0100
0010
1000
,
0011
0000
0000
0011
0000
0000
0011
0000
1010
0000
0000
1010
0000
0000
1010
0000
2002
0000
0000
0000
3003
0000
0000
0000
0220
0000
0000
0000
0330
0000
0001
0000
,
0010
0000
0100
0000
1001
0000
0010
0000
0100
0000
1000
0000
0100
0000
0010
0000
0202
0303
0000
0000
1100
0000
0000
0000
0001
0000
0100
0000
0010
0000
1000
0000
,
2020
3030
0202
0303
1100
0000
0001
0000
0100
0000
0010
0000
0100
0000
0010
0000
2200
3300
0022
0033
0100
0000
0000
0000
1000
0000
0001
0000
0001
0000
0100
0000
,
0001
0001
0010
0001
0001
0100
0001
0001
1000
0100
0010
0001
2002
0000
3003
0000
,
1000
0100
0010
0000
0001
0000
0100
0000
0020
0000
0000
0000
0000
0000
0000
0000
2230
0000
0000
0000
3311
0000
0000
0000
0011
0000
0000
0000
0011
0000
0000
0000
,
0011
0000
0011
0000
0011
0000
0101
0000
1001
0000
0110
0000
0110
0000
1010
1010
,
0101
0000
0000
0000
0000
0000
0000
0000
0101
0000
0000
0000
0000
0000
0000
0000
1010
0000
0000
0000
0000
0000
0000
0000
0011
0000
0000
0000
0000
0000
0000
0000
1100
0000
0000
0000
1100
0000
0000
0000
1001
0000
0000
0000
1001
0000
0000
0000
0010
0000
0000
0000
1000
0000
0000
0000
0001
0010
0100
1000
0100
0010
0001
0000
,
0100
0010
1000
0100
0011
0000
0011
0000
2010
0000
3000
0000
0000
0000
0000
0000
1020
0000
0030
0000
0000
0000
0000
0000
0202
0000
0000
0000
0303
0000
0000
0000
,
1100
0001
0010
0100
1000
0010
0200
0310
1000
0000
0011
0010
0100
1000
0201
0300
,
0102
0003
0010
0001
0110
0001
0100
0010
1000
0100
0011
0000
0100
1000
0010
0200
,
0301
0000
0101
0000
0010
1000
0001
0010
1100
0000
0000
0000
0001
0010
0001
0010
,
0202
0303
2020
3030
0101
0000
1010
0000
0001
1000
0010
0100
0001
0000
1100
0000
,
0011
0000
1100
0000
0110
0000
0001
0000
0001
0000
0101
0000
0110
0000
2000
3100
,
0010
0000
0000
0000
0002
0000
0103
0000
1020
0000
0030
0000
1000
0000
0000
0000
0001
0000
0100
0000
0010
1000
0010
0000
1000
0000
0100
0000
0010
0000
0000
0000
,
0011
0000
0000
0000
0011
0000
0000
0000
1001
0000
0000
0000
0000
0000
1000
0100
0011
0000
0000
0000
0011
0000
0000
0000
0011
0000
0000
0000
0011
0000
0000
0000
,
0101
0000
0000
0101
0000
0000
0101
0000
2020
0000
3030
0000
0000
0000
0000
0000
0202
0000
0303
0000
0000
0000
0000
0000
2200
0000
3300
0000
0000
0000
0000
0000
,
0022
1033
0100
0010
0100
0000
0010
0000
0100
0000
0000
0100
0010
0000
1001
0000
,
0220
0000
0330
0000
1001
0000
1001
0000
0000
0000
0000
0000
0100
0000
0010
0000
1001
0000
0000
0000
1010
0000
0000
0000
0100
0010
0001
0000
0010
0000
0001
0000
,
0010
0100
1000
0100
1000
0010
0100
0010
1000
0010
0100
0001
0010
0100
1001
0000
,
1000
0100
0010
0000
0001
0000
0010
0000
0200
0000
0000
0000
0000
0000
0000
0000
0300
0000
0000
0000
0000
0000
0000
0000
1000
0000
0000
0000
0000
0000
0000
0000
1000
0000
0000
0000
0000
0000
0000
0000
1001
0000
0000
0000
0000
0000
0000
0000
0010
0000
0000
0000
1000
0000
0000
0000
0001
0000
0000
0000
1000
0000
0000
0000
,
0010
0010
1100
0000
0001
0010
0101
0000
0101
0000
1010
0000
0001
0100
0010
1000
,
0100
0100
0011
0000
0001
0100
1010
0000
1010
0000
1010
0000
1010
0000
0101
0000
,
0101
0000
0000
0000
0001
0000
0100
0000
0010
0000
1000
0000
0100
0010
0001
0100
1010
0000
0000
0000
0101
0000
0000
0000
1010
0000
0000
0000
0101
0000
0000
0000
,
1000
0000
0100
0000
1000
0000
0100
0000
1000
0000
0000
0000
0011
0000
0000
0000
0000
0000
0011
0000
0000
0000
0000
0000
1010
0000
0000
0000
0000
0000
1000
0000
0000
0001
0000
0000
0100
0000
0000
0010
0000
0000
1000
0000
0000
1000
0000
0000
,
0101
0000
0001
1000
0110
0000
0110
0000
0101
0000
1000
0010
0100
0001
0010
0010
,
1100
0000
0000
0000
1200
0000
0300
0000
1020
0030
0000
0000
0101
0000
0010
0000
1000
0000
0100
0000
0010
0000
0100
0000
1001
0000
0010
0000
0100
0000
0010
0000
,
1000
0001
1000
0001
2200
3300
2200
3300
0011
0000
0011
0000
0011
0000
0100
1000
,
0000
1000
0010
0100
0011
0000
1100
0000
0101
0000
0020
1030
0100
0010
0001
0001
,
1010
0000
0001
0010
0101
0000
0101
0000
0101
0000
0101
0000
0101
0000
0101
0000
,
0101
0000
0101
0000
1010
0000
0101
0000
1010
0000
1100
0000
0011
1000
0011
1000
,
0011
0000
1000
0000
0011
0000
1000
0000
0011
0000
0000
0011
0000
0000
0011
0000
2002
0000
3003
0000
0000
0000
0000
0000
2002
0000
3003
0000
0000
0000
0000
0000
,
0110
0000
0000
0000
0200
0000
0310
0000
1010
0000
0001
0100
0010
1000
0100
0010
,
0101
0000
0100
0010
0101
0000
0101
0000
1100
0000
1100
0010
0001
0010
0101
0000
,
0010
0000
0000
1000
0000
0000
0100
0000
0000
0010
0000
0000
0001
0000
0010
0000
0001
0000
0010
0000
0001
0000
0100
0000
0001
0000
0100
0000
0001
0000
1000
0000
0001
0000
1000
0000
0001
0000
0100
0000
0001
0000
1000
0000
0001
0000
0010
0000
,
0100
0000
0000
0000
0000
0000
0000
0000
1000
0000
0000
0000
0000
0000
0000
0000
0010
0000
0000
0000
0000
0000
0000
0000
0100
0000
0000
0000
0000
0000
0000
0000
0001
0000
0000
0000
0000
0000
0000
0000
0010
0000
0000
0000
0000
0000
0000
0000
0200
0000
0000
0000
0000
0000
0000
0000
0000
0000
0000
0000
0000
0000
0000
0000
0000
0000
0000
0000
0000
0000
0000
0000
0000
0000
0000
0000
0000
0000
0000
0000
0000
0000
0000
0000
0000
0000
0000
0000
0000
0000
0000
0000
0000
0000
0000
0000
0000
0000
0000
0000
0000
0000
0000
0000
0000
0000
0000
0000
0000
0000
0000
0000
0000
0000
0000
0000
0000
0000
0000
0000
0000
0000
0000
0000
0000
0000
0000
0000
0000
0000
0000
0000
0000
0000
0000
0000
0000
0000
0300
0000
0000
0000
0000
0000
1001
0000
0000
0000
0000
0000
0000
0000
0000
0000
0000
0000
0000
0000
0000
0000
0000
0000
0000
0000
0000
0000
0000
0000
0000
0000
0000
0000
0000
0000
0000
0000
0000
0000
0000
0000
0000
0000
0000
0000
0000
0000
0000
0000
0000
0000
0000
0000
,
1010
0000
0000
0000
0101
0000
0000
0000
1100
0000
0100
0010
0202
0000
0303
0000
;
