#TITLE:The Great Divide;
#SUBTITLE:;
#ARTIST:In This Moment;
#TITLETRANSLIT:;
#SUBTITLETRANSLIT:;
#ARTISTTRANSLIT:;
#CREDIT:B. Abear;
#BANNER:Bn-Divide.png;
#BACKGROUND:Bg-Divide.png;
#LYRICSPATH:;
#CDTITLE:;
#MUSIC:09 The Great Divide (Empires Fall An.ogg;
#OFFSET:0.520;
#SAMPLESTART:61.200;
#SAMPLELENGTH:21.700;
#SELECTABLE:YES;
#BPMS:0.000=196.000;
#STOPS:266.000=1.531
;
#BGCHANGES:;
// cache tags:
#FIRSTBEAT:32.000;
#LASTBEAT:815.250;
#SONGFILENAME:Songs/SSSC Pack 2/The Great Divide - [Cosmic Pope]/The Great Divide.sm;
#HASMUSIC:1;
#HASBANNER:1;
#MUSICLENGTH:251.495;
// end cache tags

//---------------dance-single - B. Abear----------------
#NOTES:
     dance-single:
     B. Abear:
     Challenge:
     13:
     0.982,1.000,0.350,0.278,0.628,1570.000,88.000,70.000,185.000,0.000:

0000
0000
0000
0000
,
0000
0000
0000
0000
,
0000
0000
0000
0000
,
0000
0000
0000
0000
,
0000
0000
0000
0000
,
0000
0000
0000
0000
,
0000
0000
0000
0000
,
0000
0000
0000
0000
,
1000
0002
0000
1003
0200
0000
0310
0002
,
0000
0000
1003
0000
0020
0000
0000
0000
0130
0001
1000
0000
0001
0000
1000
0000
,
0010
0200
0000
0301
2000
0000
3001
0020
,
0000
0000
0130
0000
2000
0000
0000
0000
3001
0100
0010
0000
1000
0000
0001
0000
,
0010
1200
0000
1300
0102
0000
0013
0210
,
0000
0000
1300
0000
1002
0000
0000
0000
0103
0010
1000
0000
0001
0000
1000
0000
,
0001
0201
0000
0310
2001
0000
3001
1000
,
2MM2
3003
22MM
3300
M22M
0330
MM22
0033
,
0001
0100
0001
1000
0100
1000
0001
0010
0100
1000
0001
0100
0001
0100
0010
1000
,
0001
1000
0100
0010
0001
1000
0001
0100
0010
1000
0001
0100
0001
1000
0100
1000
,
0001
0010
0100
1000
0001
0010
0100
1000
0001
0100
0001
0100
0010
0100
0001
1000
,
0001
1000
0100
0010
0001
0010
0100
1000
0001
0010
0001
1000
0010
1000
0010
0100
,
0001
0100
0010
1000
0001
0010
0001
1000
0100
1000
0001
0100
0001
1000
0001
1000
,
0100
0010
0001
0010
0001
1000
0010
0100
0001
1000
0001
0010
0100
1000
0001
0100
,
0001
1000
0100
1000
0001
0010
0001
1000
0010
0100
0001
1000
0010
1000
0001
0000
,
2MM2
3003
M2M2
0303
M22M
0330
2M2M
3030
,
1000
0001
0010
0100
1000
0001
0100
0001
,
1000
0000
0001
0000
0010
0000
0100
0000
M0MM
0000
0100
0010
0001
0000
1000
0000
,
0001
0100
0010
0100
0001
1000
0001
1000
,
0100
0000
0010
0000
0001
0000
1000
0000
0MMM
0000
1000
0001
0100
0000
0010
0000
,
0100
0001
1000
0100
0010
0001
0010
0100
,
1000
0000
0001
0000
0100
0000
0010
0000
MM0M
0000
0010
0100
0001
0000
1000
0000
,
0100
0010
0001
0010
0100
1000
0001
0001
,
M2M2
0303
M22M
0330
2M2M
3030
2MM2
3003
,
1000
0100
1000
0000
0001
0000
0100
0000
0010
0000
1000
0000
0001
0000
1000
0000
,
0001
0010
0001
0000
1000
0000
0010
0000
MM0M
0000
0010
0100
0001
0000
1000
0000
,
0001
0010
0001
0000
1000
0000
0100
0000
1000
0000
0001
0000
0100
0000
0010
0000
,
0100
0001
0100
0000
0010
0000
1000
0000
0MMM
0000
1000
0010
0100
0000
0001
0000
,
1000
0001
1000
0000
0100
0000
0010
0000
0100
0000
1000
0000
0001
0000
0100
0000
,
0010
0100
0010
0000
1000
0000
0001
0000
MMM0
0000
0001
1000
0010
0000
1000
0000
,
0001
0010
0001
0000
1000
0000
0100
0000
0010
0000
0001
0000
1000
0000
1000
0000
,
2MM2
3003
M2M2
0303
M22M
0330
M2M2
0303
,
0001
0100
0100
0010
1000
0001
0010
0100
,
0010
0001
1000
0001
0010
0010
1100
0100
,
0010
0001
0001
1000
0001
0100
0010
1000
,
0001
1000
0001
0001
1010
1000
0010
0100
,
0100
0001
0100
0010
1000
0001
0010
0100
,
1000
1000
0011
0001
1000
1000
0010
0100
,
0001
1000
0001
0010
0100
1000
0010
0010
,
1001
1000
0010
0100
0100
0001
1000
0010
,
0100
0001
0010
0001
1000
1000
0101
0001
,
1000
0100
0100
0010
0001
1000
0001
0100
,
0001
0000
1001
0000
1000
0000
1100
0000
0100
0010
0001
0000
1000
0000
0001
0000
,
0100
0010
1000
0000
0001
0000
1000
0000
0001
0010
0100
0000
1000
0000
0001
0000
,
0100
0010
1000
0000
0001
0000
1000
0000
00M1
0000
0100
0000
0010
0000
1000
0000
,
0M01
0000
0010
0000
0100
0000
1000
0000
0001
0100
0001
0000
1000
0000
0100
0000
,
0010
0001
0010
0000
0100
0000
1000
0000
0MM1
1000
0100
0000
0010
0000
0001
0000
,
1000
0010
0100
0000
0001
0000
1000
0000
0010
0100
0001
0000
1000
0000
0010
0000
,
0100
0001
0010
0000
0100
0000
1000
0000
0001
1000
0010
0000
0100
0000
0001
0000
,
1000
0100
0010
0000
0001
0000
0010
0000
0100
1000
0001
0000
0100
0000
0010
0000
,
1M00
0000
100M
0000
1M00
0000
100M
0000
0MM1
1000
0010
0000
0100
0000
0001
0000
,
1000
0001
0010
0000
0100
0000
1000
0000
0001
0100
0010
0000
0100
0000
0001
0000
,
1000
0001
0010
0000
0100
0000
1000
0000
0001
0100
0010
0000
1000
0000
0001
0000
,
0010
0100
1000
0000
0001
0000
1000
0000
001M
0000
0100
0000
0001
0000
1000
0000
,
0M01
0000
0010
0000
0100
0000
1000
0000
0MM1
1000
0001
0000
0010
0000
0100
0000
,
1000
0001
0100
0000
0010
0000
1000
0000
0001
0100
0010
0000
1000
0000
0001
0000
,
0010
0100
1000
0000
0001
0000
1000
0000
0001
0100
0010
0000
0100
0000
0001
0000
,
1000
0001
0010
0000
0100
0000
1000
0000
0001
0100
0010
0000
1000
0000
0001
0000
,
0010
0100
1000
0000
0001
0000
0001
0000
1MM1
0000
0000
0000
0000
0000
0021
0000
,
0000
0031
0001
1000
0100
0010
0001
1000
,
0010
0000
1000
0000
0001
0000
1000
0000
0100
0000
0010
0000
MM0M
0000
0010
0100
,
1000
0001
1000
0010
0100
0010
1000
0001
,
1000
0000
0001
0000
0010
0000
0100
0000
1000
0000
0001
0000
MMM0
0000
0001
1000
,
0010
0100
0010
1000
0001
0010
0100
1000
,
0100
0000
0010
0000
0001
0000
1000
0000
0010
0000
0100
0000
M0MM
0000
0100
0010
,
1000
0001
0010
0100
1000
0100
0010
0001
,
1000
1000
2M2M
3030
M22M
0330
M2M2
0303
,
2MM2
0000
3003
0000
0001
0010
0001
0000
1000
0000
0010
0000
0100
0000
0001
0000
,
1000
0000
0001
0000
1000
0100
1000
0000
0001
0000
0100
0000
M0MM
0000
0100
0010
,
1000
0000
0001
0000
1000
0100
1000
0000
0001
0000
0010
0000
0001
0000
1000
0000
,
0010
0000
0100
0000
0010
1000
0010
0000
0100
0000
0001
0000
MMM0
0000
0001
0100
,
0010
0000
1000
0000
0001
1000
0001
0000
0010
0000
0100
0000
0010
0000
0001
0000
,
1000
0000
0010
0000
0100
0010
0100
0000
0001
0000
1000
0000
0MMM
0000
1000
0001
,
0100
0000
0001
0000
1000
0100
1000
0000
0001
0000
0010
0000
0100
0000
1000
0000
,
0001
0001
2MM2
3003
2M2M
3030
M22M
0330
,
2M2M
3030
1000
0010
0010
0100
0001
1000
,
0100
0010
0100
1000
0001
1000
0100
0100
,
0011
0010
0100
1000
1000
0001
1000
0010
,
0100
0001
1000
0001
1000
1000
0101
0001
,
0100
0010
0010
1000
0010
0100
0001
1000
,
0100
0010
0001
0001
1100
1000
0001
0001
,
0100
0010
1000
0001
1000
0100
0010
0001
,
0100
0100
1001
0001
0100
0010
0010
1000
,
0001
0100
0010
1000
0100
1000
0001
0001
,
1010
1000
0001
0010
0010
0100
1000
0001
,
1000
0000
0010
0000
1000
0000
0001
0000
1000
0100
0010
0001
0010
0100
1000
0000
,
0001
0000
1000
0000
0010
0100
0001
0000
1000
0000
0001
0000
1000
0100
0010
0000
,
0001
0000
1000
0000
0010
0100
0001
0000
1000
0000
0001
0000
1M00
0000
0010
0000
,
0100
0000
0001
0000
10M0
0000
0100
0000
0010
0000
0001
0000
1000
0010
1000
0000
,
0001
0000
0010
0000
0100
1000
0100
0000
0010
0000
0001
0000
1MM0
0001
0010
0000
,
0100
0000
1000
0000
0001
0100
0010
0000
1000
0000
0001
0000
0100
0010
1000
0000
,
0001
0000
0100
0000
0010
1000
0100
0000
0010
0000
0001
0000
1000
0001
0100
0000
,
0010
0000
1000
0000
0001
0010
0100
0000
1000
0000
0100
0000
0010
0001
1000
0000
,
0010
0000
0100
0000
00M1
0000
M001
0000
00M1
0000
M001
0000
1MM0
0001
0100
0000
,
0010
0000
1000
0000
0001
1000
0100
0000
0010
0000
0001
0000
1000
0010
0100
0000
,
0010
0000
1000
0000
0001
1000
0100
0000
0010
0000
0001
0000
1000
0010
0100
0000
,
0001
0000
1000
0000
0100
0010
0001
0000
1000
0000
0001
0000
M100
0000
0010
0000
,
1000
0000
0001
0000
10M0
0000
0100
0000
0010
0000
0001
0000
1MM0
0001
1000
0000
,
0100
0000
0010
0000
0001
1000
0010
0000
0100
0000
0001
0000
1000
0010
0100
0000
,
0001
0000
1000
0000
0100
0010
0001
0000
1000
0000
0001
0000
1000
0010
0100
0000
,
0010
0000
1000
0000
0001
1000
0100
0000
0010
0000
0001
0000
1000
0010
0100
0000
,
0001
0000
1000
0000
0100
0010
0001
0000
1000
0000
1000
0000
2MM2
0000
0000
0000
,
00M0
0000
0000
0000
0000
0000
0000
0000
0000
0000
0000
0000
0000
0000
0000
0M00
0000
0000
0000
0000
0000
0000
0000
0000
0000
0000
0000
0000
0000
0000
0000
0000
0000
0000
0000
0000
0000
0000
0000
0000
00M0
0000
0000
0000
0000
0000
0000
0000
,
0000
0000
0000
0000
0000
0000
0000
0M00
0000
0000
0000
00M0
0000
0000
0000
0000
0000
0000
0000
0000
0000
0000
0000
0000
,
0000
0000
0M00
0000
0000
0000
0000
0000
00M0
0000
0000
0000
,
0000
0000
0000
0000
00M0
0M00
0000
0000
0000
0000
0000
0000
,
0000
0000
0M00
0000
0000
0000
0000
0000
0000
00M0
0000
0000
,
0000
0000
0000
0M00
0000
0000
0000
0000
0000
0000
00M0
0000
0000
0000
0000
0000
,
0000
0000
0000
00M0
0M00
0000
0000
0000
0000
0000
0003
0000
3001
0000
10M0
0000
,
0000
0000
000M
0000
0000
0000
0100
M000
0000
0000
000M
0000
0110
0000
0000
0000
,
0000
0010
0011
0000
0000
0000
0000
0001
,
0000
0000
1010
0000
0010
0100
0000
0000
,
0001
0000
1001
0000
0000
1000
0100
0100
,
0100
0000
0100
0000
0010
0000
0010
0000
0010
0000
0010
0000
0001
1000
0001
1000
,
0001
0100
0101
0000
0010
0010
1000
0001
,
0000
0000
0011
0010
0010
0100
1000
0000
,
0101
0000
0001
0000
0100
0010
0100
0010
0100
0000
0001
0000
1001
0000
1000
0000
,
0100
0010
0110
0100
1000
0001
0101
0100
,
0100
0010
1010
0000
1000
1000
1000
0001
,
0010
0100
1100
1000
0001
0011
0000
0000
,
0101
0000
0001
0000
1000
0001
1000
0001
1000
0000
0010
0000
0110
0000
0100
0000
,
0100
0000
0100
0000
0001
0000
0001
0000
0001
0000
0001
0000
1000
0100
1000
0100
,
1000
0001
0011
0000
0010
0010
0010
0100
,
0000
0000
1100
1000
0001
0100
0000
0000
,
0110
0000
0010
0000
0010
0000
0010
1000
0001
0000
1000
0000
1100
0000
0100
0000
,
0100
0100
0010
0010
0010
0010
1001
0001
,
0100
0010
1000
0001
1001
1000
0001
0100
,
0010
1000
1001
0001
0010
0100
0010
0001
,
0101
0000
0100
0000
0010
1000
0010
1000
0010
0000
0100
0000
0101
0000
0001
0000
,
1000
0000
0100
0000
1100
0000
1000
0000
0001
0000
1000
0000
0001
0100
0001
0100
,
0001
0010
0110
0100
1100
1000
0001
0100
,
0010
0100
0101
0001
1000
0001
1000
0100
,
0110
0000
0010
0000
0001
1000
0001
1000
0001
0000
0100
0000
0110
0000
0010
0000
,
1000
0001
0101
0100
0001
0010
M11M
0100
,
1000
0001
0000
0000
M1M1
0100
0010
1000
,
0000
0000
0010
1000
0001
0010
0000
0000
,
0100
1000
0001
1000
0000
0000
0001
0100
,
0001
0100
0010
1000
0001
0010
M11M
0100
,
1000
0001
0000
0000
M1M1
0100
0010
0100
,
0000
0000
0001
1000
0100
0010
0000
0000
,
0001
1000
0001
0010
0000
0000
0100
1000
,
0100
1000
0001
0100
0010
0100
1001
0000
,
0000
0000
0000
0000
,
0000
0000
2002
0000
,
0000
0000
0000
0000
,
3003
0000
1001
0001
0100
0001
0010
1000
,
0010
0100
1000
0001
0100
0010
1000
0001
,
1010
1000
0001
0010
0100
0001
0100
1000
,
0010
0100
0001
1000
0100
1000
0011
0001
,
1000
0010
0100
0010
0100
0001
1000
0100
,
0001
0100
1000
0010
1001
1000
0010
0100
,
0010
0000
0001
0000
0010
0000
1000
0000
0100
0000
0010
0000
0001
1000
0001
1000
,
0001
0100
0001
0100
0010
1000
0001
0000
1000
0000
0001
0000
0100
0010
1000
0000
,
0001
0000
1000
0000
0001
0010
0100
0000
1000
0000
0001
0000
0100
0010
1000
0000
,
0001
0000
1000
0000
0001
1000
0100
0000
0010
0000
0001
0000
1000
0001
0100
0000
,
0010
0000
1000
0000
0001
0100
0001
0000
1000
0000
0100
0000
0010
0001
0010
0000
,
0100
0000
1000
0000
0MM1
1000
0100
0000
0010
0000
0001
0000
1000
0010
0100
0000
,
0001
0000
1000
0000
0010
0100
0001
0000
1000
0000
0010
0000
0100
0001
0010
0000
,
0100
0000
1000
0000
0001
1000
0010
0000
0100
0000
0001
0000
1000
0100
0010
0000
,
0001
0000
0010
0000
0100
1000
0001
0000
0100
0000
0010
0000
1M00
0000
100M
0000
,
1M00
0000
100M
0000
0MM1
1000
0010
0000
0100
0000
0001
0000
1000
0001
0010
0000
,
0100
0000
1000
0000
0001
0100
0010
0000
0100
0000
0001
0000
1000
0001
0010
0000
,
0100
0000
1000
0000
0001
0100
0010
0000
1000
0000
0001
0000
0010
0100
1000
0000
,
0001
0000
1000
0000
0001
1000
0100
0000
0010
0000
0001
0000
1000
0001
0010
0000
,
0100
0000
1000
0000
0MM1
1000
0001
0000
0010
0000
0100
0000
1000
0001
0100
0000
,
0010
0000
1000
0000
0001
0100
0010
0000
1000
0000
0001
0000
0010
0100
1000
0000
,
0001
0000
1000
0000
0001
0100
0010
0000
0100
0000
0001
0000
1000
0001
0010
0000
,
0100
0000
1000
0000
0001
0100
0010
0000
1000
0000
0001
0000
0010
0100
1000
0000
,
0001
0000
0001
0000
0001
0100
0010
1000
0001
1000
0100
0010
0001
0000
1000
0001
,
0100
0001
1000
0000
0000
0000
0010
0100
0001
1000
0001
0000
1000
0100
0010
0000
,
0100
0000
0000
0000
1000
0001
0100
0010
0100
0001
1000
0001
0010
0000
0100
1000
,
0001
1000
0001
0000
0000
0000
0100
0010
1000
0001
0100
0000
0010
1000
0001
0000
,
2MM2
0000
3000
0000
1003
0100
0010
0001
0010
0100
0010
0000
0000
0000
0001
1000
,
0001
0100
0001
0000
0000
0000
1000
0001
0100
0001
0100
0000
0010
1000
0001
0010
,
0100
0000
0000
0000
1000
0100
0010
0100
1000
0001
1000
0000
0000
0000
0001
0100
,
0010
1000
0001
0000
0000
0000
0100
0001
1000
0100
0010
0000
0001
0010
0100
0000
,
1200
0000
0000
0000
1300
0001
0100
0001
1000
0100
1000
0001
0100
0010
1000
0001
,
1000
0100
0010
0100
1000
0010
0100
0001
1000
0010
0100
0001
1000
0010
0100
0001
,
1000
0010
0100
0001
0100
0010
1000
0001
1000
0100
1000
0010
0100
0001
0100
0010
,
1000
0001
0100
0010
1000
0100
0010
0001
1000
0100
0010
0001
1000
0100
0010
0001
,
1000
0100
0010
0000
0001
0100
0001
1000
0010
1000
0001
0100
0010
0100
0001
1000
,
0100
0010
0001
1000
0001
0100
0010
1000
0001
0100
0010
1000
0001
0100
0010
1000
,
0001
0100
0010
1000
0010
0100
0001
1000
0100
0010
0100
0010
0001
1000
0010
0100
,
0001
1000
0100
1000
0001
0010
0100
1000
0001
0010
0100
1000
0001
0010
0100
1000
,
0001
0000
0000
0010
0000
0000
0100
0000
0000
0000
0000
0000
0000
0000
0000
0000
0000
0000
0000
0000
0000
M000
0000
0000
0000
0000
00M0
0M00
0000
0000
0000
0000
000M
0000
0000
0000
0000
0000
0000
0000
0000
0000
0000
0000
0000
0000
0000
0000
,
0000
0000
0000
0000
0000
0000
0000
M000
0000
0000
0000
00M0
0M00
0000
0000
000M
0000
0000
0000
0000
0000
0000
0000
0000
,
0000
0000
0000
0000
0000
0000
0000
0000
0000
000M
0000
M000
0000
00M0
0M00
0000
0000
0000
0000
0000
0000
M000
0000
0000
,
0000
0000
0000
000M
0000
0000
0000
0000
0000
0000
0M00
0000
0000
0000
0000
0000
,
00M0
0000
0000
M000
0000
0000
0000
000M
0000
0000
0000
0000
0000
0000
0000
0000
,
0000
0000
0000
0M00
0000
0000
0000
0000
0000
0000
00M0
0000
0000
0000
0000
0000
0000
0000
0000
0000
0000
0000
0000
0000
,
0000
M000
0000
0000
0000
0000
0000
0000
0000
000M
0000
0000
,
0000
0M00
0000
0000
,
00M0
0000
0000
0000
0000
0000
0000
0000
0000
0000
0000
M000
,
000M
0000
0000
0000
,
0M00
0000
0000
0000
0000
00M0
0000
0000
,
0000
0000
0000
0000
0000
M000
0000
0000
0000
0000
0000
0000
0000
000M
0000
0000
;
