#TITLE:Marble Zone;
#SUBTITLE:Dubstep Remix;
#ARTIST:Skizor;
#TITLETRANSLIT:;
#SUBTITLETRANSLIT:;
#ARTISTTRANSLIT:;
#CREDIT:owenviau1;
#BANNER:../owenviau1 Simfiles 5-bn.png;
#BACKGROUND:../owenviau1 Simfiles 5-bg.png;
#LYRICSPATH:;
#CDTITLE:../ov1_title.png;
#MUSIC:Marble Zone - Dubstep Remix.mp3;
#OFFSET:-0.237;
#SAMPLESTART:50.370;
#SAMPLELENGTH:29.999;
#SELECTABLE:YES;
#DISPLAYBPM:134.000;
#BPMS:0.000=133.988,2.000=133.995,3.000=133.988,6.000=133.995,7.000=133.988,10.000=133.995,11.000=133.988,14.000=133.995,15.000=133.988,18.000=133.995,19.000=133.988,22.000=133.995,23.000=133.988,26.000=133.995,27.000=133.988,30.000=133.995,31.000=133.988,34.000=133.995,35.000=133.988,38.000=133.995,39.000=133.988,42.000=133.995,43.000=133.988,46.000=133.995,47.000=133.988,50.000=133.995,51.000=133.988,54.000=133.995,55.000=133.988,58.000=133.995,59.000=133.988,62.000=133.995,63.000=133.988,66.000=133.995,67.000=133.988,70.000=133.995,71.000=133.988,74.000=133.995,75.000=133.988,78.000=133.995,79.000=133.988,82.000=133.995,83.000=133.988,86.000=133.995,87.000=133.988,90.000=133.995,91.000=133.988,94.000=133.995,95.000=133.988,98.000=133.995,99.000=133.988,102.000=133.995,103.000=133.988,106.000=133.995,107.000=133.988,110.000=133.995,111.000=133.988,114.000=133.995,115.000=133.988,118.000=133.995,119.000=133.988,122.000=133.995,123.000=133.988,126.000=133.995,127.000=133.988,130.000=133.995,131.000=133.988,134.000=133.995,135.000=133.988,138.000=133.995,139.000=133.988,142.000=133.995,143.000=133.988,146.000=133.995,147.000=133.988,150.000=133.995,151.000=133.988,154.000=133.995,155.000=133.988,158.000=133.995,159.000=133.988,162.000=133.995,163.000=133.988,166.000=133.995,167.000=133.988,170.000=133.995,171.000=133.988,174.000=125.754,175.000=143.384,176.000=133.988,178.000=133.995,179.000=133.988,182.000=133.995,183.000=133.988,186.000=133.995,187.000=133.988,190.000=133.995,191.000=133.988,194.000=133.995,195.000=133.988,198.000=133.995,199.000=133.988,202.000=133.995,203.000=133.988,206.000=133.995,207.000=133.988,210.000=133.995,211.000=133.988,213.000=133.995,214.000=133.988,215.000=133.995,216.000=133.988,217.000=133.995,218.000=133.988,219.000=133.995,220.000=133.988,221.000=133.995,222.000=133.988,223.000=133.995,224.000=133.988,225.000=133.995,226.000=133.988,227.000=133.995,228.000=133.988,229.000=133.995,230.000=133.988,231.000=133.995,232.000=133.988,233.000=133.995,234.000=133.988,235.000=133.995,236.000=133.988,237.000=133.995,238.000=133.988,239.000=133.995,240.000=133.988,241.000=133.995,242.000=133.988,243.000=133.995,244.000=133.988,245.000=133.995,246.000=133.988,247.000=133.995,248.000=133.988,249.000=133.995,250.000=133.988,251.000=133.995,252.000=133.988,253.000=133.995,254.000=133.988,255.000=133.995,256.000=133.988,257.000=133.995,258.000=133.988,259.000=133.995,260.000=133.988,261.000=133.995,262.000=133.988,263.000=133.995,264.000=133.988,265.000=133.995,266.000=133.988,267.000=133.995,268.000=133.988,269.000=133.995,270.000=133.988,271.000=133.995,272.000=133.988,273.000=133.995,274.000=133.988,275.000=133.995,276.000=133.988,277.000=133.995,278.000=133.988,279.000=133.995,280.000=133.988,281.000=133.995,282.000=133.988,283.000=133.995,284.000=133.988,285.000=133.995,286.000=133.988,287.000=133.995,288.000=133.988,289.000=133.995,290.000=133.988,291.000=133.995,292.000=133.988,293.000=133.995,294.000=133.988,295.000=133.995,296.000=133.988,297.000=133.995,298.000=133.988,299.000=133.995,300.000=133.988,301.000=133.995,302.000=133.988,303.000=133.995,304.000=133.988,305.000=133.995,306.000=133.988,307.000=133.995,308.000=133.988,309.000=133.995,310.000=133.988,311.000=133.995,312.000=133.988,313.000=133.995,314.000=133.988,315.000=133.995,316.000=133.988,317.000=133.995,318.000=133.988,319.000=133.995,320.000=133.988,321.000=133.995,322.000=133.988,323.000=133.995,324.000=133.988,325.000=133.995,326.000=133.988,327.000=133.995,328.000=133.988,329.000=133.995,330.000=133.988,331.000=133.995,332.000=133.988,333.000=133.995,334.000=133.988,335.000=133.995,336.000=133.988,337.000=133.995,338.000=133.988,339.000=133.995,340.000=133.988,341.000=133.995,342.000=133.988,343.000=133.995,344.000=133.988,345.000=133.995,346.000=133.988,347.000=133.995,348.000=133.988,349.000=133.995,350.000=133.988,351.000=133.995,352.000=133.988,353.000=133.995,354.000=133.988,355.000=133.995,356.000=133.988,357.000=133.995,358.000=133.988,359.000=133.995,360.000=133.988,361.000=133.995,362.000=133.988,363.000=133.995,364.000=133.988,365.000=133.995,366.000=133.988,367.000=133.995,368.000=133.988,369.000=133.995,370.000=133.988,371.000=133.995,372.000=133.988,373.000=133.995,374.000=133.988,375.000=133.995,376.000=133.988,377.000=133.995,378.000=133.988,379.000=133.995,380.000=133.988,381.000=133.995,382.000=133.988,383.000=133.995;
#STOPS:;
#BGCHANGES:;
// cache tags:
#FIRSTBEAT:16.000;
#LASTBEAT:384.250;
#SONGFILENAME:Songs/owenviau1 Simfiles 5/Marble Zone - [owenviau1] v1.7/Marble Zone.sm;
#HASMUSIC:1;
#HASBANNER:1;
#MUSICLENGTH:179.312;
// end cache tags

//---------------dance-single - ----------------
#NOTES:
     dance-single:
     :
     Hard:
     9:
     0.637,0.802,0.100,0.351,0.223,644.000,18.000,63.000,0.000,0.000:
0000
0000
0000
0000
,
0000
0000
0000
0000
,
0000
0000
0000
0000
,
0000
0000
0000
0000
,
1001
0001
0010
0100
1000
0010
0100
0001
,
0010
0100
1000
0010
0100
0001
1000
0001
,
0010
0001
0100
0010
1000
0001
0100
0010
,
1000
0100
0010
0001
1000
0010
1000
0001
0100
0010
1000
0100
1000
0010
0100
0001
,
4000
0000
3004
0000
0000
0000
0103
0000
0000
0000
0000
0000
0020
0000
0000
0030
0000
0000
0100
0000
0000
0000
0000
0000
1000
0000
0000
0000
0000
0000
0002
0000
0000
0003
0000
0000
0010
0000
0000
0000
0000
0000
0100
0000
0000
0000
0000
0000
,
1000
0001
0010
0100
0001
1000
0001
0010
,
0001
0100
0010
1000
0001
0010
0400
0304
,
0003
0040
0430
0300
4000
3400
0340
0034
,
1103
0000
0010
0000
0002
0003
0010
0000
0100
0000
2000
3000
0010
0000
0001
0000
,
1000
0001
0010
0001
1000
0010
0100
0001
,
0010
0100
1000
0001
0100
0010
4000
0000
,
3001
0100
0001
1000
0001
1000
0100
1000
0100
0010
0100
0010
0001
0010
0001
1000
,
0002
0000
1000
0000
2003
3000
0010
0000
0100
0000
0002
0003
0010
0000
0100
0000
,
2000
0000
0000
0000
0000
0000
0010
0000
0000
0000
0000
0000
0000
0100
0000
0000
0000
0000
0001
0000
0000
0000
0000
0000
3010
0000
0000
0000
0000
0000
0100
0000
0000
0000
0000
0000
1000
0000
0000
0000
0000
0000
0001
0000
0000
0000
0000
0000
,
0040
0000
0000
0000
0000
0000
0000
4030
,
3000
0400
0340
0030
0004
4003
0000
0000
,
3001
0000
0000
1000
0001
0000
1000
0000
,
1000
0000
0000
0001
1000
0001
4000
3001
,
1000
0000
0000
0001
1000
0000
0004
1003
,
0001
0000
0000
1000
0001
0000
2000
0001
,
3001
0010
0100
0001
1000
0001
0010
0001
,
0100
0010
1000
0001
0010
0100
1000
0010
,
0100
0001
1000
0010
1000
0001
0010
0100
,
2000
0000
0000
0000
0000
0000
0000
0000
0000
0000
0000
0000
0000
0000
0000
0000
0000
0000
3001
0000
0001
0100
0000
0000
,
0100
0001
1000
0010
0100
0001
1000
0001
,
0010
0001
1000
0010
0100
0001
1000
0100
,
0010
0100
1000
0010
0100
0001
1000
0001
,
0100
0010
1000
0001
0010
0100
1000
0001
,
0100
0010
1000
0100
0010
0001
0100
0010
,
1000
0100
1000
0001
0010
0100
1000
0010
,
0100
0001
1000
0010
1000
0001
0010
0100
,
1000
0000
0200
0300
0020
0030
0002
0003
2000
0000
3010
0000
0100
0000
0001
0000
,
1001
0000
0001
0100
0001
0000
0010
0000
0100
0000
1000
0000
0001
0000
0100
0000
,
0010
0000
1000
0001
1000
0000
0010
0000
0100
0000
0001
0000
0010
0000
0100
0000
,
1000
0000
0001
0010
0001
0000
0100
0000
0010
0000
1000
0000
0100
0000
0010
0000
,
0001
0000
1000
0100
1000
0000
0010
0000
1000
0000
0001
0000
0100
0000
0010
0000
,
1000
0000
0000
0000
0000
0000
0000
0000
0000
0000
0000
0000
0000
0000
0001
0000
0000
0000
0000
0000
1000
0000
0000
0000
0000
0000
0001
0000
0000
0000
0000
0000
0000
0000
0000
0000
1000
0000
0000
0000
0000
0000
0000
0000
0000
0000
0000
0000
0002
0000
0000
0000
0000
0000
0000
0000
0000
0000
0000
0000
0003
0000
0000
1000
0000
0000
0000
0000
0000
0001
0000
0000
2000
0000
0000
0000
0000
0000
0000
0000
0000
0000
0000
0000
3001
0000
0000
0000
0000
0000
0000
0000
0000
0000
0000
0000
,
1000
0000
0000
0000
0000
0000
0000
0001
0000
0000
4000
0000
0000
0000
3000
0000
0000
0000
0001
0000
0000
0000
0000
0000
2000
0000
0000
0000
0000
0000
3001
0000
0000
0000
0000
0000
4000
0000
0000
0000
0000
0000
3001
0000
0000
0000
0000
0000
,
1000
0000
0000
0000
0000
0000
0000
0001
0000
0000
1000
0000
0000
0001
0000
0000
0000
0000
1000
0000
0000
0000
0000
0000
0002
0000
0000
0000
0000
0000
0003
1000
0000
0000
0001
0000
4000
0000
0000
0000
0000
0000
3001
0000
0000
0000
0000
0000
,
4000
0000
3000
0000
0000
0000
0010
0000
0100
0000
0000
0000
2002
3003
0000
0000
,
4000
3004
0403
0304
4003
3400
0340
0034
4003
0000
0000
3000
4000
0000
0000
3000
,
0004
0000
0000
0000
0003
0000
0040
0000
0000
0000
0430
0300
0400
0300
0400
0300
,
0400
0000
0000
0300
4000
0000
0000
3000
0004
0003
1000
0000
0040
0000
0034
0000
,
4003
3004
0043
4030
3004
0043
4030
3040
,
4030
3400
0340
0034
4003
3040
0430
0304
4003
0000
0000
3000
4000
0000
0000
3000
,
0004
0000
0000
0000
0003
0000
0040
0000
0000
0000
0430
0300
0400
0300
0400
0300
,
0400
0000
0300
4000
0000
3000
0400
0000
0340
0000
0034
0000
4003
0000
3040
0000
,
0430
0000
0000
0000
4300
0000
0000
0000
3004
0000
0000
0000
0043
0000
0000
0000
4032
3000
0000
0000
0000
0000
0000
0000
0003
0000
0000
0000
0000
0000
0000
0000
,
1000
0001
1000
0010
0100
0001
1000
0001
,
0010
0001
1000
0010
0100
0001
1000
0100
,
0010
0100
1000
0010
0100
0001
1000
0001
,
0100
0010
1000
0001
0010
0100
1000
0001
,
0100
0010
1000
0100
0010
0001
0100
0010
,
1000
0100
1000
0001
0010
0100
1000
0010
,
0100
0001
1000
0010
1000
0001
0010
0100
,
1000
0100
0010
0001
1000
0010
0100
0001
,
1001
0000
0200
0300
0020
0030
0002
0003
1000
0000
0020
0030
2000
3000
0200
0300
,
0010
0000
0002
0003
0200
0300
0020
0030
1000
0000
0002
0003
0200
0300
0002
0003
,
0010
0000
2000
3000
0200
0300
0020
0030
0001
0000
2000
3000
0040
0000
0430
0000
,
0300
0000
0000
0000
0000
0000
2000
0000
0000
3000
0000
0000
0200
0000
0000
0300
0000
0000
0020
0000
0000
0030
0000
0000
0001
0000
0000
0000
0000
0000
1000
0000
0000
0000
0000
0000
0010
0000
0000
0000
0000
0000
0001
0000
1000
0000
0000
0000
,
1001
0000
0010
0100
0010
0000
0001
0000
0010
0000
0100
0000
1000
0000
0100
0000
,
0010
0000
1000
0001
1000
0000
0010
0000
0100
0000
0001
0000
0010
0000
0100
0000
,
1000
0000
0001
0010
0001
0000
0100
0000
0010
0000
1000
0000
0100
0000
0010
0000
,
0001
0000
1000
0100
1000
0000
0010
0000
1000
0000
0001
0000
0100
0000
0010
0000
,
1000
0000
0001
0100
0001
0000
0010
0000
0100
0000
1000
0000
0001
0000
0100
0000
,
0010
0000
1000
0001
1000
0000
0010
0000
0100
0000
0001
0000
0010
0000
0100
0000
,
1000
0000
0001
0010
0001
0000
0100
0000
0010
0000
1000
0000
0100
0000
0010
0000
,
0001
0000
1000
0100
1000
0000
0010
0000
1000
0000
0001
0000
0100
0000
1000
0000
,
0001
0000
0000
0000
0000
0000
0000
0000
0000
0000
0000
0000
1000
0000
0000
0000
0001
0000
0000
0000
0000
0000
0000
0000
2000
0000
0000
0000
0000
0000
0000
3000
,
1000
0000
0000
0001
2000
3001
4000
3001
,
1000
0000
0000
0001
1000
0000
0004
1003
,
0001
0000
0000
0000
0000
0000
1000
0000
0001
0000
0000
0000
4000
3000
0001
0000
,
1000
0010
1000
0001
0100
0010
1000
0001
,
0010
0001
1000
0010
0100
0001
1000
0100
,
0010
0100
1000
0010
0100
0001
1000
0001
,
0100
0000
0010
0000
1000
0000
0001
0000
0010
0000
0100
0000
2000
3000
0002
0003
,
1001
0000
0010
0100
0010
0000
0001
0000
0010
0000
0100
0000
1000
0000
0100
0000
,
0010
0000
1000
0001
1000
0000
0010
0000
0100
0000
0001
0000
0010
0000
0100
0000
,
1000
0000
0001
0010
0001
0000
0100
0000
0010
0000
1000
0000
0100
0000
0010
0000
,
0001
0000
1000
0100
1000
0000
0010
0000
1000
0000
0001
0000
0100
0000
0010
0000
,
1000
0000
0001
0100
0001
0000
0010
0000
0100
0000
1000
0000
0001
0000
0100
0000
,
0010
0000
1000
0001
1000
0000
0010
0000
0100
0000
0001
0000
0010
0000
0100
0000
,
1000
0000
0001
0010
0001
0000
0100
0000
0010
0000
1000
0000
0100
0000
0010
0000
,
0001
0000
1000
0100
1000
0000
0010
0000
1000
0000
0001
0000
0100
0000
1000
0000
,
0001
0000
0200
0300
0020
0030
0002
0003
1000
0000
0020
0030
2000
3000
0200
0300
,
0010
0000
0002
0003
0200
0300
0020
0030
1000
0000
0002
0003
0200
0300
0002
0003
,
0010
0000
2000
3000
0200
0300
0020
0030
0001
0000
2000
3000
0040
0000
0430
0000
,
0301
0000
2000
3000
0200
0300
0020
0030
0001
0000
1000
0000
0010
0000
0001
0000
,
1000
0000
0010
0100
0010
0000
0001
0000
0010
0000
0100
0000
1000
0000
0100
0000
,
0010
0000
1000
0001
1000
0000
0010
0000
0100
0000
0001
0000
0010
0000
0100
0000
,
1000
0000
0001
0010
0001
0000
0100
0000
0010
0000
1000
0000
0100
0000
0010
0000
,
0001
0000
1000
0100
1000
0000
0010
0000
1000
0000
0001
0000
0100
0000
0010
0000
,
0000
0000
0000
0000
,
0000
0000
0000
0000
,
0000
0000
0000
0000
,
0000
0000
0000
0000
;

//---------------dance-single - ----------------
#NOTES:
     dance-single:
     :
     Challenge:
     11:
     0.984,1.000,1.000,0.797,0.792,823.000,211.000,143.000,4.000,7.000:
0000
0000
0000
0000
,
0000
0000
0000
0000
,
0000
0000
0000
0000
,
0000
0000
0000
0000
,
10M2
0M00
0000
0000
0103
0000
0000
0000
1010
0000
0000
0000
0001
0000
0000
0000
0110
0000
0000
0000
1000
0000
0000
0000
0011
0000
0000
0000
0010
0000
0000
0000
,
1100
0001
0110
1000
0101
0001
1010
0100
,
1001
0001
0110
1000
0101
0100
1010
0001
,
1000
0100
0010
0001
1000
0010
0100
0001
1000
0001
0100
0001
1000
0100
0020
0031
,
1000
0000
0001
0000
1000
0000
0001
0000
0000
0000
0000
0000
2010
0000
0000
3000
0000
0000
0001
0000
0000
0000
0000
0000
1100
0000
0000
0000
0000
0000
0020
0000
0000
0030
0000
0000
1001
0000
0000
0000
0000
0000
0100
0000
0000
0000
0000
0000
,
1010
0001
0011
1000
1100
0001
0110
0010
,
1001
0000
0000
1000
0000
0000
0101
0000
0000
0001
0000
0000
1010
0000
0000
0100
0000
0000
1002
0000
0000
1003
0100
1000
,
0100
0000
0000
0001
1000
0001
0100
0001
0100
0001
0000
0000
1000
0100
1000
0100
0010
0100
0010
0001
0010
0002
0000
0000
,
1M13
0000
0100
0000
1002
0003
0100
0000
1010
0000
0002
0003
0110
0000
1000
0000
,
1010
0100
1001
0001
0110
0001
1010
0001
,
0101
0010
1001
0100
0110
0001
4010
0000
,
3001
0010
0100
1000
0001
1000
0010
1000
0001
0010
0100
1000
0100
0010
0001
0100
,
2001
0000
0010
0000
3002
0003
1000
0000
0110
0000
2000
3000
0002
0000
1000
0000
,
0023
0100
2030
3001
1001
0100
0011
0010
,
2004
0000
0000
0000
0000
0000
3000
0000
0000
2000
0000
0000
01M0
0000
0000
0000
0000
0000
3000
0000
0000
1003
0010
1000
,
0010
0000
0000
0001
1000
0001
1000
0001
0100
0001
0000
0000
1000
0010
1000
0010
0100
0010
0100
0001
1000
0001
0100
0001
,
0100
0000
0000
0100
1001
0000
0100
0000
,
0100
0000
0000
0000
0000
0000
0100
0000
1001
0000
0100
0000
1004
0000
2003
3000
,
1100
0000
0000
0200
1301
0000
0400
0310
,
0010
0000
0000
0100
1001
0000
0200
0000
,
1301
0010
0100
0101
1010
0001
1100
0010
,
0101
0000
1000
0000
0010
0000
1100
0000
1001
0000
0110
0000
0104
0000
2000
0003
,
3110
0010
0001
1100
0101
0010
4000
3001
,
0002
0000
0000
0000
0000
0000
0000
0000
0000
0000
0000
0000
1000
0000
0000
0000
0000
0000
0000
0000
0000
0000
0000
0000
0100
0000
0000
0000
0000
0000
0000
0000
0000
0000
0000
0000
1000
0000
0000
0000
0000
0000
0000
0000
0000
0000
0000
0000
0100
0000
0000
0000
0000
0000
0000
0000
0000
0000
0000
0000
0010
0000
0000
0000
0000
0000
0000
0000
0000
0000
0000
0000
1003
0000
0000
0000
0000
0000
0000
0000
0001
0000
0000
0000
0000
0000
0000
1000
0000
0000
0001
0000
0000
1000
0000
0000
,
0000
0000
0000
0000
0000
0000
0100
0000
0000
0000
0000
0000
0000
0000
0000
0000
0000
0000
0000
0000
0000
0000
0000
0000
0010
0000
0000
0000
0000
0000
0000
0000
0000
0000
0000
0000
0000
0000
0000
0000
1000
0000
0000
0000
0000
0000
0000
0000
0000
0000
0000
0000
0000
0100
0000
0000
0000
0000
0000
0000
0000
0000
0000
0000
0000
0000
0000
0000
0000
0000
0000
0000
0010
0000
0000
0000
0000
0000
0000
0000
0000
0000
0000
0000
0000
0000
0000
0000
0000
0000
0000
0000
0000
0000
0000
0000
1001
0000
0000
0000
0000
0000
0000
0000
0000
0000
0000
0000
0000
0000
0000
0000
0000
0000
0000
0000
0000
0000
0000
0000
0010
0000
0000
0000
0000
0000
0000
0000
0000
0000
0000
0000
0000
0000
0000
0000
0000
0000
0001
0000
0000
0000
0000
0000
0000
0000
0000
0000
0100
0000
0000
0000
0000
0000
0000
0000
0000
0000
0000
0000
0000
0000
0000
0000
0000
0000
0000
0000
0001
0000
0000
0000
0000
0000
0000
0000
0000
0000
0000
0000
0000
0000
0000
0000
0000
0000
0000
0000
0000
0000
0000
0000
,
1010
0000
0000
0000
0000
0000
0000
0000
0000
0000
0000
0000
1000
0000
0000
0000
0000
0000
0000
0000
0001
0000
0000
0000
0010
0000
0000
0100
0000
0000
0000
0000
0000
0000
0000
0000
0001
0000
0000
0000
0000
0000
0000
0000
0000
0000
0000
0000
1001
0000
0000
0000
0000
0000
0000
0000
0000
0000
0000
0000
0010
0000
0000
0000
0000
0000
0000
0000
0000
0000
0000
0000
0110
0000
0000
0000
0000
0000
0000
0000
0000
0000
0000
0000
1000
0000
0000
0000
0000
0000
0000
0000
0001
0000
0000
0000
,
0000
0010
0000
0000
0000
0000
1000
0000
0000
0000
0001
0000
0000
1000
0000
0000
0000
0000
0100
0000
0000
0000
0000
0000
1001
0000
0000
0000
0000
0000
0100
0000
0000
0000
1000
0000
0000
0001
0000
0000
0000
0000
0010
0000
0000
0000
0000
0000
,
1100
0000
0000
0000
0000
0000
0000
0000
0000
0000
0000
0000
0010
0000
0000
0000
0000
0000
0000
0000
0001
0000
0000
1000
0000
0000
0001
0000
0000
0000
0000
0000
0000
0000
0000
0000
1000
0000
0000
0000
0000
0000
0001
0000
0000
0000
0000
0000
0011
0000
0000
0000
0000
0000
0000
0000
0000
0000
0000
0000
1000
0000
0000
0000
0000
0000
0010
0000
0000
0000
0000
0000
1001
0000
0000
0000
0000
0000
1000
0000
0000
0000
0000
0000
0001
0000
0000
1000
0000
0000
0001
0000
0000
0010
0000
0000
,
0000
0000
0000
0000
0000
0000
0100
0000
0000
0000
0000
0000
0000
0000
0000
0000
0000
0000
0000
0000
0000
0000
0000
0000
0010
0000
0000
0000
0000
0000
0000
0000
0000
0000
0000
0000
1000
0000
0000
0000
0000
0000
0000
0000
0000
0000
0000
0000
1001
0000
0000
0000
0000
0000
0000
0000
0000
0000
0000
0000
0000
0000
0000
0000
0000
0000
0000
0000
0000
0000
0000
0000
0100
0000
0000
0000
0000
0000
0000
0000
0000
0000
0000
0000
0000
0000
0000
0000
0000
0000
0000
0000
0000
0000
0000
0000
1010
0000
0000
0000
0000
0000
0000
0000
0000
0000
0000
0000
0000
0000
0000
0000
0000
0000
0000
0000
0000
0000
0000
0000
0001
0000
0000
0000
0000
0000
0000
0000
0000
0000
0000
0000
0000
0000
0000
0000
0000
1000
0000
0000
0000
0000
0000
0000
0000
0000
0000
0000
0100
0000
0000
0000
0000
0000
0000
0000
0000
0000
0000
0000
0000
0000
0000
0000
0000
0000
0000
0000
0010
0000
0000
0000
0000
0000
0000
0000
0000
0000
0000
0000
0000
0000
0000
0000
0000
0000
0000
0000
0000
0000
0000
0000
,
1001
0000
0000
0000
0000
0000
0000
0000
0000
0000
0000
0000
0100
0000
0000
0000
0000
0000
0000
0000
0001
0000
0000
1000
0000
0000
0100
0000
0000
0000
0000
0000
0000
0000
0000
0000
0001
0000
0000
0000
0000
0000
0000
0000
0000
0000
0000
0000
0101
0000
0000
0000
0000
0000
0000
0000
0000
0000
0000
0000
1000
0000
0000
0000
0000
0000
0000
0000
0000
0000
0000
0000
0110
0000
0000
0000
0000
0000
0000
0000
0000
0000
0000
0000
1000
0000
0000
0000
0000
0000
0000
0000
0001
0000
0000
0000
,
0000
0010
0000
0000
0000
0000
1000
0000
0000
0000
0001
0000
0000
1000
0000
0000
0000
0000
0100
0000
0000
0000
0000
0000
1001
0000
0000
0000
0000
0000
0100
0000
0000
0000
1000
0000
0000
0001
0000
0000
0000
0000
0010
0000
0000
0000
0000
0000
,
1001
0000
0200
0300
0200
0300
0200
0300
1010
0000
0002
0003
2000
3000
0020
0030
,
1001
0000
0000
0000
0000
0000
0000
0000
0000
0000
0000
0000
0100
0000
0000
0000
0000
0000
0000
0000
0000
1000
0000
0000
0000
0000
0001
0000
0000
0000
0000
0000
0000
0000
0000
0000
0010
0000
0000
0000
0000
0000
0000
0000
0000
0000
0000
0000
1001
0000
0000
0000
0000
0000
0000
0000
0000
0000
0000
0000
0010
0000
0000
0000
0000
0000
0000
0000
0000
0001
0000
0000
0000
0000
0100
0000
0000
0000
0000
0000
0000
0000
0000
0000
0001
0000
0000
0000
0000
0000
0000
0000
0000
0000
0000
0000
,
1010
0000
0000
0000
0000
0000
0000
0000
0000
0000
0000
0000
1000
0000
0000
0000
0000
0000
0000
0000
0001
0000
0000
0000
0010
0000
0000
0100
0000
0000
0000
0000
0000
0000
0000
0000
0001
0000
0000
0000
0000
0000
0000
0000
0000
0000
0000
0000
1001
0000
0000
0000
0000
0000
0000
0000
0000
0000
0000
0000
0010
0000
0000
0000
0000
0000
0000
0000
0000
0000
0000
0000
0110
0000
0000
0000
0000
0000
0000
0000
0000
0000
0000
0000
1000
0000
0000
0000
0000
0000
0000
0000
0001
0000
0000
0000
,
0000
0010
0000
0000
0000
0000
1000
0000
0000
0000
0001
0000
0000
1000
0000
0000
0000
0000
0100
0000
0000
0000
0000
0000
1001
0000
0000
0000
0000
0000
0100
0000
0000
0000
1000
0000
0000
0001
0000
0000
0000
0000
0010
0000
0000
0000
0000
0000
,
1100
0000
0000
0000
0000
0000
0000
0000
0000
0000
0000
0000
0010
0000
0000
0000
0000
0000
0000
0000
0001
0000
0000
1000
0000
0000
0001
0000
0000
0000
0000
0000
0000
0000
0000
0000
1000
0000
0000
0000
0000
0000
0001
0000
0000
0000
0000
0000
0011
0000
0000
0000
0000
0000
0000
0000
0000
0000
0000
0000
1000
0000
0000
0000
0000
0000
0010
0000
0000
0000
0000
0000
1001
0000
0000
0000
0000
0000
1000
0000
0000
0000
0000
0000
0001
0000
0000
1000
0000
0000
0001
0000
0000
0010
0000
0000
,
0000
0000
0000
0100
0000
0000
0000
0000
0000
0000
0000
0000
0000
0000
0010
0000
0000
0000
0000
0000
1000
0000
0000
0000
0000
0000
0001
0000
0000
0000
0000
0000
0000
0000
0000
0000
0010
0000
0000
0000
0000
0000
0000
0000
0000
0000
0000
0000
1001
0000
0000
0000
0000
0000
0000
0000
0000
0000
0000
0000
0100
0000
0000
0000
0000
0000
0000
0000
0000
0001
0000
0000
0000
0000
1000
0000
0000
0000
0000
0000
0000
0000
0000
0000
0001
0000
0000
0000
0000
0000
0000
0000
0000
0000
0000
0000
,
1010
0000
0000
0000
0000
0000
0000
0000
0000
0000
0000
0000
1000
0000
0000
0000
0000
0000
0000
0000
0001
0000
0000
1000
0000
0000
0100
0000
0000
0000
0000
0000
0000
0000
0000
0000
0001
0000
0000
0000
0000
0000
0000
0000
0000
0000
0000
0000
0101
0000
0000
0000
0000
0000
0000
0000
0000
0000
0000
0000
1000
0000
0000
0000
0000
0000
0000
0000
0000
0000
0000
0000
0110
0000
0000
0000
0000
0000
0000
0000
0000
0000
0000
0000
1000
0000
0000
0000
0000
0000
0000
0000
0001
0000
0000
0000
,
0000
0010
0000
0000
0000
0000
0000
1000
0000
0000
0001
0000
0000
1000
0000
0000
0000
0000
0100
0000
0000
0000
0000
0000
1001
0000
0000
0000
0000
0000
0100
0000
0000
0000
1000
0000
0000
0001
0000
0000
0000
0000
0010
0000
0000
0000
0000
0000
,
0004
2003
3000
0000
0000
0000
0100
0000
1001
0000
0000
0000
2002
3003
0000
0000
,
4000
3004
0403
0304
4003
3400
0340
0034
4003
0000
0000
3000
4000
0000
0000
3000
,
0004
0000
0000
0000
0003
0000
0040
0000
0000
0000
0430
0300
0400
0300
0400
0300
,
0400
0000
0000
0300
4000
0000
0000
3000
0104
0003
1000
0000
0140
0000
0034
0000
,
4103
3004
0143
4030
3104
0043
4031
3040
,
4030
3400
0340
0034
4003
3040
0430
0304
4003
0000
0000
3000
4000
0000
0000
3000
,
0004
0000
0000
0000
0003
0000
0040
0000
0000
0000
0430
0300
0400
0300
0400
0300
,
0400
0000
0300
4000
0000
3000
0400
0000
0340
0000
0034
0000
4003
0000
3040
0000
,
0430
0000
0000
0000
4300
0000
0000
0000
3004
0000
0000
0000
0043
0000
0000
0000
4032
3000
0000
0000
0000
0000
0000
0000
0003
0000
0000
0000
0000
0000
0000
0000
,
0104
0000
0000
0000
0000
0000
0000
0000
0000
0000
0000
0000
0003
0000
0000
0000
0000
0000
0000
0000
0000
0000
0000
0000
0010
0000
0000
0000
0000
0000
0000
0000
0000
0000
0000
0000
0000
0000
0000
0000
1000
0000
0000
0000
0000
0000
0000
0000
0000
0000
0000
0000
0000
0100
0000
0000
0000
0000
0000
0000
0000
0000
0000
0000
0000
0000
0000
0000
0000
0000
0000
0000
0010
0000
0000
0000
0000
0000
0000
0000
0000
0000
0000
0000
0000
0000
0000
0000
0000
0000
0000
0000
0000
0000
0000
0000
1001
0000
0000
0000
0000
0000
0000
0000
0000
0000
0000
0000
0000
0000
0000
0000
0000
0000
0000
0000
0000
0000
0000
0000
0010
0000
0000
0000
0000
0000
0000
0000
0000
0000
0000
0000
0000
0000
0000
0000
0000
0000
0001
0000
0000
0000
0000
0000
0000
0000
0000
0000
0100
0000
0000
0000
0000
0000
0000
0000
0000
0000
0000
0000
0000
0000
0000
0000
0000
0000
0000
0000
0001
0000
0000
0000
0000
0000
0000
0000
0000
0000
0000
0000
0000
0000
0000
0000
0000
0000
0000
0000
0000
0000
0000
0000
,
1010
0000
0000
0000
0000
0000
0000
0000
0000
0000
0000
0000
1000
0000
0000
0000
0000
0000
0000
0000
0001
0000
0000
0000
0010
0000
0000
0100
0000
0000
0000
0000
0000
0000
0000
0000
0001
0000
0000
0000
0000
0000
0000
0000
0000
0000
0000
0000
1001
0000
0000
0000
0000
0000
0000
0000
0000
0000
0000
0000
0010
0000
0000
0000
0000
0000
0000
0000
0000
0000
0000
0000
0110
0000
0000
0000
0000
0000
0000
0000
0000
0000
0000
0000
1000
0000
0000
0000
0000
0000
0000
0000
0001
0000
0000
0000
,
0000
0010
0000
0000
0000
0000
1000
0000
0000
0000
0001
0000
0000
1000
0000
0000
0000
0000
0100
0000
0000
0000
0000
0000
1001
0000
0000
0000
0000
0000
0100
0000
0000
0000
1000
0000
0000
0001
0000
0000
0000
0000
0010
0000
0000
0000
0000
0000
,
1100
0000
0000
0000
0000
0000
0000
0000
0000
0000
0000
0000
0010
0000
0000
0000
0000
0000
0000
0000
0001
0000
0000
1000
0000
0000
0001
0000
0000
0000
0000
0000
0000
0000
0000
0000
1000
0000
0000
0000
0000
0000
0001
0000
0000
0000
0000
0000
0011
0000
0000
0000
0000
0000
0000
0000
0000
0000
0000
0000
1000
0000
0000
0000
0000
0000
0010
0000
0000
0000
0000
0000
1001
0000
0000
0000
0000
0000
1000
0000
0000
0000
0000
0000
0001
0000
0000
1000
0000
0000
0001
0000
0000
0010
0000
0000
,
0000
0000
0000
0000
0000
0000
0100
0000
0000
0000
0000
0000
0000
0000
0000
0000
0000
0000
0000
0000
0000
0000
0000
0000
0010
0000
0000
0000
0000
0000
0000
0000
0000
0000
0000
0000
1000
0000
0000
0000
0000
0000
0000
0000
0000
0000
0000
0000
1001
0000
0000
0000
0000
0000
0000
0000
0000
0000
0000
0000
0000
0000
0000
0000
0000
0000
0000
0000
0000
0000
0000
0000
0100
0000
0000
0000
0000
0000
0000
0000
0000
0000
0000
0000
0000
0000
0000
0000
0000
0000
0000
0000
0000
0000
0000
0000
1010
0000
0000
0000
0000
0000
0000
0000
0000
0000
0000
0000
0000
0000
0000
0000
0000
0000
0000
0000
0000
0000
0000
0000
0001
0000
0000
0000
0000
0000
0000
0000
0000
0000
0000
0000
0000
0000
0000
0000
0000
1000
0000
0000
0000
0000
0000
0000
0000
0000
0000
0000
0100
0000
0000
0000
0000
0000
0000
0000
0000
0000
0000
0000
0000
0000
0000
0000
0000
0000
0000
0000
0010
0000
0000
0000
0000
0000
0000
0000
0000
0000
0000
0000
0000
0000
0000
0000
0000
0000
0000
0000
0000
0000
0000
0000
,
1001
0000
0000
0000
0000
0000
0000
0000
0000
0000
0000
0000
0100
0000
0000
0000
0000
0000
0000
0000
0001
0000
0000
1000
0000
0000
0100
0000
0000
0000
0000
0000
0000
0000
0000
0000
0001
0000
0000
0000
0000
0000
0000
0000
0000
0000
0000
0000
0101
0000
0000
0000
0000
0000
0000
0000
0000
0000
0000
0000
1000
0000
0000
0000
0000
0000
0000
0000
0000
0000
0000
0000
0110
0000
0000
0000
0000
0000
0000
0000
0000
0000
0000
0000
1000
0000
0000
0000
0000
0000
0000
0000
0001
0000
0000
0000
,
0000
0010
0000
0000
0000
0000
1000
0000
0000
0000
0001
0000
0000
1000
0000
0000
0000
0000
0100
0000
0000
0000
0000
0000
1001
0000
0000
0000
0000
0000
0100
0000
0000
0000
1000
0000
0000
0001
0000
0000
0000
0000
0010
0000
0000
0000
0000
0000
,
1001
0000
0200
0300
0200
0300
0200
0300
1010
0000
0002
0003
2000
3000
0020
0030
,
1001
0000
2000
3000
0020
0030
0201
0300
1001
0000
0200
0300
1020
0030
0002
0003
,
0110
0000
2000
3000
0200
0300
0021
0030
1001
0000
0102
0003
2100
3000
0020
0030
,
0101
0000
2000
3000
0002
0003
0200
0300
1010
0000
0020
0030
4002
3003
0201
0300
,
0000
0000
0000
0000
2000
0000
3000
0000
0002
0000
0003
0000
0200
0000
0300
0000
1001
0000
0000
0000
0020
0000
0030
0000
1002
0000
1003
0000
0020
0100
1030
0001
,
2000
0000
0000
0001
0000
0000
3000
0000
0000
0000
0000
0000
1000
0000
0000
0000
0000
0000
0000
0000
0000
0001
0000
0000
0000
0000
0100
0000
0000
0000
0000
0000
0000
0000
0000
0000
0010
0000
0000
0000
0000
0000
0000
0000
0000
0000
0000
0000
1001
0000
0000
0000
0000
0000
0000
0000
0000
0000
0000
0000
0010
0000
0000
0000
0000
0000
0000
0000
0000
0001
0000
0000
0000
0000
0100
0000
0000
0000
0000
0000
0000
0000
0000
0000
0001
0000
0000
0000
0000
0000
0000
0000
0000
0000
0000
0000
,
1010
0000
0000
0000
0000
0000
0000
0000
0000
0000
0000
0000
0100
0000
0000
0000
0000
0000
0000
0000
0001
0000
0000
0000
1000
0000
0000
0100
0000
0000
0000
0000
0000
0000
0000
0000
0010
0000
0000
0000
0000
0000
0000
0000
0000
0000
0000
0000
1001
0000
0000
0000
0000
0000
0000
0000
0000
0000
0000
0000
0001
0000
0000
0000
0000
0000
0000
0000
0000
0000
0000
0000
0110
0000
0000
0000
0000
0000
0000
0000
0000
0000
0000
0000
1000
0000
0000
0000
0000
0000
0000
0000
0001
0000
0000
0000
,
0000
0010
0000
0000
0000
0000
0100
0000
0000
0000
1000
0000
0000
0001
0000
0000
0000
0000
0100
0000
0000
0000
0000
0000
1001
0000
0000
0000
0000
0000
0100
0000
0000
0000
1000
0000
0000
0001
0000
0000
0000
0000
0010
0000
0000
0000
0000
0000
,
1100
0000
0000
0000
0000
0000
0000
0000
0000
0000
0000
0000
0010
0000
0000
0000
0000
0000
0000
0000
0001
0000
0000
1000
0000
0000
0100
0000
0000
0000
0000
0000
0000
0000
0000
0000
1000
0000
0000
0000
0000
0000
0001
0000
0000
0000
0000
0000
0011
0000
0000
0000
0000
0000
0000
0000
0000
0000
0000
0000
1000
0000
0000
0000
0000
0000
0010
0000
0000
0000
0000
0000
1001
0000
0000
0000
0000
0000
1000
0000
0000
0000
0000
0000
0001
0000
0000
1000
0000
0000
0001
0000
0000
0010
0000
0000
,
0000
0000
0000
0100
0000
0000
0000
0000
0000
0000
0000
0000
0000
0000
0010
0000
0000
0000
0000
0000
1000
0000
0000
0000
0000
0000
0001
0000
0000
0000
0000
0000
0000
0000
0000
0000
0010
0000
0000
0000
0000
0000
0000
0000
0000
0000
0000
0000
1001
0000
0000
0000
0000
0000
0000
0000
0000
0000
0000
0000
0100
0000
0000
0000
0000
0000
0000
0000
0000
0001
0000
0000
0000
0000
1000
0000
0000
0000
0000
0000
0000
0000
0000
0000
0001
0000
0000
0000
0000
0000
0000
0000
0000
0000
0000
0000
,
1010
0000
0000
0000
0000
0000
0000
0000
0000
0000
0000
0000
0100
0000
0000
0000
0000
0000
0000
0000
0001
0000
0000
1000
0000
0000
0001
0000
0000
0000
0000
0000
0000
0000
0000
0000
0010
0000
0000
0000
0000
0000
0000
0000
0000
0000
0000
0000
0101
0000
0000
0000
0000
0000
0000
0000
0000
0000
0000
0000
1000
0000
0000
0000
0000
0000
0000
0000
0000
0000
0000
0000
0110
0000
0000
0000
0000
0000
0000
0000
0000
0000
0000
0000
1000
0000
0000
0000
0000
0000
0000
0000
0001
0000
0000
0000
,
0000
0010
0000
0000
0000
0000
0000
1000
0000
0000
0001
0000
0000
1000
0000
0000
0000
0000
0100
0000
0000
0000
0000
0000
1001
0000
0000
0000
0000
0000
0100
0000
0000
0000
1000
0000
0000
0001
0000
0000
0000
0000
1000
0000
0000
0000
0000
0000
,
0110
0000
0000
0000
0000
0000
0000
0000
0000
0000
0000
0000
0001
0000
0000
0000
0000
0000
0000
0000
0010
0000
0000
0100
0000
0000
1000
0000
0000
0000
0000
0000
0000
0000
0000
0000
0001
0000
0000
0000
0000
0000
1000
0000
0000
0000
0000
0000
0101
0000
0000
0000
0000
0000
0000
0000
0000
0000
0000
0000
1000
0000
0000
0000
0000
0000
0010
0000
0000
0000
0000
0000
1001
0000
0000
0000
0000
0000
1000
0000
0000
0000
0000
0000
0001
0000
0000
1000
0000
0000
0001
0000
0000
0100
0000
0000
,
1001
0000
0000
0000
0000
0000
0000
0000
0000
0000
0000
0000
0100
0000
0000
0000
1001
0000
0000
0000
0000
0000
0000
0000
0200
0000
0000
0000
0000
0000
0000
0300
,
0100
0000
0000
0000
0000
0000
0100
0000
2001
0000
3100
0000
1004
0000
2000
3000
,
1103
0000
0000
0200
1301
0000
0400
0310
,
0010
0000
0000
0000
0000
0000
0000
0000
0000
0000
0000
0000
0100
0000
0000
0000
1001
0000
0000
0000
0000
0000
0000
0000
0200
0000
0000
0300
0100
0000
0000
0000
,
1001
0000
2000
3000
0020
0030
0201
0300
1001
0000
0200
0300
1020
0030
0002
0003
,
0110
0000
2000
3000
0200
0300
0021
0030
1001
0000
0102
0003
2100
3000
0020
0030
,
0101
0000
2000
3000
0002
0003
0200
0300
1010
0000
0020
0030
4002
3003
0210
0300
,
4000
3000
0200
0300
0020
0030
0002
0003
1010
0000
0200
0300
1002
0003
0200
0000
,
0311
0000
0000
0000
0000
0000
0000
0000
0000
0000
0000
0000
1000
0000
0000
0000
0000
0000
0000
0000
0000
0001
0000
0000
0000
0000
0100
0000
0000
0000
0000
0000
0000
0000
0000
0000
0010
0000
0000
0000
0000
0000
0000
0000
0000
0000
0000
0000
1001
0000
0000
0000
0000
0000
0000
0000
0000
0000
0000
0000
0010
0000
0000
0000
0000
0000
0000
0000
0000
0001
0000
0000
0000
0000
1000
0000
0000
0000
0000
0000
0000
0000
0000
0000
0100
0000
0000
0000
0000
0000
0000
0000
0000
0000
0000
0000
,
1010
0000
0000
0000
0000
0000
0000
0000
0000
0000
0000
0000
0100
0000
0000
0000
0000
0000
0000
0000
1000
0000
0000
0000
0001
0000
0000
0010
0000
0000
0000
0000
0000
0000
0000
0000
0100
0000
0000
0000
0000
0000
0000
0000
0000
0000
0000
0000
1001
0000
0000
0000
0000
0000
0000
0000
0000
0000
0000
0000
0010
0000
0000
0000
0000
0000
0000
0000
0000
0000
0000
0000
0110
0000
0000
0000
0000
0000
0000
0000
0000
0000
0000
0000
1000
0000
0000
0000
0000
0000
0000
0000
0001
0000
0000
0000
,
0000
1000
0000
0000
0000
0000
0001
0000
0000
0000
1000
0000
0000
0001
0000
0000
0000
0000
0010
0000
0000
0000
0000
0000
1001
0000
0000
0000
0000
0000
0100
0000
0000
0000
1000
0000
0000
0001
0000
0000
0000
0000
0010
0000
0000
0000
0000
0000
,
1100
0000
0000
0000
0000
0000
0000
0000
0000
0000
0000
0000
0010
0000
0000
0000
0000
0000
0000
0000
0001
0000
0000
1000
0000
0000
0001
0000
0000
0000
0000
0000
0000
0000
0000
0000
1000
0000
0000
0000
0000
0000
0001
0000
0000
0000
0000
0000
0011
0000
0000
0000
0000
0000
0000
0000
0000
0000
0000
0000
1000
0000
0000
0000
0000
0000
0010
0000
0000
0000
0000
0000
1001
0000
0000
0000
0000
0000
1000
0000
0000
0000
0000
0000
0001
0000
0000
1000
0000
0000
0001
0000
0000
0010
0000
0000
,
0000
0000
0000
0100
0000
0000
0000
0000
0000
0000
0000
0000
1000
0000
0000
0000
0000
0000
0000
0000
0000
0001
0000
0000
0000
0000
0100
0000
0000
0000
0000
0000
0000
0000
0000
0000
0010
0000
0000
0000
0000
0000
0000
0000
0000
0000
0000
0000
1001
0000
0000
0000
0000
0000
0000
0000
0000
0000
0000
0000
0010
0000
0000
0000
0000
0000
0000
0000
0000
0001
0000
0000
0000
0000
1000
0000
0000
0000
0000
0000
0000
0000
0000
0000
0100
0000
0000
0000
0000
0000
0000
0000
0000
0000
0000
0000
,
0011
0000
0000
0000
0000
0000
0000
0000
0000
0000
0000
0000
0100
0000
0000
0000
0000
0000
0000
0000
1000
0000
0000
0000
0001
0000
0000
0010
0000
0000
0000
0000
0000
0000
0000
0000
0100
0000
0000
0000
0000
0000
0000
0000
0000
0000
0000
0000
1001
0000
0000
0000
0000
0000
0000
0000
0000
0000
0000
0000
0010
0000
0000
0000
0000
0000
0000
0000
0000
0000
0000
0000
0110
0000
0000
0000
0000
0000
0000
0000
0000
0000
0000
0000
1000
0000
0000
0000
0000
0000
0000
0000
0100
0000
0000
0000
,
0000
0010
0000
0000
0000
0000
0001
0000
0000
0000
0010
0000
0000
0100
0000
0000
0000
0000
1000
0000
0000
0000
0000
0000
0101
0000
0000
0000
0000
0000
0010
0000
0000
0000
1000
0000
0000
0001
0000
0000
0000
0000
0010
0000
0000
0000
0000
0000
,
1100
0000
0000
0000
0000
0000
0000
0000
0000
0000
0000
0000
0010
0000
0000
0000
0000
0000
0000
0000
0001
0000
0000
1000
0000
0000
0001
0000
0000
0000
0000
0000
0000
0000
0000
0000
1000
0000
0000
0000
0000
0000
0001
0000
0000
0000
0000
0000
0011
0000
0000
0000
0000
0000
0000
0000
0000
0000
0000
0000
1000
0000
0000
0000
0000
0000
0010
0000
0000
0000
0000
0000
1001
0000
0000
0000
0000
0000
1000
0000
0000
0000
0000
0000
0001
0000
0000
1000
0000
0000
0001
0000
0000
0010
0000
0000
,
1001
0000
0020
0030
0002
0003
1200
0300
0011
0000
0200
0300
1020
0030
0002
0003
,
0110
0000
2000
3000
0200
0300
0021
0030
1001
0000
0102
0003
2100
3000
0020
0030
,
0101
0000
2000
3000
0002
0003
0200
0300
1010
0000
0020
0030
4002
3003
0210
0300
,
1001
0000
0200
0300
0020
0030
0002
0003
1010
0000
0200
0300
1002
0003
0200
0000
,
0311
0000
2000
3002
0023
0030
0201
0300
1001
0000
0200
0300
1020
0030
0002
0003
,
0110
0000
2000
3002
0203
0300
0021
0030
1001
0000
0102
0003
2100
3000
0020
0030
,
0101
0000
2000
3002
2003
3000
0200
0300
1010
0000
0020
0030
4002
3003
0210
0300
,
1001
0000
0200
0302
2003
3000
0020
0030
1001
0000
0200
0300
0012
0003
0200
0000
,
0000
0300
0000
0000
0000
0000
0000
0000
0000
0000
0000
0000
0000
0000
0000
0000
;
