#TITLE:Dead END;
#SUBTITLE:Mirai Nikki;
#ARTIST:Faylan;
#TITLETRANSLIT:;
#SUBTITLETRANSLIT:;
#ARTISTTRANSLIT:;
#CREDIT:;
#BANNER:bn.jpg;
#BACKGROUND:bg.jpg;
#LYRICSPATH:;
#CDTITLE:bombastik.png;
#MUSIC:Dead END.mp3;
#OFFSET:-0.220;
#SAMPLESTART:33.007;
#SAMPLELENGTH:12.000;
#SELECTABLE:YES;
#BPMS:0.000=183.000;
#STOPS:;
#BGCHANGES:;
// cache tags:
#FIRSTBEAT:4.000;
#LASTBEAT:271.250;
#SONGFILENAME:Songs/FUCK ANIME PACK/Dead END/Dead END.sm;
#HASMUSIC:1;
#HASBANNER:1;
#MUSICLENGTH:89.712;
// end cache tags

//---------------dance-single - Blank----------------
#NOTES:
     dance-single:
     Blank:
     Challenge:
     11:
     1.000,1.000,1.000,0.903,0.585,567.000,339.000,81.000,0.000,109.000:

0000
0000
0000
0000
,
0022
0000
0000
0000
0000
0000
0000
0000
0000
0000
0000
0033
,
1110
0011
1100
0000
1100
0011
0000
0110
,
1100
0000
0110
0011
1100
0100
0011
0100
,
1110
0011
1001
0000
0110
1100
0000
0110
,
0011
0000
0000
0000
0000
0000
0000
0000
1100
0000
0000
0000
0010
0000
0000
0000
1100
0000
0000
0000
1100
0000
0000
0000
0222
0333
0000
0000
1000
0000
0000
0000
,
0222
0333
0000
0000
0110
0000
0000
0000
1100
0000
0000
0000
0000
0000
0000
0000
0011
0000
0000
0000
1100
0000
0000
0000
0000
0000
0000
0000
0110
0000
0000
0000
,
1001
0000
1100
0110
0000
0001
1100
0001
,
2220
3330
0000
0000
0011
0000
0000
0000
0110
0000
0000
0000
0000
0000
0000
0000
1110
0000
0000
0000
0111
0000
0000
0000
0000
0000
0000
0000
0011
0000
0000
0000
,
1100
0010
0010
0200
0000
1300
0001
2100
,
0001
0010
0001
0010
0001
0010
0001
0010
3001
0010
0001
0010
0001
0010
0001
0010
,
1100
0000
0010
0000
1100
0000
0001
0010
1100
0000
0110
0000
0011
0000
0100
0000
,
1011
0000
0100
0000
0011
0000
1000
0100
0011
0000
1100
0000
0011
0000
0100
0000
,
1110
0000
0001
0000
1010
0000
0100
0010
1100
0000
0011
0000
0110
0000
2000
0000
,
0000
0000
0001
0000
0110
0000
3011
0000
1100
0000
0010
0000
0100
0010
1100
0000
,
0111
0000
1000
0000
0011
0000
1000
0100
0011
0000
0110
0000
1100
0000
0001
0000
,
1101
0000
0010
0000
1100
0000
0001
0010
1100
0000
0110
0000
0011
0000
1000
0000
,
0001
0000
0000
0000
2220
3330
0000
0000
0000
0000
0000
0000
0001
0000
0010
0000
2202
3303
0000
0000
0110
0000
0000
0000
0110
0000
0000
0000
2202
3303
0000
0000
,
0000
0000
0000
0000
1100
0000
0000
0000
0011
0000
0000
0000
0110
0000
0000
0000
1000
0000
0000
0000
0110
0000
0000
0000
0001
0000
0000
0000
2220
3330
0000
0000
,
0000
0000
0100
0000
0001
0010
2100
0000
3011
0000
0110
0000
1100
0000
0010
0000
,
1100
0000
0000
0000
0110
0000
0000
0000
1001
0000
0000
0000
0010
0000
0001
0000
1100
0000
0000
0000
0110
0000
0000
0000
0110
0000
0000
0000
2220
3330
0000
0000
,
0000
0000
0110
0000
1100
0000
0011
0000
0100
0000
0001
0010
1100
0000
0011
0000
,
1100
0000
0000
0000
0110
0000
0000
0000
1001
0000
0000
0000
0110
0000
0000
0000
1000
0000
0000
0000
1000
0000
0000
0000
0110
0000
0000
0000
2202
3303
0000
0000
,
0000
0000
0000
0000
1100
0000
0000
0000
0110
0000
0000
0000
0011
0000
0000
0000
0100
0000
0000
0000
1000
0000
0100
0000
0011
0000
0000
0000
2220
3330
0000
0000
,
0000
0000
0000
0000
1100
0000
0000
0000
1100
0000
0000
0000
0110
0000
0000
0000
1001
0000
0000
0000
0110
0000
0000
0000
0110
0000
0000
0000
2220
3330
0000
0000
,
0000
0000
0001
0000
0100
2000
0000
3002
,
0000
0000
0000
0000
0000
0000
0000
0000
0000
0000
1100
0010
1103
0000
0000
0000
,
1110
0001
0100
0010
1101
0010
0100
0001
1100
0011
1100
0000
0011
0000
0110
0000
,
1011
0100
0010
1000
0111
1000
0010
0001
1100
0011
1100
0000
0011
0000
1100
0000
,
0111
1000
0100
0001
1110
0001
0100
0010
1100
0011
1100
0000
0011
0000
0110
0000
,
1101
0010
0100
0001
1110
0001
0010
1000
0011
1100
0011
0000
1100
0000
0110
0000
,
0111
1000
0100
0001
1110
0001
0100
1000
0011
1100
0011
0000
1100
0000
0110
0000
,
1110
0001
0010
1000
0111
1000
0010
0001
1100
0011
1100
0000
0011
0000
0110
0000
,
1110
0001
0001
1110
0001
0001
1110
0001
,
0001
0000
2110
0000
0000
0000
3000
0000
0011
1100
0011
0000
0110
0000
1100
0000
,
0011
0000
1100
1100
1100
0000
0011
0000
0100
0000
1001
0000
1110
0000
0111
0000
,
0000
0000
1100
0000
0022
0000
0000
0033
1110
0000
1110
0000
0011
0000
1100
0000
,
0000
0000
0011
1100
0011
0000
0000
0000
1100
0000
1100
0000
0011
0000
1001
0000
,
0000
0110
0220
0330
1001
0110
1001
2220
,
3330
0001
1100
0010
1001
0100
0011
1000
,
0220
1330
0022
0133
2200
3301
0220
1330
,
1110
0000
0001
0000
0001
0000
1110
0000
0001
0000
0001
0000
2220
0000
0000
3330
,
0001
0000
1110
0000
0011
0000
0110
0000
1100
0000
0110
0000
1110
0000
0011
1100
,
0011
1000
1000
0111
1000
1000
0111
1000
,
0011
1100
0001
0001
0100
0010
1000
0111
,
1000
0002
0100
0013
1001
1001
1001
0220
,
0330
0001
1100
1100
0111
1011
1101
0222
,
0000
0000
0333
0000
0022
0000
1033
0100
0011
0000
0100
0000
0011
0000
0100
0000
,
1110
0000
0011
0000
0110
0000
0001
0010
0100
1000
0100
0010
0100
0010
0001
0010
,
1101
0010
0010
1000
0110
1100
0110
0111
,
0000
0000
1100
0010
0101
1000
0101
0010
,
1101
1100
0110
1101
0000
0010
0010
1101
,
0000
0000
0011
0000
0110
0000
1100
0000
0001
0100
0010
0000
0100
1000
0111
0000
,
0000
0110
0110
0110
1001
1100
0000
0111
,
0000
0011
0110
0000
0000
0110
0110
0110
,
1110
0001
1110
0001
1110
0110
1001
1110
,
0000
0011
0011
0000
0011
1100
1100
0011
,
1110
1110
1110
2220
3330
0011
1100
1100
,
0111
0111
0111
0222
0333
1100
0110
0110
,
1110
0001
0001
1110
0001
0001
1110
0002
,
0000
1113
0111
0000
0111
1110
0000
0111
,
1110
0000
0000
0000
1110
0000
0111
0000
0000
0000
1100
0011
1100
0011
1100
0011
,
1100
0010
0100
0010
1101
0010
0100
0001
1110
0001
0100
1000
0111
1000
0100
0010
,
1101
0010
0100
0001
1110
0001
0100
1000
0111
1000
0010
0100
1011
0100
0010
1000
,
0111
1000
0001
0010
1101
0010
1000
0100
1011
0100
0001
0010
1101
0010
1000
0100
,
1011
0100
0010
0001
1110
0001
0100
1000
0111
1000
0010
0100
1011
0100
0010
1000
,
0011
1100
0011
1100
0011
1100
0011
1100
0011
1100
0011
1100
0011
1100
0011
1100
,
0022
0000
0000
0000
0000
0033
2222
0000
0000
0000
0000
0000
0000
3333
0000
0000
;
