#TITLE:Destiny Vector (Remix);
#SUBTITLE:VCP 12 [PAD/KB];
#ARTIST:うたたP feat. 初音ミク;
#TITLETRANSLIT:;
#SUBTITLETRANSLIT:;
#ARTISTTRANSLIT:;
#CREDIT:owenviau1;
#BANNER:BG.PNG;
#BACKGROUND:BG.PNG;
#LYRICSPATH:;
#CDTITLE:ov1_title.png;
#MUSIC:Hatsune Miku - Destiny Vector (Remix).mp3;
#OFFSET:-0.680;
#SAMPLESTART:70.692;
#SAMPLELENGTH:29.999;
#SELECTABLE:YES;
#DISPLAYBPM:172.000;
#BPMS:0.000=171.690,72.000=171.670,200.000=171.650,328.000=171.630;
#STOPS:;
#BGCHANGES:;
// cache tags:
#FIRSTBEAT:0.000;
#LASTBEAT:952.000;
#SONGFILENAME:Songs/Owenviau1 Simfiles 4/Hatsune Miku - Destiny Vector (Remix) [owenviau1]/Hatsune Miku - Destiny Vector (Remix).sm;
#HASMUSIC:1;
#HASBANNER:1;
#MUSICLENGTH:340.297;
// end cache tags

//---------------dance-single - ----------------
#NOTES:
     dance-single:
     :
     Challenge:
     12:
     1.000,1.000,0.911,1.000,1.000,2935.000,310.000,352.000,0.000,116.000:
1001
0000
0100
0010
0001
0000
1000
0000
0011
0000
1000
0000
0110
0000
1000
0000
,
0101
0000
0010
0100
1000
0000
0001
0000
1100
0000
0010
0000
1001
0000
0010
0100
,
1000
0001
0100
0010
1001
0000
0100
0000
0011
0000
0100
0000
1010
0000
0001
0000
,
0110
0000
1000
0001
0100
0000
0010
0000
0101
0000
0010
0000
1001
0000
0010
0001
,
1000
0010
0100
0001
1010
0000
1000
0000
0011
0000
0100
0000
1001
0000
0010
0000
,
0101
0000
0010
0100
1000
0000
0001
0000
0110
0000
1000
0000
1010
0000
0100
0010
,
0001
1000
0001
0010
0100
0000
1000
0000
1010
0000
0100
0000
0011
0000
0100
0000
,
2002
0000
0000
0000
,
3103
0010
0001
1000
0001
0100
0010
1000
0100
1000
0010
0100
0001
0010
0001
0100
,
0010
1000
0100
0010
0001
0010
0100
1000
0001
0100
0001
1000
0010
1000
0100
0010
,
0001
0100
0010
1000
0001
1000
0010
0100
0001
0010
0100
1000
0001
0010
0100
1000
,
0001
0100
0010
1000
0100
1000
0010
0100
0001
0010
0001
0100
0010
1000
0100
0010
,
0001
0010
0100
1000
0010
1000
0001
0100
0001
1000
0010
1000
0001
0100
0001
0010
,
0100
1000
0010
0100
0001
1000
0010
1000
0001
0100
0001
1000
0010
1000
0001
0010
,
0100
1000
0001
0100
0010
1000
0001
0100
0001
0010
0100
1000
0100
0010
0001
0100
,
0001
1000
0010
1000
0100
0010
0001
0100
0010
1000
0001
1000
0010
1000
0001
0100
,
0001
0010
0100
1000
0100
0010
0001
1000
0010
1000
0001
0100
0010
1000
0100
0010
,
0001
0100
0001
0010
0100
1000
0010
0100
0001
1000
0100
0010
0001
1000
0100
0010
,
0001
0010
0100
1000
0010
0100
0001
0010
0001
0100
0010
1000
0100
1000
0010
0100
,
0001
0100
0001
1000
0010
1000
0001
0100
0001
0010
0100
1000
0010
0100
0001
0010
,
0001
0100
0010
1000
0100
1000
0010
0100
0001
0010
0100
1000
0001
0010
0100
1000
,
0010
0100
0001
1000
0010
1000
0001
0100
0001
1000
0100
0010
0001
0100
0010
1000
,
0010
0100
0001
0100
0010
1000
0010
0100
0001
0010
0100
1000
0100
0010
0001
0100
,
0010
1000
0001
0100
0010
1000
0100
0010
0001
0100
0010
1000
0010
0100
0001
0010
,
1001
0010
0100
1000
0010
0100
0001
0010
0001
0100
0010
1000
0100
1000
0010
0100
,
0001
0100
0001
1000
0010
1000
0001
0100
0001
0010
0100
1000
0010
0100
0001
0010
,
0001
0100
0010
1000
0100
1000
0010
0100
0001
0010
0100
1000
0001
0010
0100
1000
,
0010
0100
0001
1000
0010
1000
0001
0100
0001
1000
0100
0010
0001
0100
0010
1000
,
0010
0100
0001
0100
0010
1000
0010
0100
0001
0010
0100
1000
0100
0010
0001
0100
,
0010
1000
0001
0100
0010
1000
0100
0010
0001
0100
0010
1000
0010
0100
0001
0010
,
0100
1000
0001
0100
0010
1000
0100
1000
0010
0100
0001
0010
0001
0100
0001
1000
,
0010
1000
0100
0010
0001
0100
0001
0010
0100
1000
0100
0010
0001
0100
0010
1000
,
0101
0020
1130
0002
0113
0002
1013
2000
,
3110
0002
0013
0200
1301
2000
3110
0002
,
0113
2000
3001
0200
0311
0020
0131
2000
,
3011
0200
1301
0020
1130
0020
1031
0200
,
1301
0020
0131
2000
3011
0200
1310
0002
,
0113
0020
1031
0200
0311
2000
3110
0200
,
1301
0020
0131
2000
3110
0002
1103
0020
,
1031
0200
0311
2000
3101
2000
3110
0002
,
1013
0002
0113
0200
1301
2000
3011
0002
,
0113
0200
1301
0020
0131
0200
1310
0002
,
0113
0200
1301
2000
3011
0002
0113
0020
,
1031
0002
1103
0200
1310
0020
0131
2000
,
3110
0002
1103
0020
0131
0200
0311
2000
,
3110
0002
1103
0020
0131
0200
1310
2000
,
3011
0002
1103
0020
0131
2000
3110
0020
,
1031
0200
1310
0020
0131
0002
1013
0002
,
2003
0002
0000
0000
,
3103
0010
0001
1000
0001
0100
0010
1000
0100
1000
0010
0100
0001
0010
0001
1000
,
0101
0010
0001
1000
0001
0100
0010
1000
0100
1000
0010
0100
0001
0010
0001
0100
,
0010
1000
0100
0010
0001
0010
0100
1000
0001
0100
0001
1000
0010
1000
0100
0010
,
0001
0100
0010
1000
0001
1000
0010
0100
0001
0010
0100
1000
0001
0010
0100
1000
,
0001
0100
0010
1000
0100
1000
0010
0100
0001
0010
0001
0100
0010
1000
0100
0010
,
0001
0010
0100
1000
0010
1000
0001
0100
0001
1000
0010
1000
0001
0100
0001
0010
,
0100
1000
0010
0100
0001
1000
0010
1000
0001
0100
0001
1000
0010
1000
0001
0010
,
0100
1000
0001
0100
0010
1000
0001
0100
0001
0010
0100
1000
0100
0010
0001
0100
,
0001
1000
0010
1000
0100
0010
0001
0100
0010
1000
0001
1000
0010
1000
0001
0100
,
1001
0010
0100
1000
0100
0010
0001
1000
0010
1000
0001
0100
0010
1000
0100
0010
,
0001
0100
0001
0010
0100
1000
0010
0100
0001
1000
0100
0010
0001
1000
0100
0010
,
0001
0010
0100
1000
0010
0100
0001
0010
0001
0100
0010
1000
0100
1000
0010
0100
,
0001
0100
0001
1000
0010
1000
0001
0100
0001
0010
0100
1000
0010
0100
0001
0010
,
0001
0100
0010
1000
0100
1000
0010
0100
0001
0010
0100
1000
0001
0010
0100
1000
,
0010
0100
0001
1000
0010
1000
0001
0100
0001
1000
0100
0010
0001
0100
0010
1000
,
0010
0100
0001
0100
0010
1000
0010
0100
0001
0010
0100
1000
0100
0010
0001
0100
,
0010
1000
0001
0100
0010
1000
0100
0010
0001
0100
0010
1000
0010
0100
0001
0010
,
1001
0100
0001
1000
0001
0100
0010
1000
0100
1000
0010
0100
0001
0010
0001
0100
,
0010
1000
0100
0010
0001
0010
0100
1000
0001
0100
0001
1000
0010
1000
0100
0010
,
0001
0100
0010
1000
0001
1000
0010
0100
0001
0010
0100
1000
0001
0010
0100
1000
,
0001
0100
0010
1000
0100
1000
0010
0100
0001
0010
0001
0100
0010
1000
0100
0010
,
0001
0010
0100
1000
0010
1000
0001
0100
0001
1000
0010
1000
0001
0100
0001
0010
,
0100
1000
0010
0100
0001
1000
0010
1000
0001
0100
0001
1000
0010
1000
0001
0010
,
0100
1000
0001
0100
0010
1000
0001
0100
0001
0010
0100
1000
0100
0010
0001
0100
,
0001
1000
0010
1000
0100
0010
0001
0100
0010
1000
0001
1000
0010
1000
0001
0100
,
0001
0010
0100
1000
0100
0010
0001
1000
0010
1000
0001
0100
0010
1000
0100
0010
,
0001
0100
0001
0010
0100
1000
0010
0100
0001
1000
0100
0010
0001
1000
0100
0010
,
0001
0010
0100
1000
0010
0100
0001
0010
0001
0100
0010
1000
0100
1000
0010
0100
,
0001
0100
0001
1000
0010
1000
0001
0100
0001
0010
0100
1000
0010
0100
0001
0010
,
0001
0100
0010
1000
0100
1000
0010
0100
0001
0010
0100
1000
0001
0010
0100
1000
,
0010
0100
0001
1000
0010
1000
0001
0100
0001
1000
0100
0010
0001
0100
0010
1000
,
0010
0100
0001
0100
0010
1000
0010
0100
0001
0010
0100
1000
0100
0010
0001
0100
,
0010
1000
0001
0100
0010
1000
0100
0010
0001
0100
0010
1000
0010
0100
0001
0010
,
1001
2020
3130
0202
1303
0220
0331
2002
,
3013
0022
0133
0220
1330
2200
3301
2002
,
3013
0220
1330
2002
3013
0022
0133
0220
,
1330
2200
3301
2002
3013
0202
1303
0220
,
0331
2200
3310
2002
3103
0220
1330
2200
,
3301
0022
1033
0220
0331
2002
3013
0202
,
2303
0000
0000
0000
,
3020
0000
0000
0000
,
1031
0100
1010
0100
0110
0001
1001
0010
,
1100
0001
0110
0100
1001
0010
1100
0001
,
0101
1000
0110
0100
1001
0010
1100
0001
,
0110
1000
1001
0010
0011
0100
0110
1000
,
1001
0100
1010
0001
0011
0010
0101
1000
,
1010
0100
0110
0001
1001
0010
1100
1000
,
0110
0001
0101
1000
0110
0010
1001
1000
,
0101
0010
0011
1000
1001
0100
1010
0001
,
1001
0000
0200
0300
0020
0030
0002
0003
0000
0000
0020
0030
0200
0300
2000
3000
,
0000
0000
0002
0003
0200
0300
0020
0030
0000
0000
2000
3000
0002
0003
0020
0030
,
0000
0000
0200
0300
0020
0030
0002
0003
0000
0000
2000
3000
0002
0003
0200
0300
,
0000
0000
0020
0030
2000
3000
0002
0003
0000
0000
2000
3000
0200
0300
0020
0030
,
0000
0000
0200
0300
0020
0030
0002
0003
0000
0000
0002
0003
2000
3000
0002
0003
,
0000
0000
0020
0030
0200
0300
0020
0030
0000
0000
2000
3000
0200
0300
2000
3000
,
0000
0000
0002
0003
0200
0300
0020
0030
0000
0000
2000
3000
0002
0003
0200
0300
,
0000
0000
0020
0030
2000
3000
0002
0003
0000
0000
0002
0003
0020
0030
0200
0300
,
1001
0020
1130
0002
0113
2000
3101
0002
,
0113
0020
1031
0002
0113
2000
3011
0200
,
1310
2000
3011
0002
0113
2000
3101
0020
,
1130
0200
1301
0002
1013
0200
0311
2000
,
3110
0020
1031
0002
0113
2000
3101
0200
,
0311
2000
3110
0200
1301
0020
0131
0020
,
1031
0200
0311
0020
1130
0002
1013
0200
,
1300
0100
0010
0001
1000
0010
0100
0001
0010
0001
0100
0010
1000
0100
1000
0010
,
0100
0001
0010
0100
1000
0100
0010
0001
1000
0010
1000
0100
0010
0001
0100
0010
,
1001
0100
0001
1000
0001
0100
0010
1000
0100
1000
0010
0100
0001
0010
0001
1000
,
0100
0010
0001
1000
0001
0100
0010
1000
0100
1000
0010
0100
0001
0010
0001
0100
,
0010
1000
0100
0010
0001
0010
0100
1000
0001
0100
0001
1000
0010
1000
0100
0010
,
0001
0100
0010
1000
0001
1000
0010
0100
0001
0010
0100
1000
0001
0010
0100
1000
,
0001
0100
0010
1000
0100
1000
0010
0100
0001
0010
0001
0100
0010
1000
0100
0010
,
0001
0010
0100
1000
0010
1000
0001
0100
0001
1000
0010
1000
0001
0100
0001
0010
,
0100
1000
0010
0100
0001
1000
0010
1000
0001
0100
0001
1000
0010
1000
0001
0010
,
0100
1000
0001
0100
0010
1000
0001
0100
0001
0010
0100
1000
0100
0010
0001
0100
,
1001
1000
0010
1000
0100
0010
0001
0100
0010
1000
0001
1000
0010
1000
0001
0100
,
0001
0010
0100
1000
0100
0010
0001
1000
0010
1000
0001
0100
0010
1000
0100
0010
,
0001
0100
0001
0010
0100
1000
0010
0100
0001
1000
0100
0010
0001
1000
0100
0010
,
0001
0010
0100
1000
0010
0100
0001
0010
0001
0100
0010
1000
0100
1000
0010
0100
,
0001
0100
0001
1000
0010
1000
0001
0100
0001
0010
0100
1000
0010
0100
0001
0010
,
0001
0100
0010
1000
0100
1000
0010
0100
0001
0010
0100
1000
0001
0010
0100
1000
,
0010
0100
0001
1000
0010
1000
0001
0100
0001
1000
0100
0010
0001
0100
0010
1000
,
0010
0100
0001
0100
0010
1000
0010
0100
0001
0010
0100
1000
0100
0010
0001
0100
,
1001
0100
0001
1000
0001
0100
0010
1000
0100
1000
0010
0100
0001
0010
0001
0100
,
0010
1000
0100
0010
0001
0010
0100
1000
0001
0100
0001
1000
0010
1000
0100
0010
,
0001
0100
0010
1000
0001
1000
0010
0100
0001
0010
0100
1000
0001
0010
0100
1000
,
0001
0100
0010
1000
0100
1000
0010
0100
0001
0010
0001
0100
0010
1000
0100
0010
,
0001
0010
0100
1000
0010
1000
0001
0100
0001
1000
0010
1000
0001
0100
0001
0010
,
0100
1000
0010
0100
0001
1000
0010
1000
0001
0100
0001
1000
0010
1000
0001
0010
,
0100
1000
0001
0100
0010
1000
0001
0100
0001
0010
0100
1000
0100
0010
0001
0100
,
0001
1000
0010
1000
0100
0010
0001
0100
0010
1000
0001
1000
0010
1000
0001
0100
,
0001
0010
0100
1000
0100
0010
0001
1000
0010
1000
0001
0100
0010
1000
0100
0010
,
0001
0100
0001
0010
0100
1000
0010
0100
0001
1000
0100
0010
0001
1000
0100
0010
,
0001
0010
0100
1000
0010
0100
0001
0010
0001
0100
0010
1000
0100
1000
0010
0100
,
0001
0100
0001
1000
0010
1000
0001
0100
0001
0010
0100
1000
0010
0100
0001
0010
,
0001
0100
0010
1000
0100
1000
0010
0100
0001
0010
0100
1000
0001
0010
0100
1000
,
0010
0100
0001
1000
0010
1000
0001
0100
0001
1000
0100
0010
0001
0100
0010
1000
,
0010
0100
0001
0100
0010
1000
0010
0100
0001
0010
0100
1000
0100
0010
0001
0100
,
0010
1000
0001
0100
0010
1000
0100
0010
0001
0100
0010
1000
0010
0100
0001
0010
,
1001
0100
0001
1000
0001
0100
0010
1000
0100
1000
0010
0100
0001
0010
0001
0100
,
0010
1000
0100
0010
0001
0010
0100
1000
0001
0100
0001
1000
0010
1000
0100
0010
,
0001
0100
0010
1000
0001
1000
0010
0100
0001
0010
0100
1000
0001
0010
0100
1000
,
0001
0100
0010
1000
0100
1000
0010
0100
0001
0010
0001
0100
0010
1000
0100
0010
,
0001
0010
0100
1000
0010
1000
0001
0100
0001
1000
0010
1000
0001
0100
0001
0010
,
0100
1000
0010
0100
0001
1000
0010
1000
0001
0100
0001
1000
0010
1000
0001
0010
,
0100
1000
0001
0100
0010
1000
0001
0100
0001
0010
0100
1000
0100
0010
0001
0100
,
0001
1000
0010
1000
0100
0010
0001
0100
0010
1000
0001
1000
0010
1000
0001
0100
,
0001
0010
0100
1000
0100
0010
0001
1000
0010
1000
0001
0100
0010
1000
0100
0010
,
0001
0100
0001
0010
0100
1000
0010
0100
0001
1000
0100
0010
0001
1000
0100
0010
,
0001
0010
0100
1000
0010
0100
0001
0010
0001
0100
0010
1000
0100
1000
0010
0100
,
0001
0100
0001
1000
0010
1000
0001
0100
0001
0010
0100
1000
0010
0100
0001
0010
,
0001
0100
0010
1000
0100
1000
0010
0100
0001
0010
0100
1000
0001
0010
0100
1000
,
0010
0100
0001
1000
0010
1000
0001
0100
0001
1000
0100
0010
0001
0100
0010
1000
,
0010
0100
0001
0100
0010
1000
0010
0100
0001
0010
0100
1000
0100
0010
0001
0100
,
0010
1000
0001
0100
0010
1000
0100
0010
0001
0100
0010
1000
0010
0100
0001
0010
,
2001
0000
0002
0000
,
0000
0000
0000
0000
0000
0000
0000
0000
0000
0000
0000
0000
3203
0300
0020
0030
,
0000
0000
0000
0000
2000
3000
0002
0003
0000
0000
0000
0000
0020
0030
0200
0300
,
0000
0000
0000
0000
0000
0000
2020
3030
0000
0000
0000
0000
0202
0303
0000
0000
,
2002
0000
3003
0000
0000
0000
0000
0000
0000
0000
0000
0000
0000
0000
0000
0000
0220
0330
0000
0000
0000
0000
0000
0000
2020
0000
3030
0000
2200
0000
0000
0000
,
3300
0000
0000
0000
0000
0000
2002
3003
0000
0000
0000
0000
0220
0330
0000
0000
,
2000
3200
0320
0032
0003
0000
0000
0000
0000
0000
0000
0000
2020
0000
3030
0000
0000
0000
0000
0000
0000
0000
0000
0000
0220
0000
0330
0000
2002
0000
3003
0000
,
0000
0000
0000
0000
0000
0000
0202
0303
0000
0000
0000
0000
0220
0330
0000
0000
,
2020
3030
0200
0300
0220
0330
0002
0003
2002
3003
0020
0030
2200
3300
0002
0003
,
0220
0330
0002
0003
0202
0303
0020
0030
2002
3003
0200
0300
0220
0330
0002
0003
,
2020
3030
0100
0000
0010
0000
2002
3003
0010
0000
0100
0000
2002
3003
0001
0000
,
0220
0330
1000
0000
0001
0000
2000
3200
0320
0032
0103
0000
2020
3030
0001
0000
,
0220
0330
0000
0000
2020
3030
2200
3300
0010
0000
0100
0000
2002
3003
0220
0330
,
1000
0000
0100
0000
0022
0033
0220
0330
0001
0000
1000
0000
0022
0033
2200
3300
,
0001
0000
0100
0000
0022
0033
2002
3003
0100
0000
0010
0000
0001
0000
1000
0100
,
0010
0001
1000
0000
0100
0000
2002
3003
0010
0000
1000
0000
0001
0000
0100
0000
,
2020
3030
0001
0000
0010
0000
0100
0000
1000
0000
0010
0000
0202
0303
0220
0330
,
1000
0000
0001
0000
0100
0000
0010
0000
2002
3003
0100
0000
0220
0330
2002
3003
,
0100
0000
0000
0000
0001
0000
0000
0000
2200
3300
0000
0000
0022
0033
0000
0000
0100
0000
0000
0000
0001
0000
0000
0000
2200
0000
3300
0000
2002
0000
3003
0000
,
0010
0000
1000
0000
0220
0330
0202
0303
1000
0000
0001
0000
2200
3300
2020
3030
,
0100
0000
0010
0000
0202
0303
0220
0330
1000
0000
0010
0000
2002
3003
0202
0303
,
1000
0000
0100
0000
0022
0033
0202
0303
1000
0000
0001
0000
0220
0330
2200
3300
,
0001
0000
0100
0000
2020
3030
0022
0033
1000
0000
0001
0000
0220
0330
2002
3003
,
0010
0000
0100
0000
2002
3003
0202
0303
1000
0000
0010
0000
0220
0330
0001
0000
,
1010
0100
0110
0010
1001
0100
0011
1000
,
1100
0001
0011
0100
0101
0010
1100
1000
,
0101
0010
1001
0100
0110
0001
1001
0010
,
0101
0100
1001
1000
0011
0001
1100
0010
,
0110
1000
0101
0010
1010
0001
1100
0010
,
0101
1000
0011
0100
1001
0010
1100
0001
,
0011
1000
0110
0001
1010
0100
0101
0010
,
0011
1000
1001
0100
0110
0001
1100
0010
,
1001
0100
0110
1000
1001
0010
0011
0100
,
0110
0001
1001
0010
0110
1000
0101
0010
,
1010
0001
0110
1000
1001
0100
0011
1000
,
0110
0001
1100
0010
1001
0100
0101
1000
,
0110
0001
1001
0100
1100
0010
0011
1000
,
0101
0010
0110
0001
1001
0010
1100
1000
,
0011
0010
0101
1000
0110
0001
1001
0010
,
1000
0100
0010
0001
0010
0100
1000
0001
0100
0010
1000
0010
0100
0001
0010
0100
,
1001
0100
0001
1000
0001
0100
0010
1000
0100
1000
0010
0100
0001
0010
0001
1000
,
0100
0010
0001
1000
0001
0100
0010
1000
0100
1000
0010
0100
0001
0010
0001
0100
,
0010
1000
0100
0010
0001
0010
0100
1000
0001
0100
0001
1000
0010
1000
0100
0010
,
0001
0100
0010
1000
0001
1000
0010
0100
0001
0010
0100
1000
0001
0010
0100
1000
,
0001
0100
0010
1000
0100
1000
0010
0100
0001
0010
0001
0100
0010
1000
0100
0010
,
0001
0010
0100
1000
0010
1000
0001
0100
0001
1000
0010
1000
0001
0100
0001
0010
,
0100
1000
0010
0100
0001
1000
0010
1000
0001
0100
0001
1000
0010
1000
0001
0010
,
0100
1000
0001
0100
0010
1000
0001
0100
0001
0010
0100
1000
0100
0010
0001
0100
,
1001
1000
0010
1000
0100
0010
0001
0100
0010
1000
0001
1000
0010
1000
0001
0100
,
0001
0010
0100
1000
0100
0010
0001
1000
0010
1000
0001
0100
0010
1000
0100
0010
,
0001
0100
0001
0010
0100
1000
0010
0100
0001
1000
0100
0010
0001
1000
0100
0010
,
0001
0010
0100
1000
0010
0100
0001
0010
0001
0100
0010
1000
0100
1000
0010
0100
,
0001
0100
0001
1000
0010
1000
0001
0100
0001
0010
0100
1000
0010
0100
0001
0010
,
0001
0100
0010
1000
0100
1000
0010
0100
0001
0010
0100
1000
0001
0010
0100
1000
,
0010
0100
0001
1000
0010
1000
0001
0100
0001
1000
0100
0010
0001
0100
0010
1000
,
0010
0100
0001
0100
0010
1000
0010
0100
0001
0010
0100
1000
0100
0010
0001
0100
,
1001
0100
0001
1000
0001
0100
0010
1000
0100
1000
0010
0100
0001
0010
0001
1000
,
0100
0010
0001
1000
0001
0100
0010
1000
0100
1000
0010
0100
0001
0010
0001
0100
,
0010
1000
0100
0010
0001
0010
0100
1000
0001
0100
0001
1000
0010
1000
0100
0010
,
0001
0100
0010
1000
0001
1000
0010
0100
0001
0010
0100
1000
0001
0010
0100
1000
,
0001
0100
0010
1000
0100
1000
0010
0100
0001
0010
0001
0100
0010
1000
0100
0010
,
0001
0010
0100
1000
0010
1000
0001
0100
0001
1000
0010
1000
0001
0100
0001
0010
,
0100
1000
0010
0100
0001
1000
0010
1000
0001
0100
0001
1000
0010
1000
0001
0010
,
0100
1000
0001
0100
0010
1000
0001
0100
0001
0010
0100
1000
0100
0010
0001
0100
,
1001
1000
0010
1000
0100
0010
0001
0100
0010
1000
0001
1000
0010
1000
0001
0100
,
0001
0010
0100
1000
0100
0010
0001
1000
0010
1000
0001
0100
0010
1000
0100
0010
,
0001
0100
0001
0010
0100
1000
0010
0100
0001
1000
0100
0010
0001
1000
0100
0010
,
0001
0010
0100
1000
0010
0100
0001
0010
0001
0100
0010
1000
0100
1000
0010
0100
,
0001
0100
0001
1000
0010
1000
0001
0100
0001
0010
0100
1000
0010
0100
0001
0010
,
0001
0100
0010
1000
0100
1000
0010
0100
0001
0010
0100
1000
0001
0010
0100
1000
,
0010
0100
0001
1000
0010
1000
0001
0100
0001
1000
0100
0010
0001
0100
0010
1000
,
0010
0100
0001
0100
0010
1000
0010
0100
0001
0010
0100
1000
0100
0010
0001
0100
,
4004
0000
0000
0000
,
0000
0000
0000
0000
,
0000
0000
0000
0000
,
3003
0000
0000
0000
;

//---------------dance-single - ----------------
#NOTES:
     dance-single:
     :
     Hard:
     9:
     0.805,0.909,0.118,0.414,0.001,1737.000,40.000,141.000,0.000,2.000:
1000
0100
0010
0001
1000
0010
1000
0100
,
0010
0001
1000
0001
0100
0010
1000
0001
,
0100
0001
0010
0100
1000
0010
1000
0100
,
0010
0001
0100
0010
1000
0001
1000
0100
,
1000
0010
0100
0001
0010
0001
0100
0010
,
1000
0100
0010
0001
1000
0100
0010
0001
,
0100
0010
1000
0001
0100
0001
0010
0100
,
2000
0000
0000
0000
,
3001
0010
0100
1000
0001
0100
0010
1000
,
0100
0010
0001
1000
0010
0100
0001
1000
,
0100
1000
0010
0100
0001
0010
0001
0100
,
0010
1000
0100
0010
0001
0010
0100
1000
,
0001
1000
0010
0100
0001
0010
0100
1000
,
0010
1000
0100
0010
0001
0100
0001
0010
,
0100
1000
0001
0100
0010
1000
0100
0010
,
0001
0100
0010
1000
0001
0100
0001
0010
,
0100
1000
0010
1000
0001
0010
0100
1000
,
0001
1000
0010
1000
0100
0010
0001
1000
,
0010
0100
0001
0010
0001
0100
0010
1000
,
0100
1000
0001
0010
0100
1000
0010
0100
,
0001
1000
0100
0010
0001
0100
0001
0010
,
0100
1000
0010
0100
0001
1000
0100
0010
,
0001
0100
1000
0010
0100
0001
0010
1000
,
0010
0001
1000
0010
0100
0001
1000
0100
,
1001
0010
0100
1000
0001
0100
0010
1000
,
0100
1000
0010
0100
0001
0100
0010
1000
,
0010
0100
0001
0010
0100
1000
0001
0100
,
0010
1000
0100
1000
0010
0100
0001
0100
,
0010
1000
0100
0010
0001
0100
0010
1000
,
0100
0001
0100
1000
0010
0001
0100
0010
,
1000
0001
0010
0100
0001
1000
0010
1000
,
0001
0100
1000
0010
0100
0001
0010
0100
,
1001
0000
0020
0230
0000
2300
0000
3002
,
0000
0000
0000
0023
,
0230
0000
0000
2300
3002
0000
0000
0023
,
0000
0230
2300
0000
3000
0000
0002
0203
,
0320
0000
0000
0000
0030
0000
2000
3200
,
0302
0000
0000
0000
0003
0000
0020
0230
,
2300
0000
0000
3002
0203
0000
0320
2030
,
0000
0002
0000
0000
0000
3003
0020
0000
,
0230
0000
2300
3002
0000
0023
0000
0230
,
0000
0000
0300
2000
,
3002
0000
0000
0023
0230
0000
0000
2300
,
0000
3002
0023
0000
0030
0000
2000
3002
,
0023
0000
0000
0000
0030
0000
2000
3002
,
2003
0000
0000
0000
3000
0000
0020
0230
,
0302
0000
0000
2003
3020
0230
2300
0002
,
0000
0000
0000
3003
,
2000
0020
0000
0000
,
3031
0010
0100
1000
0001
0100
0010
1000
,
0101
0010
0001
1000
0010
0100
0001
1000
,
0100
1000
0010
0100
0001
0010
0001
0100
,
0010
1000
0100
0010
0001
0010
0100
1000
,
0001
1000
0010
0100
0001
0010
0100
1000
,
0010
1000
0100
0010
0001
0100
0001
0010
,
0100
1000
0001
0100
0010
1000
0100
0010
,
0001
0100
0010
1000
0001
0100
0001
0010
,
0100
1000
0010
1000
0001
0010
0100
1000
,
1001
1000
0010
1000
0100
0010
0001
1000
,
0010
0100
0001
0010
0001
0100
0010
1000
,
0100
1000
0001
0010
0100
1000
0010
0100
,
0001
1000
0100
0010
0001
0100
0001
0010
,
0100
1000
0010
0100
0001
1000
0100
0010
,
0001
0100
1000
0010
0100
0001
0010
1000
,
0010
0001
1000
0010
0100
0001
1000
0100
,
0001
0010
0100
1000
0001
0100
0010
1000
,
0110
1000
0010
0100
0001
0100
0010
1000
,
0010
0100
0001
0010
0100
1000
0001
0100
,
0010
1000
0100
1000
0010
0100
0001
0100
,
0010
1000
0100
0010
0001
0100
0010
1000
,
0100
0001
0100
1000
0010
0001
0100
0010
,
1000
0001
0010
0100
0001
1000
0010
1000
,
0001
0100
1000
0010
0100
0001
0010
0100
,
1000
0001
0100
0010
0001
1000
0100
0001
,
1100
0010
0001
1000
0010
0100
0001
1000
,
0100
1000
0010
0100
0001
0010
0001
0100
,
0010
1000
0100
0010
0001
0010
0100
1000
,
0001
1000
0010
0100
0001
0010
0100
1000
,
0010
1000
0100
0010
0001
0100
0001
0010
,
0100
1000
0001
0100
0010
1000
0100
0010
,
0001
0100
0010
1000
0001
0100
0001
0010
,
0100
1000
0010
1000
0001
0010
0100
1000
,
1001
1000
0010
1000
0100
0010
0001
1000
,
0010
0100
0001
0010
0001
0100
0010
1000
,
0100
1000
0001
0010
0100
1000
0010
0100
,
0001
1000
0100
0010
0001
0100
0001
0010
,
0100
1000
0010
0100
0001
1000
0100
0010
,
0001
0100
1000
0010
0100
0001
0010
1000
,
0010
0001
1000
0010
0100
0001
1000
0100
,
0001
0010
0100
1000
0001
0100
0010
1000
,
0110
1000
0010
0100
0001
0100
0010
1000
,
0010
0100
0001
0010
0100
1000
0001
0100
,
0010
1000
0100
1000
0010
0100
0001
0100
,
0010
1000
0100
0010
0001
0100
0010
1000
,
0100
0001
0100
1000
0010
0001
0100
0010
,
1000
0001
0010
0100
0001
1000
0010
1000
,
0001
0100
1000
0010
0100
0001
0010
0100
,
1000
0001
0100
0010
0001
1000
0100
0010
,
1001
0000
0200
0300
0020
0030
0002
0003
0000
0000
0020
0030
0200
0300
2000
3000
,
0000
0000
0002
0003
0200
0300
0020
0030
0000
0000
2000
3000
0002
0003
0020
0030
,
0000
0000
0200
0300
0020
0030
0002
0003
0000
0000
2000
3000
0002
0003
0200
0300
,
0000
0000
0020
0030
2000
3000
0002
0003
0000
0000
2000
3000
0200
0300
0020
0030
,
0000
0000
0200
0300
0020
0030
0002
0003
0000
0000
0002
0003
2000
3000
0002
0003
,
0000
0000
0020
0030
0200
0300
0020
0030
0000
0000
2000
3000
0200
0300
2000
3000
,
0000
0000
0002
0003
0200
0300
0020
0030
0000
0000
2000
3000
0002
0003
0200
0300
,
0000
0000
0020
0030
2000
3000
0002
0003
0000
0000
0002
0003
0020
0030
0200
0300
,
1001
0010
0100
1000
0001
0100
0010
1000
,
0100
1000
0010
0100
0001
0100
0010
1000
,
0100
0010
0001
0100
0010
1000
0100
0001
,
0100
1000
0010
0001
0010
1000
0100
0001
,
1000
0100
1000
0100
0001
0010
1000
0100
,
0010
0001
0100
0010
1000
0100
1000
0010
,
0100
0001
0100
0010
1000
0100
0010
0001
,
0010
0100
1000
0001
0100
0010
1000
0100
,
1010
0001
0010
0100
1000
0010
0100
0001
,
1100
0010
0001
1000
0010
0100
0001
1000
,
0100
1000
0010
0100
0001
0010
0001
0100
,
0010
1000
0100
0010
0001
0010
0100
1000
,
0001
1000
0010
0100
0001
0010
0100
1000
,
0010
1000
0100
0010
0001
0100
0001
0010
,
0100
1000
0001
0100
0010
1000
0100
0010
,
0001
0100
0010
1000
0001
0100
0001
0010
,
0100
1000
0010
1000
0001
0010
0100
1000
,
1001
1000
0010
1000
0100
0010
0001
1000
,
0010
0100
0001
0010
0001
0100
0010
1000
,
0100
1000
0001
0010
0100
1000
0010
0100
,
0001
1000
0100
0010
0001
0100
0001
0010
,
0100
1000
0010
0100
0001
1000
0100
0010
,
0001
0100
1000
0010
0100
0001
0010
1000
,
0010
0001
1000
0010
0100
0001
1000
0100
,
0001
0010
0100
1000
0001
0100
0010
1000
,
0110
1000
0010
0100
0001
0100
0010
1000
,
0010
0100
0001
0010
0100
1000
0001
0100
,
0010
1000
0100
1000
0010
0100
0001
0100
,
0010
1000
0100
0010
0001
0100
0010
1000
,
0100
0001
0100
1000
0010
0001
0100
0010
,
1000
0001
0010
0100
0001
1000
0010
1000
,
0001
0100
1000
0010
0100
0001
0010
0100
,
1000
0001
0100
0010
0001
1000
0100
0001
,
1100
0010
0001
1000
0010
0100
0001
1000
,
0100
1000
0010
0100
0001
0010
0001
0100
,
0010
1000
0100
0010
0001
0010
0100
1000
,
0001
1000
0010
0100
0001
0010
0100
1000
,
0010
1000
0100
0010
0001
0100
0001
0010
,
0100
1000
0001
0100
0010
1000
0100
0010
,
0001
0100
0010
1000
0001
0100
0001
0010
,
0100
1000
0010
1000
0001
0010
0100
1000
,
1001
1000
0010
1000
0100
0010
0001
1000
,
0010
0100
0001
0010
0001
0100
0010
1000
,
0100
1000
0001
0010
0100
1000
0010
0100
,
0001
1000
0100
0010
0001
0100
0001
0010
,
0100
1000
0010
0100
0001
1000
0100
0010
,
0001
0100
1000
0010
0100
0001
0010
1000
,
0010
0001
1000
0010
0100
0001
1000
0100
,
0001
0010
0100
1000
0001
0100
0010
1000
,
0110
1000
0010
0100
0001
0100
0010
1000
,
0010
0100
0001
0010
0100
1000
0001
0100
,
0010
1000
0100
1000
0010
0100
0001
0100
,
0010
1000
0100
0010
0001
0100
0010
1000
,
0100
0001
0100
1000
0010
0001
0100
0010
,
1000
0001
0010
0100
0001
1000
0010
1000
,
0001
0100
1000
0010
0100
0001
0010
0100
,
1000
0001
0100
0010
0001
1000
0100
0010
,
2001
0000
0002
0000
,
0000
0000
0000
0000
0000
0000
0000
0000
0000
0000
0000
0000
3203
0300
0020
0030
,
0000
0000
0000
0000
2000
3000
0002
0003
0000
0000
0000
0000
0020
0030
0200
0300
,
0000
0000
0000
0000
0000
0000
2020
3030
0000
0000
0000
0000
0202
0303
0000
0000
,
2002
0000
3003
0000
0000
0000
0000
0000
0000
0000
0000
0000
0000
0000
0000
0000
0220
0330
0000
0000
0000
0000
0000
0000
2020
0000
3030
0000
2200
0000
0000
0000
,
3300
0000
0000
0000
0000
0000
0000
0000
0000
0000
0000
0000
0000
0000
0000
0000
0000
0000
2002
0000
0000
3003
0000
0000
0000
0000
0000
0000
0000
0000
0000
0000
0000
0000
0000
0000
0220
0000
0000
0330
0000
0000
0000
0000
0000
0000
2000
0000
,
0002
0000
3003
0000
0000
0000
2020
3030
0000
0000
0000
0000
0220
0330
2002
3003
,
0000
0000
0000
0000
0000
0000
0202
0303
0000
0000
0000
0000
0220
0330
0000
0000
,
1001
0100
0010
0001
0010
0100
1000
0100
,
0010
0001
1000
0010
1000
0001
0100
0010
,
1000
0100
0010
0001
0100
0010
1000
0100
,
0001
0100
1000
0010
0001
0010
0100
0001
,
1000
0100
0010
0001
1000
0100
0010
1000
,
0001
0100
0010
1000
0001
0100
0001
0010
,
0100
1000
0010
1000
0100
0010
0001
1000
,
0100
1000
0010
0100
0001
0010
0001
0100
,
1001
0001
1000
0010
1000
0001
0100
0010
,
1000
0100
0010
0001
0100
0010
0100
1000
,
0001
0100
0010
1000
0100
0010
0001
1000
,
0100
0001
0010
1000
0100
0001
0010
0100
,
0001
1000
0010
0100
0001
0010
0001
0100
,
0010
1000
0100
0010
0001
1000
0001
0010
,
0100
0001
1000
0010
0100
0001
1000
0010
,
1000
0001
0100
0001
0010
0100
1000
0100
,
0011
0100
1000
0001
0100
0010
1000
0001
,
0100
0010
1000
0100
0010
0001
0100
0001
,
0010
0100
0001
1000
0010
1000
0100
0010
,
0001
0100
0010
1000
0001
0100
0010
1000
,
0100
0010
0001
0100
0010
1000
0100
0010
,
1000
0001
0100
0010
0100
0001
0100
1000
,
0010
0100
0010
1000
0100
0010
0001
0100
,
0010
1000
0001
0100
0001
0010
0100
0010
,
1001
1000
0001
0100
0010
1000
0100
0010
,
0001
0100
0010
0100
0001
0010
0100
1000
,
0001
0100
0010
1000
0100
0010
1000
0001
,
0100
0010
1000
0001
0100
0001
0010
0100
,
1000
0010
1000
0100
0010
0001
0100
0010
,
0100
0001
0010
0100
1000
0100
0010
0001
,
1000
0010
1000
0100
0010
0001
0010
0100
,
1000
0010
0100
0001
1000
0100
0010
0001
,
0110
1000
0010
0100
0001
0100
0010
1000
,
0010
0100
0001
0010
0100
1000
0001
0100
,
0010
1000
0100
1000
0010
0100
0001
0100
,
0010
1000
0100
0010
0001
0100
0010
1000
,
0100
0001
0100
1000
0010
0001
0100
0010
,
1000
0001
0010
0100
0001
1000
0010
1000
,
0001
0100
1000
0010
0100
0001
0010
0100
,
1000
0001
0100
0010
0001
1000
0100
0010
,
0101
1000
0010
0100
0001
0100
0010
1000
,
0010
0100
0001
0010
0100
1000
0001
0100
,
0010
1000
0100
1000
0010
0100
0001
0100
,
0010
1000
0100
0010
0001
0100
0010
1000
,
0100
0001
0100
1000
0010
0001
0100
0010
,
1000
0001
0010
0100
0001
1000
0010
1000
,
0001
0100
1000
0010
0100
0001
0010
0100
,
1000
0001
0100
0010
0001
1000
0100
0010
,
1010
0001
0010
1000
0001
0100
0010
1000
,
0010
0100
0001
0010
0100
1000
0001
0100
,
0010
1000
0100
1000
0010
0100
0001
0100
,
0010
1000
0100
0010
0001
0100
0010
1000
,
0100
0001
0100
1000
0010
0001
0100
0010
,
1000
0001
0010
0100
0001
1000
0010
1000
,
0001
0100
1000
0010
0100
0001
0010
0100
,
1000
0001
0100
0010
0001
1000
0100
0010
,
0101
1000
0010
0100
0001
0100
0010
1000
,
0010
0100
0001
0010
0100
1000
0001
0100
,
0010
1000
0100
1000
0010
0100
0001
0100
,
0010
1000
0100
0010
0001
0100
0010
1000
,
0100
0001
0100
1000
0010
0001
0100
0010
,
1000
0001
0010
0100
0001
1000
0010
1000
,
0001
0100
1000
0010
0100
0001
0010
0100
,
1000
0001
0100
0010
0001
1000
0100
0010
,
2002
0000
0000
0000
,
0000
0000
0000
0000
,
0000
0000
0000
0000
,
3003
0000
0000
0000
;
