#TITLE:Sayonara Planet Wars;
#SUBTITLE:;
#ARTIST:黒魔;
#TITLETRANSLIT:;
#SUBTITLETRANSLIT:;
#ARTISTTRANSLIT:;
#CREDIT:;
#BANNER:../Banner.png;
#BACKGROUND:../BG.PNG;
#LYRICSPATH:;
#CDTITLE:../CDTitleRP.png;
#MUSIC:Sayonara Planet Wars.ogg;
#OFFSET:-0.638;
#SAMPLESTART:49.789;
#SAMPLELENGTH:12.991;
#SELECTABLE:YES;
#BPMS:0.000=224.000;
#STOPS:;
#BGCHANGES:;
// cache tags:
#FIRSTBEAT:2.000;
#LASTBEAT:444.000;
#SONGFILENAME:Songs/Index Fusion/Sayonara Planet Wars - [rparty]/Sayonara Planet Wars.sm;
#HASMUSIC:1;
#HASBANNER:1;
#MUSICLENGTH:120.581;
// end cache tags

//---------------dance-single - ----------------
#NOTES:
     dance-single:
     :
     Challenge:
     19:
     1.000,1.000,0.041,0.448,1.000,1549.000,5.000,54.000,0.000,0.000:
0000
0000
0000
0000
0000
0000
0000
0000
2000
0000
0000
0000
3200
0000
1000
0001
,
0320
0000
0000
0000
0030
0000
0001
1000
0010
0000
0200
0000
0001
0000
2300
0000
,
0000
0000
0000
0001
0000
0001
3010
0100
,
2000
0000
0000
0000
3001
0100
0001
0000
1000
0000
0010
0000
0100
0000
0001
0000
,
0010
0000
0100
0000
1000
0100
0010
0001
1000
0100
0010
0001
1000
0001
0100
0010
,
2000
0000
0000
0000
0000
0000
3001
0100
0010
0000
1000
0000
0002
0000
2000
0000
,
0000
3003
0000
0100
0000
0100
0010
0001
,
2000
3010
0100
0002
1003
0020
0230
0302
,
0000
0000
0000
0000
1003
0001
1000
0001
0010
0100
1000
0100
0010
0001
1000
0001
,
0100
0010
1000
0100
0010
0001
0100
0001
0100
0010
1000
0100
1000
0001
0100
0010
,
1000
0100
0010
0100
1000
0001
0010
0100
0010
0001
1000
0010
0100
0001
0010
0100
,
1000
0100
0010
0001
0100
0010
0100
0001
0010
0001
1000
0010
1000
0001
0010
0100
,
1000
0010
0100
0001
1000
0100
0010
0001
0010
0100
1000
0010
0100
0001
1000
0100
,
1000
0010
0100
0010
0100
0001
1000
0100
1000
0001
0010
0001
1000
0010
0100
0001
,
0010
0100
1000
0100
0010
0001
1000
0001
0100
0010
1000
0001
0100
0001
1000
0010
,
0100
0001
0100
0010
1000
0010
0100
0001
1000
0001
0100
0001
0100
0010
1000
0100
,
1000
0010
0100
0010
0100
0001
0010
0100
1000
0100
0010
0001
2000
0000
3000
0000
,
1000
0100
0010
0001
1000
0001
0100
0000
0100
0000
0100
0000
,
0001
0010
0100
1000
0100
0010
0001
0100
0010
1000
0010
0100
0001
0010
0100
1000
,
0100
0010
0001
0100
0010
0100
0001
1000
0100
1000
0010
0100
0010
1000
0100
0010
,
0001
0010
0100
1000
0001
0100
0010
1000
0100
0010
0001
0010
0100
1000
0001
0100
,
0010
1000
0100
0010
0001
0010
0100
1000
0001
0010
0100
1000
0100
0010
0001
1000
,
0001
0100
0010
1000
0100
1000
0010
0100
0001
0010
0100
1000
0001
0100
0010
1000
,
0100
0010
0001
0100
0010
1000
0010
0100
0001
1000
0100
0010
0001
0010
0100
1000
,
0100
0010
0001
0010
0001
0100
0010
1000
0100
1000
0010
0100
0001
0100
0010
1000
,
0100
1000
0010
0100
0001
0010
0001
0010
0100
0000
0000
1000
0000
0000
0001
0000
,
1000
0100
0010
0001
0010
0100
1000
0001
0100
0001
0100
0010
1000
0100
1000
0010
,
0100
0001
0010
0100
1000
0100
0010
0001
1000
0100
0010
0001
0010
0100
1000
0100
,
0010
0001
0100
0001
0010
0100
1000
0010
0100
0010
1000
0001
0010
0001
0100
0010
,
1000
0100
0010
0001
0010
0100
1000
0001
0100
0001
1000
0100
1000
0010
0100
0001
,
0010
0100
1000
0100
0010
0001
1000
0010
0100
0001
0100
0010
1000
0001
0010
0100
,
1000
0100
0010
0001
1000
0010
0100
0001
0010
0100
1000
0100
0010
0001
1000
0001
,
0100
0001
0010
0100
1000
0010
0100
0001
0100
0001
1000
0010
0100
0010
1000
0001
,
1000
0010
0100
0001
0010
0100
1000
0001
0020
0000
0000
0000
0000
0000
0000
0000
,
0031
0010
0100
1000
0100
0010
0001
0100
0010
0100
0001
1000
0010
1000
0001
0010
,
0100
1000
0100
0010
0001
0100
0001
1000
0010
0100
0001
0010
0001
0100
0010
1000
,
0100
1000
0010
0100
0010
1000
0001
0100
0010
0100
0001
0010
0100
1000
0100
0010
,
0001
1000
0010
0100
0001
0100
0001
0010
0100
1000
0001
0100
0001
1000
0010
0100
,
0010
1000
0100
1000
0010
0100
0001
0010
0001
0010
0001
0100
0010
1000
0100
1000
,
0001
0010
0100
1000
0100
0010
0001
1000
0010
0100
0001
0010
0100
1000
0100
0010
,
0001
1000
0001
0100
0001
1000
0010
0100
0001
0010
0100
1000
0100
0010
0001
1000
,
0100
1000
0010
0100
0001
0010
0001
0100
0010
1000
0100
1000
0010
0100
0001
0010
,
0100
1000
0100
0010
0001
1000
0100
1000
0001
0010
0001
0100
0010
0100
0001
1000
,
0001
0100
0010
0100
0001
0010
0100
1000
0100
0010
0001
1000
0100
1000
0001
0010
,
0001
0100
0010
1000
0010
0100
0001
0010
0100
1000
0100
0010
0001
1000
0010
0100
,
0001
1000
0010
0100
0010
1000
0100
0010
0001
1000
0001
0000
0000
0000
2002
0000
,
3003
0000
1000
0100
0010
0100
0010
0001
0010
0100
0010
0100
1000
0100
0010
0100
,
0010
0001
0010
0100
1000
0100
0010
0001
0010
0100
1000
0000
0000
0000
0220
0000
,
0330
0000
0010
0001
0100
0010
1000
0100
1000
0010
0100
0001
0010
0001
1000
0010
,
0100
0001
0100
0010
1000
0001
0010
0001
0100
0010
1000
0000
0000
0000
2200
0000
,
3300
0000
0001
0010
0100
1000
0100
0010
0001
0010
0100
1000
0100
0010
0001
0010
,
0100
1000
0100
0010
0001
0010
0100
1000
0100
0010
0001
0000
0000
0000
0022
0000
,
0033
0000
1000
0010
0100
0010
1000
0010
0100
0010
1000
0100
0010
0001
0100
0001
,
0010
0001
0100
0001
0010
0001
0100
0010
0100
0001
1000
0000
0000
0000
2002
0000
,
3003
0000
0001
0010
0100
1000
0010
0100
0001
0100
0010
1000
0001
1000
0100
0010
,
0001
0100
0010
1000
0001
0010
0100
1000
0001
0100
0010
1000
0001
0010
0100
1000
,
0001
0100
0010
1000
0001
0010
0100
1000
0001
0100
0010
1000
0001
0010
0100
1000
,
0001
0100
0010
1000
0001
0010
0100
1000
0001
0100
0010
1000
0001
0010
0100
1000
,
0001
1000
0010
0100
0001
0010
0100
1000
0100
0010
0001
1000
0100
0010
0001
0100
,
0001
0010
0100
1000
0001
0010
0100
1000
0010
0100
0001
1000
0010
0100
0010
1000
,
0001
0010
0100
1000
0100
0010
0001
0100
0010
1000
0001
0100
0010
1000
0001
0100
,
0010
1000
0010
0100
0001
1000
0010
0100
0002
0000
0000
0000
0000
0000
0000
0000
,
0000
0000
2003
3200
,
0320
0001
0130
0001
1000
0010
0200
0302
,
0103
0010
1000
0001
0100
0020
2030
3200
,
0310
0000
0001
0000
0010
0100
1000
0000
1000
0000
0001
0000
0200
0000
0302
0000
,
0013
0200
2300
3020
0230
0301
1000
0100
,
0020
0031
0010
0100
1000
0001
0200
0320
,
0130
0001
1000
0010
0100
0020
2030
3002
,
0023
0130
2000
3200
0310
0002
2003
3002
,
0013
0100
1000
0001
0000
0000
0000
0000
,
1000
0100
0010
0100
1000
0100
1000
0010
0100
0001
0010
0001
0010
0100
1000
0001
,
0100
0010
1000
0001
0010
0100
1000
0010
0100
0001
1000
0100
0010
0001
0010
0100
,
1000
0001
0100
0001
1000
0010
0100
0001
0010
0100
1000
0100
0010
0001
1000
0001
,
0100
0001
0010
0001
0100
0010
1000
0010
0100
0001
0010
0001
0100
0010
1000
0001
,
0010
0001
0100
0001
0010
0001
0100
0010
1000
0001
0100
0001
0010
0100
1000
0100
,
0010
0001
1000
0001
0010
0100
1000
0001
0100
0001
0010
0001
1000
0010
1000
0010
,
0100
0001
0010
0100
1000
0100
0010
0001
1000
0001
0100
0010
1000
0100
0010
0001
,
0010
0100
1000
0001
0100
0010
1000
0001
1000
0000
0001
0000
0010
0000
0100
0000
,
1000
0001
0100
0001
1000
0010
0100
0001
0010
0100
1000
0100
0010
0001
0100
0001
,
0010
0100
1000
0010
1000
0100
0010
0001
1000
0010
0100
0001
1000
0100
0010
0001
,
0010
0100
1000
0100
0010
0001
0100
0010
1000
0100
0010
0001
0100
0010
1000
0010
,
0100
0001
1000
0010
0100
0001
0010
0100
1000
0100
0010
0001
1000
0010
0100
0001
,
1000
0010
0100
0001
1000
0100
0010
0001
0010
0100
1000
0001
0100
0010
1000
0100
,
1000
0010
0100
0001
0010
0001
0100
0010
1000
0100
0010
0001
0100
0010
1000
0001
,
0100
0001
1000
0100
1000
0001
0010
0001
1000
0010
1000
0001
0010
0100
1000
0100
,
0010
0001
1000
0001
0100
0010
1000
0100
0010
0001
0010
0100
1000
0001
0100
0010
,
1000
0010
0100
0001
0100
0010
1000
0001
0100
0010
1000
0100
0010
0001
0010
0100
,
1000
0001
0100
0010
0100
0001
1000
0010
0100
0010
1000
0001
0100
0010
1000
0001
,
0010
0100
0010
0001
1000
0100
0010
0100
1000
0001
0100
0001
1000
0010
0100
0001
,
0010
0100
1000
0100
0010
0001
1000
0001
0100
0001
1000
0010
1000
0010
0100
0001
,
1000
0010
0100
0001
1000
0100
0010
0001
0010
0100
1000
0010
0100
0001
1000
0100
,
0010
0001
1000
0001
0010
0100
1000
0001
0100
0010
1000
0100
0010
0001
0010
0100
,
1000
0010
0100
0001
1000
0100
0010
0001
0010
0001
1000
0100
1000
0100
0010
0001
,
1000
0001
0100
0001
1000
0010
0100
0001
0010
0001
0100
0010
1000
0100
1000
0010
,
0100
0001
0010
0100
0010
0001
1000
0100
0010
0100
0010
0001
1000
0001
0100
0010
,
1000
0001
0010
0100
1000
0100
0010
0001
0100
0001
1000
0010
1000
0010
0100
0001
,
0010
0001
0100
0010
0100
0001
1000
0010
0100
0010
1000
0001
0010
0100
1000
0100
,
0010
0001
1000
0001
0100
0010
1000
0100
0010
0001
0010
0100
1000
0001
0100
0010
,
1000
0100
0010
0001
0010
0100
1000
0001
0100
0001
1000
0010
0100
0001
0010
0100
,
1000
0001
0100
0010
1000
0100
1000
0010
0100
0010
1000
0010
0100
0001
0100
0010
,
1000
0001
0100
0010
0100
0001
0010
0100
1000
0001
0100
0010
1000
0001
0100
0010
,
1000
0100
0010
0001
0010
0100
1000
0001
0100
0010
1000
0100
0010
0001
0010
0001
,
1000
0010
0100
0001
0010
0100
1000
0100
0010
0001
1000
0100
1000
0001
0100
0001
,
0010
0100
1000
0100
0010
0001
0100
0010
1000
0001
0100
0010
1000
0100
0010
0001
,
0100
0010
1000
0001
0010
0100
1000
0100
0010
0001
1000
0010
0100
0001
0010
0100
,
1000
0100
0010
0100
1000
0001
0010
0100
0010
0001
1000
0100
1000
0001
0010
0001
,
0100
0010
1000
0100
1000
0001
0010
0100
1000
0100
0010
0001
1000
0100
1000
0001
,
0010
0001
0100
0010
1000
0001
0010
0100
1000
0100
0010
0001
1000
0010
0100
0001
,
1000
0001
1000
0001
1000
0001
1000
0001
1000
0001
1000
0001
1000
0001
1000
0001
,
1000
0001
1000
0100
0010
0001
0010
0100
2000
0000
0000
0000
0000
0000
0000
0000
,
3000
0000
0000
0000
;
