#TITLE:Timewarp;
#SUBTITLE:;
#ARTIST:Sub Focus;
#TITLETRANSLIT:;
#SUBTITLETRANSLIT:;
#ARTISTTRANSLIT:;
#CREDIT:;
#BANNER:../Banner.png;
#BACKGROUND:bg.png;
#LYRICSPATH:;
#CDTITLE:../CDTitleBobby.png;
#MUSIC:Sub Focus - Timewarp.mp3;
#OFFSET:-0.120;
#SAMPLESTART:34.660;
#SAMPLELENGTH:12.000;
#SELECTABLE:YES;
#BPMS:0.000=173.711;
#STOPS:;
#BGCHANGES:;
// cache tags:
#FIRSTBEAT:1.000;
#LASTBEAT:769.000;
#SONGFILENAME:Songs/Index Fusion - Part 2/Timewarp - [Bobbykaze]/Sub Focus - Timewarp.sm;
#HASMUSIC:1;
#HASBANNER:1;
#MUSICLENGTH:315.036;
// end cache tags

//---------------dance-single - ----------------
#NOTES:
     dance-single:
     :
     Challenge:
     16:
     0.958,1.000,0.016,0.641,1.000,1904.000,5.000,202.000,0.000,0.000:
0000
0000
1000
0100
0010
0001
1000
0010
,
0100
0001
1000
0001
1000
0010
0100
0001
,
0100
0010
1000
0010
1000
0001
0010
0100
,
1000
0001
0100
0001
1000
0010
0100
0001
,
1000
0010
1000
0001
0100
0010
1000
0010
,
0100
0001
1000
0100
0010
0001
1000
0010
,
0100
0001
1000
0001
1000
0010
0100
0001
,
0100
0010
1000
0010
1000
0001
0010
0100
,
1000
0001
0100
0001
1000
0010
0100
0001
,
1000
0010
1000
0001
0100
0010
1000
0010
,
0100
0001
0010
0100
1000
0100
0010
0001
,
1000
0010
0100
0001
1000
0001
1000
0010
,
0100
0001
0100
0010
1000
0010
1000
0001
,
0010
0100
1000
0001
0100
0001
1000
0010
,
0100
0001
1000
0010
1000
0001
0100
0010
,
1000
0010
0100
0001
0100
0001
1000
0010
,
0100
0001
1000
0000
0010
0000
0000
0000
,
0100
0000
0000
0000
0000
0000
1000
0100
0010
0001
0010
0100
,
1000
0001
0100
0000
0000
0000
0010
0000
0000
0000
0000
0000
,
1000
0000
0002
0000
,
0203
0300
0010
0000
,
1000
0000
0000
0000
0000
0000
1000
0001
0100
0001
1000
0001
,
0100
0010
1000
0000
0000
0000
0010
0000
0000
0000
0000
0000
,
0100
0000
2200
3300
,
0022
0033
0100
0000
,
0010
0000
0000
0000
0000
0000
0002
0023
0230
2300
3200
0320
,
0032
2003
3020
0030
0000
0000
0100
0000
0000
0000
0000
0000
,
0001
0000
4000
0000
,
3040
0030
1000
0000
,
0010
0000
0000
0000
0000
0000
0001
1000
0010
1000
0001
1000
,
0010
0100
0001
0000
0000
0000
1000
0000
0000
0000
0000
0000
,
0001
0010
0010
0010
,
0010
0000
0000
0100
0000
0000
2000
0000
0000
0000
0000
3000
,
0001
0010
0100
1000
0001
0100
0010
1000
0001
1000
0100
0010
,
0001
0100
0001
0000
0000
0000
0020
0000
0000
0000
0000
0030
,
0100
0001
1000
0010
0100
0001
0010
0100
1000
0010
1000
0001
,
0100
0010
1000
0000
0000
0000
0200
0000
0000
0000
0000
0300
,
0010
1000
0001
0100
0010
1000
0100
0010
0001
0100
0001
1000
,
0010
0100
0001
0000
0000
0000
0002
0000
0000
0000
0000
0003
,
1000
0100
0010
0001
1000
0010
0100
0001
1000
0001
0010
0100
,
1000
0010
1000
0000
0000
0000
2002
0000
0000
3003
0010
0100
,
0001
1000
0001
0100
0001
0010
0100
1000
0100
0010
0001
0100
,
0010
1000
0001
0100
0001
1000
0010
1000
0100
0010
0001
0100
,
0001
1000
0010
0100
0001
0010
0100
1000
0010
1000
0001
0100
,
0001
1000
0010
0100
0001
1000
0001
1000
0100
1000
0010
0100
,
0001
0010
0001
1000
0100
0010
0001
0100
0010
1000
0001
0100
,
0010
1000
0010
0100
0010
1000
0001
0010
0001
0100
0001
1000
,
0010
0100
0001
1000
0010
1000
0001
0100
0010
1000
0000
1000
,
0010
0000
0000
0000
0001
0010
0100
1000
0010
0100
0010
1000
0010
0100
0001
1000
,
0010
0000
0000
0100
0000
0000
0010
0000
0000
1000
0000
0000
0100
0000
0000
0010
0000
0000
0001
0000
0000
0100
0000
0000
0020
0000
0000
0000
2030
0000
0000
0000
3002
0000
0000
0000
0203
0000
0000
0000
0302
0000
0000
0000
2003
0000
0000
0000
,
3020
0000
0000
0000
0230
0000
0000
0000
0302
0000
0000
0000
1003
0000
0000
0100
0000
0000
0010
0000
0000
0001
0000
0000
0100
0000
0000
0010
0000
0000
0100
0000
0000
0001
0000
0000
1000
0000
0000
0010
0000
0000
0100
0000
0000
0001
0000
0000
,
1000
0100
1000
0001
0100
0010
1000
0010
1000
0100
0010
0001
1000
0010
0100
0001
,
0010
0100
1000
0010
0100
0001
1000
0001
0100
0010
0100
0001
0010
0100
1000
0010
,
0100
0000
0000
0010
0000
0000
1000
0000
0000
0001
0000
0000
1000
0000
0000
0100
0000
0000
0010
0000
0000
0001
0000
0000
0200
0000
0000
0000
0302
0000
0000
0000
2003
0000
0000
0000
3200
0000
0000
0000
0320
0000
0000
0000
0032
0000
0000
0000
,
0203
0000
0000
0000
0320
0000
0000
0000
2030
0000
0000
0000
3001
0000
0000
0100
0000
0000
0010
0000
0000
1000
0000
0000
0002
0000
0000
0000
0000
0000
0000
0000
0000
0000
0000
0000
0000
0000
0000
0000
0000
0000
0000
0000
0000
0000
0000
0000
,
2003
0000
3200
0000
,
0302
0000
0000
0003
1000
0100
0010
0001
0100
0010
0100
0001
1000
0010
1000
0001
,
0100
0000
0000
0010
0000
0000
0100
0000
0000
0001
0000
0000
0010
0000
0000
0100
0000
0000
1000
0000
0000
0010
0000
0000
0200
0000
0000
0000
0302
0000
0000
0000
2003
0000
0000
0000
3020
0000
0000
0000
2030
0000
0000
0000
3002
0000
0000
0000
,
0203
0000
0000
0000
0320
0000
0000
0000
2030
0000
0000
0000
3001
0000
0000
0010
0000
0000
0100
0000
0000
1000
0000
0000
0010
0000
0000
0100
0000
0000
0010
0000
0000
1000
0000
0000
0001
0000
0000
0100
0000
0000
0010
0000
0000
1000
0000
0000
,
0001
0010
0001
1000
0010
0100
0001
0100
0001
0010
0100
1000
0001
0100
0010
1000
,
0100
0010
0001
0100
0010
1000
0001
1000
0010
0100
0010
1000
0100
0010
0001
0100
,
0010
0000
0000
0100
0000
0000
0001
0000
0000
1000
0000
0000
0001
0000
0000
0010
0000
0000
0100
0000
0000
1000
0000
0000
0020
0000
0000
0000
2030
0000
0000
0000
3002
0000
0000
0000
0023
0000
0000
0000
0230
0000
0000
0000
2300
0000
0000
0000
,
3020
0000
0000
0000
0230
0000
0000
0000
0302
0000
0000
0000
1003
0000
0000
0010
0000
0000
0100
0000
0000
0001
0000
0000
2000
0000
0000
0000
0000
0000
0000
0000
0000
0000
0000
0000
0000
0000
0000
0000
0000
0000
0000
0000
0000
0000
0000
0000
,
3020
0000
0230
0000
,
0302
0000
0000
0003
0000
0000
2000
0000
0000
0000
0000
3000
,
0001
0010
0100
1000
0001
0100
0010
1000
0001
1000
0100
0010
,
0001
0100
0001
0000
0000
0000
0020
0000
0000
0000
0000
0030
,
0100
0001
1000
0010
0100
0001
0010
0100
1000
0010
1000
0001
,
0100
0010
1000
0000
0000
0000
0200
0000
0000
0000
0000
0300
,
0010
1000
0001
0100
0010
1000
0100
0010
0001
0100
0001
1000
,
0010
0100
0001
0000
0000
0000
0002
0000
0000
0000
0000
0003
,
2000
0000
3020
0000
,
0230
0000
0000
0300
0000
0000
2002
0000
0000
3003
0100
0010
,
1000
0001
1000
0010
1000
0100
0010
0001
0010
0100
1000
0010
,
0100
0001
1000
0010
1000
0001
0100
0001
0010
0100
1000
0010
,
1000
0001
0100
0010
1000
0100
0010
0001
0100
0001
1000
0010
,
1000
0001
0100
0010
1000
0001
1000
0001
0010
0001
0100
0010
,
1000
0100
1000
0001
0010
0100
1000
0010
0100
0001
1000
0010
,
0100
0001
0100
0010
0100
0001
1000
0100
1000
0010
1000
0001
,
0100
0010
1000
0001
0100
0001
1000
0010
0100
0001
0000
0000
,
0100
0000
0000
0000
0010
1000
0001
0100
0001
1000
0100
0010
0001
0100
0001
1000
,
0100
1000
0001
0100
0010
1000
0001
0100
0002
0013
0200
1300
0002
0103
0020
1030
,
0200
0310
0002
0103
0010
1000
0001
0100
0001
0010
0001
0100
0010
1000
0001
0100
,
0010
0100
0001
1000
0010
0100
0001
1000
0001
0010
0100
1000
0010
0100
0001
1000
,
0100
0010
0001
0100
0001
0100
0010
1000
0001
0010
0001
0100
0010
1000
0001
0100
,
0010
0100
0001
0010
0100
1000
0010
0100
0002
0103
0020
1030
0200
1300
0020
0130
,
0002
0013
0200
1300
0010
0100
0001
1000
0010
0100
0010
1000
0001
0100
0010
1000
,
0001
0010
0001
1000
0010
1000
0001
0100
0001
0010
0100
1000
0010
0100
0001
1000
,
0100
0010
0001
1000
0001
0100
0010
1000
0001
0010
0001
0100
0010
1000
0001
0100
,
0010
0100
0001
0010
0100
1000
0010
0100
0002
1003
0200
1300
0002
0103
0020
1030
,
0002
0103
0020
1030
0100
0010
0001
0100
0010
0100
0001
0010
0100
1000
0010
0100
,
0001
0010
0001
1000
0010
0100
0001
1000
0001
0010
0100
1000
0010
0100
0001
1000
,
0100
0010
0001
0100
0001
0100
0010
1000
0001
0010
0001
0100
0010
1000
0001
0100
,
0010
0100
0001
0010
0100
1000
0010
0100
0002
0103
0020
1030
0200
1300
0020
0130
,
0002
0013
0200
1300
0010
0100
0001
1000
0010
0100
0010
1000
0001
0100
0010
1000
,
0001
0000
0000
0010
0000
0000
0001
0000
0000
1000
0000
0000
0010
0000
0000
1000
0000
0000
0001
0000
0000
0100
0000
0000
0001
0000
0000
0010
0000
0000
0100
0000
0000
1000
0000
0000
0010
0000
0000
0000
0000
0000
0000
0000
1000
0000
0000
0000
,
0000
0000
0000
0002
0000
0203
0310
0010
0010
0010
0010
0010
,
0010
0010
0010
0100
0100
0100
0100
0100
0100
0001
0001
0001
,
1000
1000
1000
0002
0000
2003
3010
0010
0010
0010
0010
0010
,
0010
0010
0010
0100
0100
0100
0100
0100
0100
0001
0001
0001
,
1000
1000
1000
0002
0000
0203
0310
0010
0010
0010
0010
0010
,
0010
0010
0010
0010
0010
0010
0010
0010
0010
0010
0010
0010
,
0100
0100
0100
0002
0000
0003
2000
0000
0000
0000
0000
0000
,
3020
0000
0230
0000
,
0320
1030
0001
0000
,
0100
0000
0000
0000
0000
0000
0001
0010
0100
1000
0100
0010
,
0001
1000
0010
0000
0000
0000
0100
0000
0000
0000
0000
0000
,
0010
0000
0002
0000
,
0203
0300
0010
0000
,
1000
0000
0000
0000
0000
0000
1000
0001
0100
0001
1000
0001
,
0100
0010
1000
0002
0000
0203
0310
0010
0010
0010
0010
0010
,
0010
0010
0010
0100
0001
1000
0010
0100
0100
0100
0100
0100
,
0010
1000
0001
0100
0010
1000
0100
0010
0001
0010
0100
1000
,
0010
0100
0001
1000
0100
0010
0100
1000
0001
0010
0001
0100
,
0010
1000
0001
0010
0100
1000
0010
0100
0001
0010
0001
1000
,
0001
0010
0100
1000
0100
0010
0001
0100
0001
1000
0100
1000
,
0001
0100
0010
1000
0100
0010
0100
1000
0001
0100
0001
1000
,
0010
0100
0001
1000
0100
1000
0001
0100
0001
0100
0010
1000
,
0001
0100
0001
1000
0010
0100
0001
0100
0010
0100
0001
1000
,
0010
1000
0001
0100
0010
1000
0100
0010
0001
0100
0010
1000
,
0001
0010
0100
1000
0100
0010
0001
1000
0010
0100
0001
0100
,
0010
1000
0010
0100
0001
0010
0100
1000
0100
0010
0001
0100
,
0010
1000
0001
0100
0001
1000
0010
1000
0100
0010
0001
0100
,
0001
1000
0010
0100
0001
0010
0100
1000
0010
1000
0001
0100
,
0001
1000
0010
0100
0001
1000
0001
1000
0100
1000
0010
0100
,
0001
0010
0001
1000
0100
0010
0001
0100
0010
1000
0001
0100
,
0010
1000
0010
0100
0010
1000
0001
0010
0001
0100
0001
1000
,
0010
0100
0001
1000
0010
1000
0001
0100
0010
1000
0000
1000
,
0010
0000
0000
0000
1000
0100
0010
0001
0100
0010
0100
0001
0100
0010
1000
0001
,
0100
0000
0000
0010
0000
0000
0100
0000
0000
0001
0000
0000
0010
0000
0000
0100
0000
0000
1000
0000
0000
0010
0000
0000
0200
0000
0000
0000
0302
0000
0000
0000
2003
0000
0000
0000
3020
0000
0000
0000
2030
0000
0000
0000
3002
0000
0000
0000
,
0203
0000
0000
0000
0320
0000
0000
0000
2030
0000
0000
0000
3001
0000
0000
0010
0000
0000
0100
0000
0000
1000
0000
0000
0010
0000
0000
0100
0000
0000
0010
0000
0000
1000
0000
0000
0001
0000
0000
0100
0000
0000
0010
0000
0000
1000
0000
0000
,
0001
0010
0001
1000
0010
0100
0001
0100
0001
0010
0100
1000
0001
0100
0010
1000
,
0100
0010
0001
0100
0010
1000
0001
1000
0010
0100
0010
1000
0100
0010
0001
0100
,
0010
0000
0000
0100
0000
0000
0001
0000
0000
1000
0000
0000
0001
0000
0000
0010
0000
0000
0100
0000
0000
1000
0000
0000
0020
0000
0000
0000
2030
0000
0000
0000
3002
0000
0000
0000
0023
0000
0000
0000
0230
0000
0000
0000
2300
0000
0000
0000
,
3020
0000
0000
0000
0230
0000
0000
0000
0302
0000
0000
0000
1003
0000
0000
0010
0000
0000
0100
0000
0000
0001
0000
0000
2000
0000
0000
0000
0000
0000
0000
0000
0000
0000
0000
0000
0000
0000
0000
0000
0000
0000
0000
0000
0000
0000
0000
0000
,
3002
0000
0023
0000
,
2030
0000
0000
3000
0001
0010
0100
1000
0010
0100
0010
1000
0001
0100
0001
1000
,
0010
0000
0000
0100
0000
0000
0010
0000
0000
1000
0000
0000
0100
0000
0000
0010
0000
0000
0001
0000
0000
0100
0000
0000
0020
0000
0000
0000
2030
0000
0000
0000
3002
0000
0000
0000
0203
0000
0000
0000
0302
0000
0000
0000
2003
0000
0000
0000
,
3020
0000
0000
0000
0230
0000
0000
0000
0302
0000
0000
0000
1003
0000
0000
0100
0000
0000
0010
0000
0000
0001
0000
0000
0100
0000
0000
0010
0000
0000
0100
0000
0000
0001
0000
0000
1000
0000
0000
0010
0000
0000
0100
0000
0000
0001
0000
0000
,
1000
0100
1000
0001
0100
0010
1000
0010
1000
0100
0010
0001
1000
0010
0100
0001
,
0010
0100
1000
0010
0100
0001
1000
0001
0100
0010
0100
0001
0010
0100
1000
0010
,
0100
0000
0000
0010
0000
0000
1000
0000
0000
0001
0000
0000
1000
0000
0000
0100
0000
0000
0010
0000
0000
0001
0000
0000
0200
0000
0000
0000
0302
0000
0000
0000
2003
0000
0000
0000
3200
0000
0000
0000
0320
0000
0000
0000
0032
0000
0000
0000
,
0203
0000
0000
0000
0320
0000
0000
0000
2030
0000
0000
0000
3001
0000
0000
0100
0000
0000
0010
0000
0000
1000
0000
0000
0002
0000
0000
0000
0000
0000
0000
0000
0000
0000
0000
0000
0000
0000
0000
0000
0000
0000
0000
0000
0000
0000
0000
0000
,
0203
0000
0320
0000
,
2030
0000
0000
3000
0000
0000
0002
0000
0000
0000
0000
0003
,
1000
0100
0010
0001
1000
0010
0100
0001
1000
0001
0010
0100
,
1000
0010
1000
0000
0000
0000
0200
0000
0000
0000
0000
0300
,
0010
1000
0001
0100
0010
1000
0100
0010
0001
0100
0001
1000
,
0010
0100
0001
0000
0000
0000
0020
0000
0000
0000
0000
0030
,
0100
0001
1000
0010
0100
0001
0010
0100
1000
0010
1000
0001
,
0100
0010
1000
0000
0000
0000
2000
0000
0000
0000
0000
3000
,
0002
0000
0203
0000
,
0320
0000
0000
0030
0000
0000
2002
0000
0000
3003
0010
0100
,
0001
1000
0001
0100
0001
0010
0100
1000
0100
0010
0001
0100
,
0010
1000
0001
0100
0001
1000
0010
1000
0100
0010
0001
0100
,
0001
1000
0010
0100
0001
0010
0100
1000
0010
1000
0001
0100
,
0001
1000
0010
0100
0001
1000
0001
1000
0100
1000
0010
0100
,
0001
0010
0001
1000
0100
0010
0001
0100
0010
1000
0001
0100
,
0010
1000
0010
0100
0010
1000
0001
0010
0001
0100
0001
1000
,
0010
0100
0001
1000
0010
1000
0001
0100
0010
1000
0000
0000
,
0010
0000
0000
0000
0100
0001
1000
0010
1000
0001
0010
0100
1000
0010
1000
0001
,
0010
0001
1000
0010
0100
0001
1000
0010
2000
3100
0020
0031
2000
3010
0200
0301
,
0020
0130
2000
3010
0100
0001
1000
0010
1000
0100
1000
0010
0100
0001
1000
0010
,
0100
0010
1000
0001
0100
0010
1000
0001
1000
0100
0010
0001
0100
0010
1000
0001
,
0010
0100
1000
0010
1000
0010
0100
0001
1000
0100
1000
0010
0100
0001
1000
0010
,
0100
0010
1000
0100
0010
0001
0100
0010
2000
3010
0200
0301
0020
0031
0200
0310
,
2000
3100
0020
0031
0100
0010
1000
0001
0100
0010
0100
0001
1000
0010
0100
0001
,
1000
0100
1000
0001
0100
0001
1000
0010
1000
0100
0010
0001
0100
0010
1000
0001
,
0010
0100
1000
0001
1000
0010
0100
0001
1000
0100
1000
0010
0100
0001
1000
0010
,
0100
0010
1000
0100
0010
0001
0100
0010
2000
3001
0020
0031
2000
3010
0200
0301
,
2000
3010
0200
0301
0010
0100
1000
0010
0100
0010
1000
0100
0010
0001
0100
0010
,
1000
0100
1000
0001
0100
0010
1000
0001
1000
0100
0010
0001
0100
0010
1000
0001
,
0010
0100
1000
0010
1000
0010
0100
0001
1000
0100
1000
0010
0100
0001
1000
0010
,
0100
0010
1000
0100
0010
0001
0100
0010
2000
3010
0200
0301
0020
0031
0200
0310
,
2000
3100
0020
0031
0100
0010
1000
0001
0100
0010
0100
0001
1000
0010
0100
0001
,
1000
0010
1000
0001
0100
0010
1000
0001
,
1000
0000
0000
0010
0000
0000
0100
0000
0000
0000
0000
0000
2000
0000
0000
0000
0000
0000
0000
0000
0000
0000
3000
0000
,
0001
0010
0100
1000
0010
0100
0001
1000
,
0100
0000
0000
0010
0000
0000
0000
0000
0000
0000
0000
0000
0020
0000
0000
0000
0000
0000
0000
0000
0000
0000
0030
0000
,
0100
0001
1000
0010
1000
0001
0010
0100
,
1000
0000
0000
0010
0000
0000
0000
0000
0000
0000
0000
0000
0200
0000
0000
0000
0000
0000
0000
0000
0000
0000
0300
0000
,
0010
1000
0001
0010
0100
1000
0100
0010
,
0001
0000
0000
0100
0000
0000
0000
0000
0000
0000
0000
0000
0002
0000
0000
0000
0000
0000
0000
0000
0000
0000
0003
0000
,
2000
0000
3020
0000
,
0230
0000
0000
0301
0000
0000
0200
0000
0000
0000
0000
0300
,
0010
1000
0001
0010
0100
1000
0010
0100
,
0001
0100
0010
1000
0001
0100
0001
0100
,
0010
1000
0001
0010
0100
1000
0010
0100
,
0001
0010
0001
0100
0001
1000
0010
0100
,
0001
1000
0010
1000
0001
0100
0010
1000
,
0100
1000
0000
0000
0200
0000
0000
0000
,
0320
0000
2030
0000
,
3002
0003
0000
0000
,
0000
0000
0000
0000
,
0000
0000
0000
0000
,
0000
0000
0000
0000
,
0000
0000
0000
0000
,
0000
0000
0000
0000
,
0000
0000
0000
0000
,
0000
0000
0000
0000
,
0000
0000
0000
0000
,
0000
0000
0000
0000
,
0000
0000
0000
0000
,
0000
0000
0000
0000
,
0000
0000
0000
0000
,
0000
0000
0000
0000
,
0000
0000
0000
0000
,
0000
0000
0000
0000
,
0000
0000
0000
0000
,
0000
0000
0000
0000
,
0000
0000
0000
0000
,
0000
0000
0000
0000
,
0000
0000
0000
0000
,
0000
0000
0000
0000
,
0000
0000
0000
0000
,
0000
0000
0000
0000
,
0000
0000
0000
0000
,
0000
0000
0000
0000
,
0000
0000
0000
0000
,
0000
0000
0000
0000
,
0000
0000
0000
0000
,
0000
0000
0000
0000
,
0000
0000
0000
0000
,
0000
0000
0000
0000
,
0000
0000
0000
0000
,
0000
0000
0000
0000
,
0000
0000
0000
0000
,
0000
0000
0000
0000
;
