#TITLE:Card Captor Sakura;
#SUBTITLE:- Catch You Catch Me [Para Para Mix];
#ARTIST:石田燿子;
#TITLETRANSLIT:;
#SUBTITLETRANSLIT:;
#ARTISTTRANSLIT:Yoko Ishida;
#CREDIT:;
#BANNER:SakuraLogo.png;
#BACKGROUND:SakuraBG.png;
#LYRICSPATH:;
#CDTITLE:;
#MUSIC:paraparacatch.mp3;
#OFFSET:-0.240;
#SAMPLESTART:43.111;
#SAMPLELENGTH:12.000;
#SELECTABLE:YES;
#BPMS:0.000=157.100;
#STOPS:;
#BGCHANGES:;
// cache tags:
#FIRSTBEAT:20.000;
#LASTBEAT:186.500;
#SONGFILENAME:Songs/Anime Songs/catch you catch me para para/paraparacatch.sm;
#HASMUSIC:1;
#HASBANNER:1;
#MUSICLENGTH:78.111;
// end cache tags

//---------------dance-single - ----------------
#NOTES:
     dance-single:
     :
     Challenge:
     8:
     0.488,0.537,0.269,0.320,0.147,221.000,21.000,25.000,0.000,0.000:  // measure 1
0000
0000
0000
0000
,  // measure 2
0000
0000
0000
0000
,  // measure 3
0000
0000
0000
0000
,  // measure 4
0000
0000
0000
0000
,  // measure 5
0000
0000
0000
0000
,  // measure 6
0001
0100
0010
0001
,  // measure 7
2100
0010
0100
3001
,  // measure 8
0001
0010
1000
0100
,  // measure 9
0201
0010
0001
1300
,  // measure 10
0001
0010
1000
0010
,  // measure 11
0021
0100
0001
1030
,  // measure 12
0100
0000
0001
0000
1000
0100
0010
0101
,  // measure 13
0000
0000
1001
0000
0000
0000
0110
0000
0000
0000
1010
0000
0000
0000
0000
0010
,  // measure 14
0001
0000
0010
0000
0100
0000
1000
0000
0010
0000
0100
0000
0001
0000
0000
0010
,  // measure 15
0100
0000
1000
0000
0010
0000
1000
0000
0100
0000
0010
0000
0001
0000
0000
0100
,  // measure 16
0010
0001
0100
0010
0100
0010
0100
0010
,  // measure 17
0210
0000
0000
0000
0301
0000
1000
0000
0000
0000
0000
0100
0010
0000
1000
0000
,  // measure 18
0010
0000
0100
0000
0010
0000
1000
0000
0001
0000
0100
0000
0001
0000
0000
0010
,  // measure 19
0100
0010
0001
0010
0100
1000
0100
0010
,  // measure 20
0002
0000
0000
0023
0000
0130
1000
0100
,  // measure 21
0002
0000
0000
0000
0103
0000
1000
0000
0000
0000
0000
0001
0010
0000
0000
0001
,  // measure 22
0010
0000
0000
0010
0100
0000
0000
0010
0100
0000
0000
1000
0100
0000
0000
1000
,  // measure 23
0100
0000
0000
0100
0001
0000
0000
0100
0001
0000
0000
0000
0200
0000
0000
0000
,  // measure 24
0320
0000
0000
2030
0000
3100
0010
0100
,  // measure 25
0002
2003
3002
2003
,  // measure 26
3100
0010
0001
0000
1000
0010
0100
0000
,  // measure 27
0100
0000
0010
0000
0001
0000
0000
0000
1000
0000
0010
0000
0100
0000
0000
0002
,  // measure 28
2000
0000
0000
0000
,  // measure 29
3003
0000
0000
0000
0000
0000
0000
0000
0000
0000
0000
0100
1000
0000
0000
0100
,  // measure 30
1000
0001
1000
0001
0010
0001
0010
0001
,  // measure 31
0200
0020
0000
0000
0000
0330
0000
0000
,  // measure 32
1000
0010
0001
0000
0001
0010
1000
0000
,  // measure 33
0001
0000
0100
0000
1000
0000
0100
0000
0001
0000
0000
1000
0010
0000
0000
1000
,  // measure 34
0010
0100
0010
0100
0001
0100
0001
0100
,  // measure 35
0002
0000
2000
0000
0000
0000
3003
0000
0000
0000
0000
0000
,  // measure 36
1000
0001
1000
0001
1000
0000
0100
0000
0010
0100
0010
0100
0010
0000
0001
0000
,  // measure 37
0100
0001
0100
0001
0100
0010
2000
0002
,  // measure 38
0000
0000
0000
3003
0000
0000
0000
0110
,  // measure 39
0000
0101
0000
1010
0000
1001
0000
0110
,  // measure 40
0000
0010
0100
0001
,  // measure 41
1020
0100
0001
0130
,  // measure 42
1000
0100
0001
0010
,  // measure 43
0201
0010
1000
0301
,  // measure 44
1001
0010
0100
0001
,  // measure 45
0021
1000
0001
0130
,  // measure 46
0001
0000
0100
0000
0010
0000
0100
0110
,  // measure 47
0000
0101
0000
1010
0000
1001
0000
0000
;
