#TITLE:zelda;
#SUBTITLE:- clock town;
#ARTIST:koji - kondo;
#TITLETRANSLIT:;
#SUBTITLETRANSLIT:;
#ARTISTTRANSLIT:koji kondo;
#CREDIT:;
#BANNER:01[1].jpg;
#BACKGROUND:bild2_1024[1].jpg;
#LYRICSPATH:;
#CDTITLE:IS.png;
#MUSIC:108_-_clock_town,_first_day.mp3;
#OFFSET:0.000;
#SAMPLESTART:54.536;
#SAMPLELENGTH:12.000;
#SELECTABLE:YES;
#BPMS:0.000=110.020;
#STOPS:;
#BGCHANGES:;
// cache tags:
#FIRSTBEAT:4.000;
#LASTBEAT:155.667;
#SONGFILENAME:Songs/newbie/Zelda - Clock Town/clock town.sm;
#HASMUSIC:1;
#HASBANNER:1;
#MUSICLENGTH:89.652;
// end cache tags

//---------------dance-single - ----------------
#NOTES:
     dance-single:
     :
     Easy:
     4:
     0.252,0.347,0.156,0.279,0.000,119.000,14.000,25.000,0.000,4.000:
0000
0000
0000
0000
,
0000
0000
0000
0000
,
0000
0000
0000
0000
,
0000
1000
0000
0001
,
0100
0010
0000
0000
1000
0001
0100
0010
,
1000
0001
0100
0020
0000
0000
0000
0000
,
0000
0000
0230
0000
,
0000
0000
0000
0000
0000
0000
0000
0300
,
0000
1000
1000
0000
0000
0001
0001
0000
,
0000
1000
1000
0000
0000
0001
0000
0001
,
0000
1000
0000
0010
0000
0100
0000
0001
,
0000
1000
0000
0010
0000
0100
0000
0001
,
0000
1000
0000
0010
0000
0100
0000
0001
,
0000
1000
0000
0010
0000
0100
0000
0001
,
0000
1000
0000
0000
0000
0100
0000
0001
,
0000
1000
0000
0010
0000
1000
0000
0100
,
0000
0010
0000
0001
0000
0001
0000
0010
,
0000
0100
0000
1000
0000
0001
0000
0100
,
0000
0010
0000
0000
0000
1001
0000
0110
,
0000
1001
0000
0110
0000
0001
0000
0100
,
0000
0010
0000
1000
0000
0001
0000
0100
,
0000
0010
0000
1000
0000
0100
0000
0010
,
0000
1001
0000
0000
0000
0010
0000
0100
,
0000
0001
0000
1000
0000
0100
0000
0001
,
0000
1000
0000
0010
0000
0100
0000
0001
,
0000
1000
0000
0010
0000
0100
0000
0001
,
0000
2000
0000
0000
0000
3002
0000
0000
,
0000
0203
0000
0000
0000
0320
0000
0000
,
0000
2030
0000
0000
0000
3002
0000
0023
,
0000
0200
0000
0000
0030
2300
0000
0000
,
3000
0220
0000
0000
0000
2332
0000
0000
,
0003
3220
0000
0000
0000
2332
0000
0000
,
3003
0220
0000
0000
0330
2002
0000
0000
,
3003
0220
0000
1331
0000
1001
0000
0000
,
0000
1000
0000
0001
0000
1000
0000
0100
,
0000
0010
0000
1000
0000
0001
0000
0100
,
0000
0010
0000
1000
0000
0001
0000
0100
,
0000
0010
0000
1000
0000
0010
0000
0100
,
0000
0001
0000
0000
0000
0100
0000
1000
;

//---------------dance-single - ----------------
#NOTES:
     dance-single:
     :
     Medium:
     5:
     0.355,0.391,0.323,0.223,0.608,174.000,29.000,20.000,0.000,8.000:
0000
0000
0000
0000
,
1000
0000
0000
0000
0001
0000
0100
0010
,
0000
0000
0000
0000
,
0000
1000
0000
0001
,
0100
0010
0000
0000
0000
0000
0000
0000
,
0000
0000
0000
0000
0000
0000
0000
2000
0000
0000
0000
0000
0000
0000
0000
0000
,
0000
0000
0000
0000
0000
0000
0000
3002
0000
0000
0000
0000
0000
0000
0000
0000
,
0000
0000
0000
0003
0000
0000
0000
0000
,
0000
1000
1000
0000
0000
0001
0001
0000
,
0000
0100
0100
0000
0000
0010
0000
1000
,
0000
0001
0000
0100
0000
1100
0000
0011
,
0000
0100
0000
0010
0000
0001
0000
1000
,
0000
0100
0000
0001
0000
1000
0000
0010
,
0000
0000
0000
0000
0000
0000
1000
0000
0000
0000
0100
0000
0000
0000
0010
0000
0000
0000
0001
0000
0000
0000
0000
0000
0000
0000
0000
0100
0000
0000
0010
0000
0000
0000
0000
0000
0000
0000
0000
0000
0000
0000
0000
0000
0000
0000
0000
0000
,
0000
0000
0000
1000
0000
0000
0000
0000
0010
0000
0100
0000
0001
0000
1000
0000
0010
0000
0000
0000
0000
0000
0100
0000
,
0000
0000
0001
0000
0010
0100
0001
1000
0010
0000
0100
0001
,
0000
0000
1000
0000
0010
0100
0001
1000
0010
0000
0000
0100
,
0000
0000
1000
0100
0010
0001
1000
0010
0100
0000
0000
0000
,
0000
0000
0001
0000
1000
0010
0100
0001
1000
0000
0000
1001
,
0000
0000
0000
0000
0010
0000
0100
0000
0001
0000
1000
0000
0000
0000
0010
0000
0100
0000
0000
0000
0000
0001
0000
0000
,
0000
0000
1000
0000
0010
0100
0001
1000
0001
0000
0100
0010
,
0000
0000
1000
0001
0100
0010
0000
1000
0001
0000
0000
0000
,
0000
0000
1000
0000
0001
0100
0010
1000
0001
0000
0000
1010
,
0000
0000
0001
0100
0010
1000
0000
1001
0100
0000
0010
0101
,
0000
0000
0010
0000
1000
0001
0100
0010
1000
0000
0000
1001
,
0000
0000
0010
0100
0001
1000
0000
0001
1000
0000
0000
0000
,
0000
0000
0000
0000
0220
0000
0000
0000
0000
0000
0000
0000
0000
0000
0000
1001
0330
0000
0000
0000
0000
0000
0000
0000
,
0000
0220
0000
0000
0000
1331
0000
0000
,
0000
0000
2002
0000
0000
0000
0000
0000
0000
0000
0000
0000
0000
0000
0000
0110
0000
0000
0000
0000
0000
0110
3003
0000
,
0000
0000
0000
2002
0000
0000
0000
0000
0000
0000
0000
0000
0000
0000
0000
0110
3003
0000
0000
0000
0000
0000
0000
0000
,
0000
0000
0220
0000
0000
0000
0000
0000
0000
0000
0000
0000
0000
0000
0000
1001
0330
0000
0000
0000
0000
0000
0000
0000
,
0000
0000
0220
0000
0000
0000
0000
0000
0000
0000
0000
0000
0000
0000
0000
1001
0330
0000
0000
0000
0000
0000
0000
0000
,
0000
0000
0000
0220
0000
0000
0000
0000
0000
0000
0000
0000
0000
0000
0330
2002
0000
0000
0000
0000
0000
0000
0000
0000
,
0000
0000
3003
0220
0000
0000
0000
0000
0000
1001
0330
0000
0000
0000
0000
1001
0000
0000
0000
0000
0000
0000
0000
0000
,
0000
0000
1001
0000
0010
0100
0001
1000
0010
0000
0000
0100
,
0000
0000
0001
0000
1000
0010
0100
0001
1000
0000
0010
0100
,
0000
0000
1001
0000
0010
0100
0001
1000
0010
0000
0000
0100
,
0000
0000
0001
1000
0010
0100
0000
0001
1000
0000
0000
0000
,
0000
0000
0110
0000
0001
1000
0010
0100
0001
0000
0000
1001
;

//---------------dance-single - ----------------
#NOTES:
     dance-single:
     :
     Hard:
     6:
     0.403,0.347,0.346,0.368,0.647,189.000,31.000,33.000,0.000,4.000:
0000
0000
0000
0000
,
2000
0000
0000
0000
3002
0000
0013
0200
,
0000
0000
0000
0000
,
0300
0002
0000
2003
,
3200
0020
0300
0000
0000
0000
0000
0000
,
0000
0030
2002
0000
,
0000
0000
0000
0000
0000
0000
0000
0000
0000
3000
0003
0220
0000
0000
0000
0000
0000
0000
0000
0000
0000
0000
0000
0000
,
0000
0000
0000
0000
0000
0000
0000
0000
0000
0000
0000
0000
0000
0000
0000
0000
0000
0000
0300
0030
0000
0000
0000
0000
,
0000
0000
0000
1000
0000
0000
0000
1000
0000
0000
0000
0000
0001
0000
0100
0000
0010
0000
0000
0100
0000
0000
0000
0000
,
0000
0001
0000
1000
0000
0000
0000
0001
0000
0000
0000
0000
0010
0000
0100
0000
0010
0000
0000
0000
0000
0100
0000
0000
,
0000
0000
0000
0001
0000
0000
0000
1000
0000
0010
0000
0100
0000
0001
0000
1000
0000
0000
0000
0000
0000
0000
0110
0000
,
0000
0000
0001
0000
1000
0010
0100
0001
1000
0000
0010
0100
,
0000
0000
1001
0000
0010
0100
0001
1000
0010
0000
0000
0100
,
0000
0000
0001
0010
0100
1000
0000
0100
0001
0000
0000
0000
,
0000
0000
1000
0000
0100
0010
0001
1000
0010
0000
0000
0110
,
0000
0000
0001
0000
1000
0010
0100
0001
1000
0000
0010
0100
,
0000
0000
1001
0000
0010
0100
0001
1000
0010
0000
0000
0100
,
0000
0000
0001
0010
0100
1000
0001
0100
0010
0000
0000
0000
,
0000
0000
0000
0000
1000
0000
0000
0000
0001
0000
0100
0000
0010
0000
1000
0000
0001
0000
0000
0000
0000
0110
0000
0000
,
0000
0000
0000
0001
0000
0000
1000
0000
0010
0000
0100
0000
0000
0001
0000
1000
0000
0000
0000
0000
0000
0010
0000
0000
,
0000
0000
0000
0000
0100
0000
0000
0001
0000
1000
0000
0010
0000
0100
0000
0001
0000
0000
0000
0000
0101
0000
1010
0000
,
0000
0000
0000
0001
0000
0000
0100
0000
0010
0000
1000
0000
0000
0000
0100
0000
0010
0000
0000
0000
0000
0000
0000
0000
,
0000
0000
0000
0000
1000
0000
0000
0001
0000
0100
0000
0010
0000
1000
0000
0001
0000
0000
0000
0000
0000
0110
0000
0000
,
0000
0000
0000
0001
0000
1000
0000
0000
0010
0000
0100
0000
0000
0001
0000
1000
0000
0000
0000
1000
0000
0010
0000
0000
,
0000
0000
0000
0000
1000
0000
0000
0001
0000
0100
0000
0001
0000
1000
0000
0001
0000
0000
0000
0000
0000
0010
0000
0000
,
0000
0000
0000
1000
0000
0000
0001
0000
0100
0000
0010
0000
0000
1000
0000
0001
0000
0000
0000
0000
0000
0000
0000
0000
,
0000
0000
0000
0000
2020
0000
0000
0000
0000
0000
0000
0000
0000
0000
0000
3030
0101
0000
0000
0000
0000
0000
0000
0000
,
0000
0000
0000
2020
0000
0000
0000
0000
0000
0000
0000
0000
0000
0000
0000
0101
3000
0030
0000
0000
0000
0000
0000
0000
,
0000
0202
0000
0000
0000
1010
0000
1010
,
0303
0000
0000
0202
0000
0000
0000
0000
0000
0000
0000
0000
0000
0000
0000
1010
0300
0003
0000
0000
0000
0000
0000
0000
,
0000
0000
0000
0000
0220
0000
0000
0000
0000
0000
0000
0000
0000
0030
0300
0000
2002
0000
0000
0000
0000
0000
0000
0000
,
3003
0000
0000
0220
0000
0000
0000
0000
0000
0000
0000
0000
0000
0330
0000
2002
0000
0000
0000
0000
0000
3003
0000
0000
,
0000
0000
0000
0220
0000
0000
0000
0000
0000
0000
0000
0000
0000
0330
0000
2002
0000
0000
0000
0000
0000
0000
0000
0000
,
3003
0000
0000
0220
0000
0000
0000
0330
0000
1001
0000
0000
0000
0000
0000
1001
0000
0000
0000
0000
0000
0000
0000
0000
,
0000
0000
0000
0100
0000
0000
0000
0010
0000
0000
1000
0000
0001
0000
0100
0000
0010
0000
0000
0000
0000
0000
1001
0000
,
0000
0000
0000
0000
0010
0000
0000
0000
0100
0000
0001
0000
1000
0000
0010
0000
0100
0000
0000
0001
0000
1000
0000
0000
,
0000
0000
0000
0010
0000
0000
0000
0100
0000
0000
1000
0000
0001
0000
0100
0000
0010
0000
0000
0000
0000
1001
0000
0000
,
0000
0000
0000
0010
0000
0100
0000
0000
0001
0000
1000
0000
0000
0000
0010
0000
0100
0000
0000
0000
0000
0000
0000
0000
,
0000
0000
0000
1001
0000
0000
0000
0010
0000
0100
0000
0001
0000
1000
0000
0010
0000
0000
0000
0000
0000
0100
0000
0000
;
