#TITLE:Darkmoon Rave;
#SUBTITLE:;
#ARTIST:ZeRo-BaSs;
#TITLETRANSLIT:;
#SUBTITLETRANSLIT:;
#ARTISTTRANSLIT:;
#CREDIT:;
#BANNER:Darkmoon Rave-banner.png;
#BACKGROUND:Darkmoon Rave-bg.png;
#LYRICSPATH:;
#CDTITLE:ramengan-cdtitle.png;
#MUSIC:DarkMoon Rave.mp3;
#OFFSET:-0.100;
#SAMPLESTART:83.680;
#SAMPLELENGTH:12.000;
#SELECTABLE:YES;
#DISPLAYBPM:152.000;
#BPMS:0.000=101.500,32.000=50.500,32.250=101.000,32.500=134.666,33.167=151.500,33.917=202.000,35.000=279.999,36.000=151.970;
#STOPS:;
#BGCHANGES:;
// cache tags:
#FIRSTBEAT:0.000;
#LASTBEAT:260.000;
#SONGFILENAME:Songs/KBU/DarkMoon Rave (Ramengan)/DarkMoon Rave.sm;
#HASMUSIC:1;
#HASBANNER:1;
#MUSICLENGTH:122.775;
// end cache tags

//---------------dance-single - ----------------
#NOTES:
     dance-single:
     :
     Hard:
     11:
     0.987,0.874,0.888,0.448,1.000,684.000,109.000,55.000,0.000,0.000:
2000
0000
3100
0010
0001
0010
0100
2000
0000
0000
3001
0100
1000
0100
0001
0020
,
0000
0000
0031
0100
1000
0100
0001
0020
0000
0000
2030
0000
3000
0000
0000
0000
,
0012
0000
1003
0010
0100
0000
0010
0200
0000
0300
0100
1000
0010
0100
0010
1000
,
0200
0000
0310
0001
0020
0000
1030
0100
0000
0001
0011
0000
0101
0000
0210
0000
,
0310
0000
1000
0100
0001
0100
0010
0002
0000
0000
0013
0100
1000
0100
0010
2000
,
0000
0000
3100
0010
0100
0010
0001
2000
0000
0000
3200
0000
0300
0000
0000
0000
,
1010
0000
1000
0001
0100
0001
0010
0100
0000
0000
1000
0001
0100
0001
0010
0100
,
1000
0100
0000
0100
0001
0000
0001
0010
0000
0010
0101
0000
0110
0000
1010
0000
,
0200
0000
0000
0300
,
1001
0000
0100
0001
0010
0001
0100
0020
0000
0030
0000
1000
0001
0100
0010
0200
,
0000
0300
0010
1000
0100
0010
0100
2000
0000
0000
0000
0000
3100
0000
0001
0000
,
1001
0000
0100
0001
0010
0001
0100
0020
0000
0030
0010
1000
0001
0100
0010
1000
,
0001
0100
0000
0100
1000
0000
0100
0001
0000
0001
0010
0000
1010
0000
1100
0000
,
1001
0000
0100
0001
0010
0001
0100
0020
0000
0030
0000
1000
0001
0100
0010
0200
,
0000
0300
0010
1000
0100
0010
0100
2000
0000
0000
0000
0000
3010
0000
0001
0000
,
1001
0000
0100
0001
0010
0001
0100
0020
0000
0030
0010
1000
0001
0100
0010
0001
,
0100
1000
0000
0100
1000
0000
0100
0001
0000
0001
0010
0000
0011
0000
0101
0000
,
1001
0000
0100
0001
0010
0001
0100
0020
0000
0030
0000
1000
0001
0100
0010
0200
,
0000
0300
0010
1000
0100
0010
0100
0020
0000
0000
0000
0000
0130
0000
1000
0000
,
1001
0000
0100
0001
0010
0001
0100
2000
0000
3000
0010
1000
0001
0010
0100
1000
,
0001
0100
0000
0100
1000
0000
0100
0001
0000
0001
0010
0000
1010
0000
0101
0000
,
1001
0000
0100
0001
0010
0001
0100
0020
0000
0030
0000
1000
0001
0100
0010
0200
,
0000
0300
0010
1000
0100
0010
0001
0200
0000
0000
0000
0000
0301
0000
1000
0000
,
1001
0000
0100
1000
0010
0001
0100
0002
0000
0003
0010
0100
1000
0001
0010
0100
,
0001
1000
0000
1000
0001
0000
0100
0010
0000
0010
1000
0000
0011
0000
1100
0000
,
1001
0000
0100
0000
0100
0000
0010
1000
0100
1000
0100
0000
0110
0000
0000
0000
,
1001
0000
0101
0000
0110
0000
0100
0001
0010
0100
1000
0000
0101
0000
0000
0000
,
1010
0000
1100
0000
0011
0000
0001
0100
1000
0100
0001
0000
0001
0000
0010
0000
,
0011
0000
1000
0101
0000
0000
1010
0000
1100
0000
0100
0011
0000
0000
0110
0000
,
1001
0000
0100
0000
1000
0000
0010
0100
0010
0100
0001
0000
0101
0000
0000
0000
,
1010
0000
1000
0000
1100
0000
0010
0001
0100
0010
1000
0000
0101
0000
0000
0000
,
1010
0000
1100
0000
0011
0000
0001
0100
1000
0100
0001
0000
0101
0000
1010
0000
,
0011
0000
1000
0000
0101
0000
0100
1010
0100
0001
0110
0000
1000
0000
0011
0000
,
1001
0000
0100
0000
0100
0000
0010
1000
0100
1000
0100
0000
0110
0000
0000
0000
,
1001
0000
0101
0000
0110
0000
0100
0001
0010
0100
1000
0000
0011
0000
0000
0000
,
1010
0000
1100
0000
0011
0000
0001
0100
1000
0100
0001
0000
0101
0000
0010
0000
,
0011
0000
1000
0101
0010
0000
1010
0001
1100
0010
0100
0011
1000
0000
0110
0000
,
1001
0000
0100
0000
0100
0000
0001
1000
0010
1000
0010
0000
1100
0000
0000
0000
,
1001
0000
0001
0000
0110
0000
0010
0100
0001
0100
0002
0000
0200
0000
0303
0000
,
1010
0001
1100
0010
0011
1000
0110
1100
,
1001
0000
1010
0100
0001
0010
0100
1000
0101
0010
0100
0010
0001
0100
0011
1000
,
0001
0000
1000
0010
0100
0010
0001
0020
0000
0030
0001
1000
0010
1000
0001
0200
,
0000
0300
0001
0010
0100
1000
0100
0020
0000
0000
1000
0000
0030
0000
1000
0000
,
0001
0000
1000
0010
0100
0010
0001
0020
0000
0030
0100
1000
0010
1000
0001
0100
,
0010
0100
1000
0100
0010
0001
0010
0100
1000
0010
1000
0001
0100
0001
0010
0100
,
1001
0000
1000
0100
0010
0001
0100
0020
0000
0030
0100
0010
1000
0001
0100
0010
,
1001
0000
0001
0100
0001
0010
0100
0020
0000
0000
1000
0000
0030
0000
1000
0000
,
1001
0000
0100
0010
0001
0100
0010
1000
0110
0000
1000
0001
0100
0001
0010
0100
,
1001
0010
0000
0001
1100
0000
0010
0001
0110
1000
0010
0100
0011
0000
0101
0000
,
1001
0000
0100
0001
0010
0001
0100
0020
0000
0030
0000
1000
0001
0100
0010
0200
,
0000
0300
0010
1000
0100
0010
0100
2000
0000
0000
0000
0000
3100
0000
0001
0000
,
1001
0000
0100
0001
0010
0001
0100
0020
0000
0030
0010
1000
0001
0100
0010
1000
,
0001
0100
0000
0100
1000
0000
0100
0001
0000
0001
0010
0000
1010
0000
1100
0000
,
1001
0000
0100
0001
0010
0001
0100
0020
0000
0030
0000
1000
0001
0100
0010
0200
,
0000
0300
0010
1000
0100
0010
0100
2000
0000
0000
0000
0000
3010
0000
0001
0000
,
1001
0000
0100
0001
0010
0001
0100
0020
0000
0030
0010
1000
0001
0100
0010
0001
,
0100
1000
0000
0100
1000
0000
0100
0001
0000
0001
0010
0000
0011
0000
0101
0000
,
1001
0000
0100
0001
0010
0001
0100
0020
0000
0030
0000
1000
0001
0100
0010
0200
,
0000
0300
0010
1000
0100
0010
0100
0020
0000
0000
0000
0000
0130
0000
1000
0000
,
1001
0000
0100
0001
0010
0001
0100
2000
0000
3000
0010
1000
0001
0010
0100
1000
,
0001
0100
0000
0100
1000
0000
0100
0001
0000
0001
0010
0000
1010
0000
0101
0000
,
1001
0000
0100
0001
0010
0001
0100
0020
0000
0030
0000
1000
0001
0100
0010
0200
,
0000
0300
0010
1000
0100
0010
0001
0200
0000
0000
0000
0000
0301
0000
1000
0000
,
1001
0000
0100
1000
0010
0001
0100
0002
0000
0003
0010
0100
1000
0001
0010
0100
,
0001
1000
0000
1000
0001
0000
0100
0010
0000
0010
1000
0000
0011
0000
1100
0000
,
1001
0000
0000
0000
;
