#TITLE:C°;
#SUBTITLE:- Happy Lesson OVA Opening;
#ARTIST:Hikari Okamoto;
#TITLETRANSLIT:;
#SUBTITLETRANSLIT:;
#ARTISTTRANSLIT:;
#CREDIT:;
#BANNER:Happy Lesson OVA Banner.png;
#BACKGROUND:Happy Lesson OVA- bg.png;
#LYRICSPATH:;
#CDTITLE:KOA_cdtitle.png;
#MUSIC:Happy Lesson OVA OP.mp3;
#OFFSET:-0.220;
#SAMPLESTART:26.375;
#SAMPLELENGTH:17.500;
#SELECTABLE:YES;
#BPMS:0.000=165.040;
#STOPS:;
#BGCHANGES:0.063=Happy Lesson OVA OP.avi=1.000=0=0=1,
257.500=Happy Lesson OVA- bg.png=1.000=1=0=0,
99999=-nosongbg-=1.000=0=0=0 // don't automatically add -songbackground-
;
// cache tags:
#FIRSTBEAT:0.000;
#LASTBEAT:270.000;
#SONGFILENAME:Songs/Otaku's Dream 1st Anime Mix/koa5001 - C' (Happy Lesson OVA)/Happy Lesson OVA OP.sm;
#HASMUSIC:1;
#HASBANNER:1;
#MUSICLENGTH:102.864;
// end cache tags

//---------------dance-single - ----------------
#NOTES:
     dance-single:
     :
     Hard:
     8:
     0.561,0.558,0.117,0.185,0.000,373.000,12.000,19.000,0.000,0.000:
0011
0000
0010
0001
0000
0000
0000
0000
,
1100
0000
0100
1000
0000
1000
0000
0000
,
0101
0000
0000
1010
0000
0000
0000
0000
,
0002
1000
0000
1000
0000
1003
0000
0000
,
0001
0100
1000
0100
0001
0010
1000
0010
,
0001
0100
0010
1000
0001
0001
0000
0000
,
1000
0100
0001
0100
1000
0010
0001
0010
,
2000
0001
0000
0001
0000
3001
0000
0000
,
1000
0001
1000
0100
1000
0001
1000
0100
,
1000
0010
1000
0100
1000
0010
1000
0100
,
0001
0100
0001
0100
1000
0001
1000
0001
,
0020
0001
0000
0001
0000
0031
0000
0000
,
0000
0100
0010
1000
0100
0010
0001
0100
,
0000
0010
1000
0001
0010
0100
1000
0001
,
0000
1000
0100
0001
0100
1000
0001
1000
,
0000
0001
0100
1000
0100
0001
1000
0001
,
0000
1000
0010
0100
0010
1000
0001
0010
,
0000
0001
0100
0010
0100
0001
1000
0010
,
2000
3000
0001
0010
0100
1000
0010
0200
,
0000
0010
0000
0010
0000
0310
0000
0000
,
0000
1000
0010
1000
0100
1000
0010
1000
,
0000
0001
0010
0001
0100
0001
0010
0001
,
0000
1000
0010
0001
0010
1000
0001
1000
,
0000
0001
0010
1000
0010
0001
1000
0001
,
0000
0100
0010
0100
0010
1000
0001
1000
,
0000
0010
0100
0010
0100
0001
1000
0001
,
0020
0030
0001
0100
0010
1000
0010
0200
,
0000
0001
0000
0001
0000
0301
0000
0000
,
1002
0000
0000
1000
0000
0000
1003
0000
,
2000
0000
0000
0100
0000
0000
3100
0000
,
0200
0000
0000
0001
0000
0000
0301
0000
,
0002
0000
0000
0010
0000
0000
0003
0000
,
1000
0000
0000
1000
0000
0000
1000
0000
,
0001
0000
0000
0001
0000
0000
0001
0000
,
0100
0000
0000
0100
0000
0000
0100
0000
,
0010
0000
0000
0010
0000
0000
0000
0000
,
1002
1000
0100
1003
,
0210
0001
1000
0301
,
1000
0100
0010
0001
0100
0010
0000
0000
,
0200
0000
0000
0300
0000
0001
0010
0001
,
1000
0100
0010
0001
0100
0010
1000
0001
,
1000
0010
0001
0010
1000
0100
0001
0100
,
1000
0010
0100
0001
0010
0100
1000
0001
,
1000
0100
0001
0100
1000
0010
0001
0010
,
1000
0001
0010
0100
0010
0001
0100
0010
,
1000
0010
0100
0010
1000
0100
0010
0001
,
0100
0010
1000
0100
0001
0100
1000
0002
,
0000
1000
0000
1000
0000
1003
0000
0000
,
0001
0001
1000
1000
0010
0100
0001
1000
,
0001
0010
1000
0010
0001
0100
1000
0100
,
0001
0001
0010
0010
0100
1000
0010
0100
,
0001
0100
1000
0100
0001
0010
1000
0010
,
0001
0001
1000
1000
0001
0010
0100
1000
,
0001
0100
0010
0100
0001
0010
0100
0010
,
0100
0100
1000
1000
0001
0100
0010
2000
,
0000
0001
0000
0001
0000
3001
0000
0000
,
1000
0001
1000
0100
1000
0001
1000
0100
,
0000
1000
0100
0010
0001
0100
0010
1000
,
0001
1000
0001
0100
0001
1000
0001
0100
,
0000
0001
0010
0100
1000
0010
0100
0001
,
0101
0000
0100
0001
0000
0000
0000
0000
,
1010
0000
1000
0010
0000
0010
0000
0000
,
1100
0000
0000
0011
0000
0000
0000
0000
,
0200
0010
0000
0010
0000
0310
0000
0000
,
0000
0000
0000
2002
0000
0000
0000
0000
,
0000
0000
0000
0000
,
0000
0000
0000
0000
,
0000
0000
3003
0000
;

//---------------dance-single - ----------------
#NOTES:
     dance-single:
     :
     Medium:
     6:
     0.462,0.558,0.467,0.331,0.000,251.000,48.000,34.000,0.000,0.000:
1010
0000
0000
0101
0000
0000
0000
0000
,
1100
0000
0000
0011
0000
0000
0000
0000
,
0100
0000
0000
0020
0000
0000
0000
0000
,
0030
1100
0000
0101
0000
1100
0000
0000
,
1001
0000
0000
0110
0000
0000
0000
0000
,
1001
0000
0000
0110
0000
0000
0000
0000
,
0001
0000
0000
2000
0000
0000
0000
0000
,
3000
0011
0000
1010
0000
0011
0000
0000
,
1000
1010
0100
0101
,
1000
1100
0010
0011
,
0100
0110
0010
1001
,
0000
1000
0000
0001
0000
1000
0000
0000
,
0000
0001
0010
0001
1000
0000
1000
0000
,
0000
0001
0100
0001
0010
0000
0010
0000
,
0000
0100
0010
0100
0001
0000
0001
0000
,
0000
1000
0010
1000
0100
0000
0100
0000
,
0000
1000
0001
1000
0010
0000
0010
0000
,
0000
1000
0100
1000
0001
0000
0001
0000
,
0100
0010
1000
0001
,
0000
0100
0000
0010
0000
0100
0000
0000
,
0000
0001
1000
0010
1000
0000
1010
0000
,
0000
1000
0100
0010
0001
0000
0011
0000
,
0000
0100
0010
1000
0100
0000
1100
0000
,
0000
0010
0001
0100
0001
0000
0101
0000
,
0000
0010
1000
0001
0010
0000
0110
0000
,
0000
1000
0001
0010
0001
0000
1001
0000
,
0100
0010
1000
0100
,
0000
1000
0000
0001
0000
1000
0000
0000
,
0002
0000
0000
0103
,
0200
0000
0000
0310
,
0020
0000
0000
1030
,
2000
0000
0000
0002
0000
0000
3003
0000
,
2000
0000
0000
3100
,
0200
0000
0000
0310
,
0020
0000
0000
0031
,
0002
0000
0000
2000
0000
0000
3003
0000
,
0001
0011
0010
0011
,
1000
1100
0100
1100
,
0001
1001
1000
1001
,
0020
0000
0000
0030
,
0001
0100
1000
0100
0001
1000
0000
2200
,
0000
0000
0000
3300
0000
0001
0010
0001
,
1000
0100
0001
0100
1000
0001
0000
0202
,
0000
0000
0000
0303
0000
0010
1000
0010
,
1000
0100
0010
0001
0100
0010
0000
0220
,
0000
0000
0000
0330
0000
1000
0001
1000
,
0010
1000
0001
0010
0001
1000
0000
2002
,
0000
0000
0000
3003
0000
0100
0010
0100
,
0001
0010
1000
0010
0001
0100
0000
2020
,
0000
0000
0000
3030
0000
0001
1000
0001
,
1000
0010
0001
0010
1000
0100
0000
0022
,
0000
0000
0000
0033
0000
1000
0100
1000
,
0001
0010
0100
1000
0010
0100
0000
2002
,
0000
0000
0000
3003
0000
0010
0100
0010
,
1000
0100
0010
0001
0100
0010
0000
0220
,
0000
0000
0000
0330
,
2000
3000
0001
0010
0001
0100
0001
0010
,
0000
0100
1000
0100
0001
0100
1000
0001
,
0200
0300
0010
1000
0100
1000
0010
0100
,
0000
0001
0010
1000
0010
0001
0100
0010
,
1010
0000
0000
0101
0000
0000
0000
0000
,
1100
0000
0000
0011
0000
0000
0000
0000
,
0100
0000
0000
0020
0000
0000
0000
0000
,
0030
1100
0000
0101
0000
1100
0000
0000
,
0000
0000
0000
2002
0000
0000
0000
0000
,
0000
0000
0000
0000
,
0000
0000
0000
0000
,
0000
0000
3003
0000
;

//---------------dance-single - ----------------
#NOTES:
     dance-single:
     :
     Easy:
     3:
     0.265,0.328,0.146,0.321,0.000,143.000,15.000,33.000,0.000,0.000:
0020
0000
0000
0030
0000
0000
0000
0000
,
0200
0000
0000
0300
0000
0000
0000
0000
,
0020
0000
0000
0030
0000
0000
0000
0000
,
0000
1000
0000
0001
0000
1000
0000
0000
,
2002
0000
0000
3003
0000
0000
0000
0000
,
0220
0000
0000
0330
0000
0000
0000
0000
,
2002
0000
0000
3003
0000
0000
0000
0000
,
0000
0010
0000
0100
0000
0010
0000
0000
,
1000
0000
1000
0000
,
0001
0000
0001
0000
,
0100
0000
0100
0000
,
0020
0000
0000
0000
0000
0030
0000
0000
,
0000
1000
0100
1000
,
0000
0001
0100
0001
,
0000
1000
0010
1000
,
0000
0001
0010
0001
,
0000
0100
0100
0100
,
0000
0010
0010
0010
,
1000
0000
0100
0000
0010
0000
0001
2000
,
0000
0000
0000
0000
0000
3000
0000
0000
,
0000
0001
0101
0001
,
0000
1000
1100
1000
,
0000
0001
0011
0001
,
0000
1000
1010
1000
,
0000
0001
0001
0001
,
0000
1000
1000
1000
,
0010
0000
0100
0000
0001
0000
1000
0002
,
0000
0000
0000
0000
0000
0003
0000
0000
,
0200
0000
0000
0300
,
0020
0000
0000
0030
,
2000
0000
0000
3000
,
0002
0000
0000
0003
,
2000
0000
0000
3000
,
0200
0000
0000
0300
,
0020
0000
0000
0030
,
0002
0000
0000
0003
,
1000
0000
0001
0000
,
1000
0000
0001
0000
,
0100
0000
0010
0000
,
2002
0000
0000
3003
,
0010
0100
0001
0001
,
1000
1000
1010
0000
,
0001
1000
0100
0100
,
0010
0010
0011
0000
,
1000
0010
0100
0100
,
0001
0001
1100
0000
,
0001
0000
0100
0000
0010
0000
1000
0002
,
0000
0000
0000
0000
0000
0003
0000
0000
,
0010
0100
1000
1000
,
0010
0010
0101
0000
,
1000
0100
0010
0010
,
0001
0001
1001
0000
,
0100
0010
1000
1000
,
0001
0001
0110
0000
,
1000
0000
0010
0000
0100
0000
0001
2000
,
0000
0000
0000
0000
0000
3000
0000
0000
,
0002
0000
0000
0000
0000
0000
0003
0020
,
0000
0000
0000
0000
0000
0000
0000
0030
,
0200
0000
0000
0000
0000
0000
0300
2000
,
0000
0000
0000
3000
,
0002
0000
0000
0003
0000
0000
0000
0000
,
2000
0000
0000
3000
0000
0000
0000
0000
,
0002
0000
0000
0003
0000
0000
0000
0000
,
0000
0010
0000
0100
0000
0010
0000
0000
,
0000
0000
0000
2002
0000
0000
0000
0000
,
0000
0000
0000
0000
,
0000
0000
0000
0000
,
0000
0000
3003
0000
;
