#TITLE:Blaze Phoenix(Megaman X6);
#SUBTITLE:;
#ARTIST:Capcom Sound Team;
#TITLETRANSLIT:;
#SUBTITLETRANSLIT:;
#ARTISTTRANSLIT:;
#CREDIT:Gorilla v1.0.0 (Dancing Monkeys v1.05);
#BANNER:Blaze Phoenix-banner.jpg;
#BACKGROUND:Blaze Phoenix-bg.jpg;
#LYRICSPATH:;
#CDTITLE:;
#MUSIC:09 - X6 - BLAZE HEATNIX STAGE.mp3;
#OFFSET:-0.717;
#SAMPLESTART:36.012;
#SAMPLELENGTH:12.000;
#SELECTABLE:YES;
#BPMS:0.000=169.997;
#STOPS:;
#BGCHANGES:;
// cache tags:
#FIRSTBEAT:0.500;
#LASTBEAT:342.000;
#SONGFILENAME:Songs/dragon force/09 - X6 - BLAZE HEATNIX STAGE/09 - X6 - BLAZE HEATNIX STAGE.sm;
#HASMUSIC:1;
#HASBANNER:1;
#MUSICLENGTH:132.083;
// end cache tags

//---------------dance-single - ----------------
#NOTES:
     dance-single:
     :
     Challenge:
     11:
     0.960,1.000,0.242,0.394,1.000,804.000,32.000,52.000,0.000,0.000:
0000
0000
1000
0100
0010
0100
1000
0010
0100
0010
1000
0100
0010
0100
1000
0000
,
1000
0000
0001
0010
0100
0010
0001
0100
0010
0100
0001
0010
0100
0010
0001
0000
,
0001
0000
0100
0010
1000
0100
1000
0001
0010
0001
0100
0010
1000
0001
1000
0000
,
0000
0000
1001
0000
0000
1010
0000
0000
0101
0000
0000
1001
0000
0000
0000
0000
,
0000
0000
1000
0100
1000
0100
1000
0010
0100
0001
0010
0001
0010
0001
0100
0000
,
0010
0000
1000
0010
1000
0010
1000
0100
0010
0001
0100
0001
0100
0001
0010
0000
,
0100
0000
1000
0001
1000
0100
0010
0001
1000
0001
0010
0100
1000
0010
0100
0000
,
0000
0000
0110
0000
0000
0011
0000
0000
1100
0000
0000
0110
0000
0000
0000
0000
,
0000
2002
0000
0000
0000
0000
0000
0000
0000
0000
0000
0000
0000
0000
0000
0000
,
0000
0000
0000
0000
0000
0000
3003
0000
0100
0010
0100
0010
0100
0010
0100
0010
,
0100
0000
1000
0001
1000
0001
1000
0001
1000
0001
1000
0001
1000
0001
1000
0000
,
1001
0000
0100
0001
0100
0001
0100
0001
0100
0001
0100
0001
0100
0001
0100
0000
,
1001
0000
1000
0010
1000
0010
1000
0010
1000
0010
1000
0010
1000
0010
1000
0000
,
1001
0000
0100
0010
0100
0010
0100
0010
0100
0010
0100
0010
0100
0010
0100
0000
,
1010
0000
1000
0100
1000
0100
1000
0100
1000
0100
1000
0100
1000
0100
1000
0000
,
0101
0000
0001
0010
0001
0010
0001
0010
0001
0010
0001
0010
0001
0010
0001
0000
,
0110
0000
1000
0100
1000
0010
1000
0100
1000
0010
1000
0100
1000
0010
1000
0000
,
0110
0000
0001
0010
0001
0100
0001
0010
0001
0100
0001
0010
0001
0100
0001
0000
,
1000
0000
0100
0000
1000
0000
0010
0200
0000
0000
0000
0000
0000
0000
0000
0000
,
0310
1000
0001
0020
0000
0000
0000
0000
,
0030
0000
1001
0000
0000
0000
1000
0100
0020
0000
0000
0000
0000
0000
0000
0000
,
0030
0000
1001
0000
0000
0000
1000
0100
0010
0001
2000
0000
0000
0000
0000
0000
,
3000
0000
0001
0010
0100
1000
0100
0010
0001
0000
1000
0100
1000
0001
0010
0001
,
1000
0100
0010
0001
0100
0010
1000
0100
0010
0001
1000
0010
1000
0001
0100
0001
,
1000
0010
0100
0001
0100
0010
1000
0001
1000
0100
0010
0100
1000
0010
0100
0001
,
1000
0001
0010
0100
0010
0001
0100
0010
1000
0100
1000
0010
0100
0001
0010
0001
,
0100
0010
1000
0010
0100
0001
0100
0010
1000
0100
0010
0100
1000
0010
0100
0001
,
0100
0010
1000
0001
1000
0010
1000
0001
0100
0001
0010
0100
1000
0001
0010
0100
,
2000
0000
0000
0000
,
0000
0000
0000
0000
,
3000
0102
0000
0000
0023
0100
0000
0000
,
0230
0000
1300
0001
1000
0020
0000
0000
,
0000
2000
0030
0000
0000
0000
0000
0000
3020
0000
0100
0000
0000
0000
0000
0000
,
0230
0000
0000
0000
0000
0001
0300
1000
0000
0001
0020
0000
0000
0000
0000
0000
,
0030
0000
1000
0100
1000
0100
1000
0010
0100
0010
0100
0010
1000
0010
1000
0010
,
1000
0010
0100
0001
0100
0001
0100
0010
1000
0010
1000
0010
0100
0010
0100
0010
,
0100
0010
1000
0100
1000
0100
1000
0001
0010
0001
0010
0001
1000
0001
1000
0001
,
1000
0001
0010
0100
0010
0100
0010
0001
0010
0001
0010
0100
1000
0100
1000
0100
,
1000
0002
0000
0000
0000
0000
0000
0000
2003
0000
0000
0000
0000
0000
0000
0000
,
3020
0000
0230
0000
,
0301
0010
0001
1000
0100
0010
0001
1000
0100
1000
0010
1000
0001
0100
0010
1000
,
0010
0100
0002
0000
0000
0000
0000
0000
0000
0000
0000
0000
0000
0000
0000
0000
,
0003
2010
0000
0000
3002
0000
0000
0000
,
0203
0000
0320
0000
,
1030
0100
1000
0001
0010
0100
1000
0001
0010
0001
0100
0001
1000
0010
0100
0001
,
0100
0010
2000
0000
0000
0000
0000
0000
0000
0000
0000
0000
0000
0000
0000
0000
,
3000
0001
0000
0010
0000
0001
0000
0200
0000
0000
0000
0000
0000
0000
0000
0000
,
0000
0310
0000
1000
0000
0010
0000
0200
0000
0000
0000
0000
0000
0000
0000
0000
,
0000
0310
0000
0001
0000
0010
0000
0200
0000
0000
0000
0000
0000
0000
0000
0000
,
0000
0310
0000
1000
0000
0001
0000
0200
0000
0000
0000
0000
0000
0000
0000
0000
,
0300
2002
0000
0000
0000
0000
0000
0000
0000
0000
0000
0000
0000
0000
0000
0000
,
0000
0000
0000
0000
0000
0000
3003
0000
0010
0100
0010
0100
0010
0100
0010
0100
,
0010
0000
0001
1000
0001
1000
0001
1000
0001
1000
0001
1000
0001
1000
0001
0000
,
1001
0000
0010
1000
0010
1000
0010
1000
0010
1000
0010
1000
0010
1000
0010
0000
,
1001
0000
0001
0100
0001
0100
0001
0100
0001
0100
0001
0100
0001
0100
0001
0000
,
1001
0000
0010
0100
0010
0100
0010
0100
0010
0100
0010
0100
0010
0100
0010
0000
,
0101
0000
0001
0010
0001
0010
0001
0010
0001
0010
0001
0010
0001
0010
0001
0000
,
1010
0000
1000
0100
1000
0100
1000
0100
1000
0100
1000
0100
1000
0100
1000
0000
,
0110
0000
0001
0010
0001
0100
0001
0010
0001
0100
0001
0010
0001
0100
0001
0000
,
0110
0000
1000
0100
1000
0010
1000
0100
1000
0010
1000
0100
1000
0010
1000
0000
,
0001
0000
0010
0000
0001
0000
0100
0020
0000
0000
0000
0000
0000
0000
0000
0000
,
0130
0001
1000
0200
0000
0000
0000
0000
,
0300
0000
1001
0000
0000
0000
0001
0010
0200
0000
0000
0000
0000
0000
0000
0000
,
0300
0000
1001
0000
0000
0000
0001
0010
0100
1000
0002
0000
0000
0000
0000
0000
,
0003
0000
1000
0100
0010
0001
0010
0100
1000
0000
0001
0010
0001
1000
0100
1000
,
0001
0010
0100
1000
0010
0100
0001
0010
0100
1000
0001
0100
0001
1000
0010
1000
,
0001
0100
0010
1000
0010
0100
0001
1000
0001
0010
0100
0010
0001
0100
0010
1000
,
0001
1000
0100
0010
0100
1000
0010
0100
0001
0010
0001
0100
0010
1000
0100
1000
,
0010
0100
0001
0100
0010
1000
0010
0100
0001
0010
0100
0010
0001
0100
0010
1000
,
0010
0100
0001
1000
0001
0100
0001
1000
0010
1000
0100
0010
0001
1000
0100
0010
,
0002
0000
0000
0000
,
0000
0000
0000
0000
,
0003
2010
0000
0000
3200
0010
0000
0000
,
0320
0000
0031
1000
0001
0200
0000
0000
,
0000
0002
0300
0000
0000
0000
0000
0000
0203
0000
0010
0000
0000
0000
0000
0000
,
0320
0000
0000
0000
0000
1000
0030
0001
0000
1000
0200
0000
0000
0000
0000
0000
,
0300
0000
0001
0010
0001
0010
0001
0100
0010
0100
0010
0100
0001
0100
0001
0100
,
0001
0100
0010
1000
0010
1000
0010
0100
0001
0100
0001
0100
0010
0100
0010
0100
,
0010
0100
0001
0010
0001
0010
0001
1000
0100
1000
0100
1000
0001
1000
0001
1000
,
0001
1000
0100
0010
0100
0010
0100
1000
0100
1000
0100
0010
0001
0010
0001
0010
,
0001
2000
0000
0000
0000
0000
0000
0000
3002
0000
0000
0000
0000
0000
0000
0000
,
0203
0000
0320
0000
,
1030
0100
1000
0001
0010
0100
1000
0001
0010
0001
0100
0001
1000
0010
0100
0001
,
0100
0010
2000
0000
0000
0000
0000
0000
0000
0000
0000
0000
0000
0000
0000
0000
,
3000
0102
0000
0000
2003
0000
0000
0000
,
3020
0000
0030
0000
;

//---------------dance-single - ----------------
#NOTES:
     dance-single:
     :
     Easy:
     1:
     0.000,0.000,0.000,0.000,0.000,0.000,0.000,0.000,0.000,0.000:
0000
0000
0000
0000
;
