#TITLE:HELLBEAT;
#SUBTITLE:;
#ARTIST:Arktisk;
#TITLETRANSLIT:;
#SUBTITLETRANSLIT:;
#ARTISTTRANSLIT:;
#CREDIT:Arch0wl;
#BANNER:hellbeat-bn.png;
#BACKGROUND:hellbeat-bg.png;
#LYRICSPATH:;
#CDTITLE:!arch0wltitle.png;
#MUSIC:hellbeat.ogg;
#OFFSET:0.039;
#SAMPLESTART:13.140;
#SAMPLELENGTH:20.340;
#SELECTABLE:YES;
#BPMS:0.000=400.000;
#STOPS:;
#BGCHANGES:0.000=hellbeat-bg.png=1.000=0=0=1,
99999=-nosongbg-=1.000=0=0=0 // don't automatically add -songbackground-
;
// cache tags:
#FIRSTBEAT:0.000;
#LASTBEAT:358.000;
#SONGFILENAME:Songs/Archmage and Dark0wl Hammer of Thor UltraHyperMegaPack/HELLBEAT/hellbeat.sm;
#HASMUSIC:1;
#HASBANNER:1;
#MUSICLENGTH:105.000;
// end cache tags

//---------------dance-single - Arch0wl----------------
#NOTES:
     dance-single:
     Arch0wl:
     Challenge:
     14:
     0.859,0.895,0.152,0.000,0.038,615.000,16.000,0.000,0.000,0.000:
1000
0100
1000
0001
,
0010
0001
0100
0010
,
1000
0001
1000
0001
,
1000
0001
1000
0001
,
1000
0001
1000
0001
1000
0001
1000
0001
,
1000
0001
1000
0001
1000
0001
1000
0001
,
0100
0010
0100
0001
0100
0010
0100
0001
,
1000
0010
0100
0010
1000
0100
0010
0100
,
1000
0010
0100
0010
1000
0010
0100
0010
,
1000
0001
0010
0001
0100
0010
1000
0010
,
0100
0001
0010
0001
0100
0001
0010
0001
,
1000
0100
0010
0100
1000
0001
0010
0001
,
0100
0010
1000
0010
0100
0010
1000
0010
,
0100
0001
0010
0001
1000
0010
0100
0010
,
1000
0100
0010
0100
1000
0100
0010
0100
,
1000
0010
0100
0010
1000
0001
0010
0001
,
0100
0010
1000
0010
0100
0010
1000
0010
,
0100
0001
1000
0001
0010
0100
1000
0100
,
0010
0001
1000
0001
0010
0001
1000
0001
,
0100
0010
1000
0010
0100
0001
0010
0001
,
1000
0010
0100
0010
1000
0010
0100
0010
,
1000
0001
0010
0001
1000
0100
0010
0100
,
1000
0010
0100
0001
1000
0000
0001
0000
,
0100
0001
0010
0100
1000
0010
0100
0001
,
1000
0100
0010
0001
1000
0000
0100
0000
,
1000
0100
0010
0001
1000
0010
0100
0001
,
0010
0001
0100
0010
1000
0000
0001
0000
,
0010
0001
0100
0010
1000
0100
0010
0001
,
1000
0010
0100
0001
1000
0000
0001
0000
,
1000
0010
0100
0001
0010
0100
1000
0010
,
0100
0001
1000
0100
0010
0000
0001
0000
,
0100
0001
1000
0100
0010
0001
0100
0010
,
1000
0001
0100
0010
1000
0000
0001
0000
,
1000
0001
0100
0010
1000
0100
0010
0001
,
1000
0100
1000
0100
1000
0100
1000
0100
,
0010
0001
0010
0001
0010
0001
0010
0001
,
0100
0010
0100
0010
0100
0010
0100
0010
,
0100
0010
0100
0010
0100
0010
0100
0010
,
1000
0010
1000
0010
1000
0010
1000
0010
,
1000
0100
1000
0010
1000
0100
1000
0010
,
0100
0001
0100
0001
0100
0001
0100
0001
,
0100
0010
0100
0001
0100
0010
0100
0001
,
1000
0010
1000
0010
1000
0010
1000
0010
,
1000
0100
1000
0010
1000
0100
1000
0010
,
0100
0001
0100
0001
0100
0001
0100
0001
,
0100
0010
0100
0001
0100
0010
0100
0001
,
0010
0100
0010
0100
0010
0100
0010
0100
,
0010
0001
0010
0100
0010
0001
0010
0100
,
1000
0001
1000
0001
1000
0001
1000
0001
,
1000
0100
1000
0001
1000
0100
1000
0001
,
0010
0100
0010
0100
0010
0100
0010
0100
,
0010
0001
0010
0100
0010
0001
0010
0100
,
1000
0001
1000
0001
1000
0001
1000
0001
,
1000
0100
1000
0001
1000
0100
1000
0001
,
1000
0100
0010
0001
1000
0100
0010
0001
,
1000
0001
1000
0001
1000
0001
0100
0001
0100
0001
0100
0001
,
1000
0100
1000
0100
1000
0000
0001
1000
,
0010
0100
0010
0100
0010
0000
1000
0001
,
0010
0100
0010
0100
0010
0000
0100
1000
,
0001
0010
0001
0010
0001
0000
1000
0100
,
0010
0001
0010
0001
0010
0000
0100
1000
,
0001
0010
0001
0010
0001
0000
1000
0001
,
0100
0010
0100
0010
0100
0000
0001
0010
,
0100
1000
0100
1000
0100
0000
1000
0001
,
0100
0010
0100
0010
0100
0000
0001
0010
,
0100
1000
0100
1000
0100
0000
1000
0100
,
0010
0001
0010
0001
0010
0000
0100
1000
,
0010
0100
0010
0100
0010
0000
1000
0010
,
0100
0001
0100
0001
0100
0001
0100
0001
,
1000
0010
1000
0010
1000
0010
1000
0010
,
0100
0010
0100
0010
0100
0010
0100
0010
,
0100
0010
0100
0010
0100
0010
0100
0010
,
1001
0000
0011
0000
,
1001
0000
0000
0000
1100
0000
0000
1000
,
0101
0000
0011
0000
,
0101
0000
0000
0000
0110
0000
0000
0010
,
1100
0000
0110
0000
,
1100
0000
0000
0000
1001
0000
0000
0001
,
0110
0000
1010
0000
,
0110
0000
0101
0000
,
0001
0100
0010
0000
0100
0000
0001
0000
,
1000
0100
0010
0000
0100
0000
1000
0000
,
0001
0100
0010
0000
0100
0000
0001
0000
,
1000
0100
0010
0000
0100
0000
1000
0000
,
0001
0100
0010
0100
0001
1000
0100
1000
,
0001
0100
0010
0100
0001
1000
0100
1000
,
0001
0010
0100
1000
0010
0100
0001
0010
,
0100
1000
0010
0100
0001
0010
0100
1000
,
0001
0000
0001
0000
,
0001
0000
0001
0000
;
