#TITLE:Alternate Reality;
#SUBTITLE:;
#ARTIST:Evil Activites and Endymion;
#TITLETRANSLIT:;
#SUBTITLETRANSLIT:;
#ARTISTTRANSLIT:;
#CREDIT:Rynker;
#BANNER:../speedcore rejects ban.png;
#BACKGROUND:../speedcore rejects bg.png;
#LYRICSPATH:;
#CDTITLE:;
#MUSIC:Alternate Reality - Evil Activities and Endymion.ogg;
#OFFSET:-0.086;
#SAMPLESTART:91.055;
#SAMPLELENGTH:12.000;
#SELECTABLE:YES;
#DISPLAYBPM:165.000;
#BPMS:0.000=165.000,100.000=122.000,101.000=111.970,132.000=112.000,134.000=118.000,136.000=120.000,138.000=123.000,140.000=126.700,142.000=129.900,144.000=133.000,146.000=138.000,148.000=140.100,150.000=143.000,152.000=144.000,154.000=152.000,156.000=153.000,158.000=158.000,161.000=163.400,162.000=163.400,163.000=165.000,164.000=165.000;
#STOPS:;
#BGCHANGES:;
// cache tags:
#FIRSTBEAT:4.000;
#LASTBEAT:433.000;
#SONGFILENAME:Songs/Speedcore Rejects/Alternate Reality - [Rynker]/Alternate Reality.sm;
#HASMUSIC:1;
#HASBANNER:1;
#MUSICLENGTH:168.044;
// end cache tags

//---------------dance-single - Rynker----------------
#NOTES:
     dance-single:
     Rynker:
     Challenge:
     12:
     0.899,1.000,0.137,0.321,0.863,979.000,23.000,54.000,82.000,0.000:

0000
0000
0000
0000
,
0101
0000
0002
0003
1000
0000
0000
0000
2200
3300
0000
0000
1000
0000
0000
0000
,
0100
0000
0020
0030
0001
0000
0001
0000
0002
0003
0000
0100
0010
0000
2000
3000
,
0001
0000
0020
0030
0010
0000
0000
0000
2200
3300
0000
0000
1000
0000
0000
0000
,
0001
0000
2000
3000
0000
0MMM
0000
0000
0010
1000
0001
1000
0001
0000
0000
0000
,
0101
0000
0001
0000
1001
0000
4000
3000
0100
0000
0000
0000
0100
0000
0000
0000
,
0100
0000
0020
0030
0000
0000
0000
0000
0001
0000
0000
0100
0010
0000
2000
3000
,
0100
0000
2000
3000
1000
0000
0000
0000
0202
0303
0000
0000
0001
0000
0000
0000
,
2000
0000
0000
3000
,
1010
0000
2000
3000
0001
0000
0000
0000
0022
0033
0000
0000
0001
0000
0000
0000
,
0010
0000
0200
0300
1000
0000
0000
0000
2000
3000
0000
0010
0100
0000
0002
0003
,
1000
0000
0200
0300
0100
0000
0000
0000
0022
0033
0000
0000
0001
0000
0000
0000
,
1000
0000
0002
0003
0000
MMM0
0000
0000
0100
0001
1000
0001
1000
0000
0100
0000
,
0100
0000
0020
0030
0001
0000
0000
0000
0002
0003
0000
0000
0010
0000
0100
1000
,
0100
0000
2000
3000
0000
0000
0000
0000
0002
0103
0001
0100
0001
0000
1000
0000
,
0010
0000
0200
0300
0001
0000
0000
0000
0200
0300
0000
0000
0001
0000
0000
0000
,
1000
0000
2000
3000
1000
0000
0000
0000
0100
0000
0010
0000
0001
0000
0100
0000
,
0101
0000
0002
0003
1000
0000
0000
0000
0200
0000
0300
0000
0100
0000
0000
0000
,
0010
0001
2000
3000
0020
0030
0100
0001
,
2000
3000
0100
0000
0020
0030
0100
0000
,
1000
0001
0010
0001
,
1000
0001
0100
0010
1000
0001
0100
0010
,
1000
0100
0010
0100
1000
0001
0100
0010
,
1000
0001
0100
0010
0100
0001
1000
0100
,
1000
0100
0010
0001
1000
0001
0100
0010
1000
0010
0100
0001
1000
0100
0010
0100
,
2000
0000
0000
0000
0001
0000
0000
3000
,
0200
0000
0000
0300
0020
0000
0001
0030
,
0002
0000
0000
0000
0100
0000
0000
0003
,
0200
0000
0000
0000
0010
0000
0000
0300
,
0020
0000
0000
0000
1000
0000
0000
0030
,
2000
0000
0000
0000
0100
0000
0100
3000
,
0002
0000
0000
0000
0010
0000
0000
0003
,
2000
0000
3001
0000
,
0001
0100
0001
0100
0010
1000
0010
1000
0001
0010
0001
0010
0100
0010
0100
1000
,
0001
1000
0001
0100
0010
0100
0010
1000
0001
1000
0001
0010
0001
0010
0001
1000
,
0010
1000
0010
0100
0001
0100
0001
1000
0100
1000
0100
0010
0001
0010
0001
0100
,
0010
0100
0010
1000
0001
1000
0001
0010
0100
0010
0100
1000
0001
1000
0001
0100
,
0010
0100
0010
1000
0100
1000
0100
0010
0001
0010
0001
1000
0010
1000
0010
0100
,
0001
0100
0001
1000
0100
1000
0100
0010
0001
0010
0001
0100
0010
0100
0010
1000
,
0001
1000
0001
0010
0100
0010
0100
1000
0001
0100
0001
1000
0100
0010
0001
0010
,
0100
1000
0001
0100
0010
1000
0100
0010
0100
1000
0001
0100
0010
1000
0001
0100
,
0001
1000
0100
0000
0010
0001
0010
0000
0001
0100
0001
0000
1000
0100
1000
0000
,
0001
0010
0001
0000
0100
0010
0100
0000
0001
1000
0001
0000
1000
0100
1000
0000
,
0001
0010
0001
0000
1000
0010
1000
0000
0001
0100
0001
0000
1000
0100
1000
0000
,
0001
0010
0001
0000
0100
0010
0100
0000
0001
1000
0001
0000
0100
0010
0100
0000
,
0001
0010
0001
0000
1000
0100
1000
0000
0100
0010
0100
0000
1000
0001
1000
0000
,
0010
0100
0010
0000
0100
0001
0100
0000
0010
1000
0010
0000
1000
0100
1000
0000
,
0001
0010
0001
0000
1000
0100
1000
0000
0001
0100
0001
0000
1000
0010
1000
0000
,
0001
0010
0001
0000
0100
0010
0100
0000
0001
1000
0001
0000
0010
0100
0010
0000
,
0001
0100
0010
0000
1000
0001
0010
0000
0100
1000
0001
0000
0100
0010
1000
0000
,
0001
0010
0100
0000
1000
0001
0100
0000
0001
0100
0010
0000
1000
0001
0010
0000
,
0100
1000
0001
0000
0010
0001
1000
0000
0100
0010
0001
0000
0100
0001
1000
0000
,
0100
0010
0001
0000
1000
0010
0100
0000
0001
1000
0100
0000
0010
0001
1000
0000
,
0001
0100
0010
1000
0001
0010
0100
1000
,
0001
0100
0001
0100
0010
1000
0001
0010
0100
0010
0001
1000
0100
0010
0100
1000
,
0001
1000
0001
0100
0010
0100
0001
1000
0100
0010
0001
1000
0001
0100
0010
1000
,
0001
0000
0000
0000
,
1000
0100
0010
0000
0001
0100
0010
0000
1000
0001
0010
0000
0100
1000
0001
0000
,
0100
0010
1000
0000
0001
0010
0100
0000
1000
0001
0100
0000
0010
1000
0100
0000
,
0010
0001
1000
0000
0100
1000
0001
0000
0100
0001
1000
0000
0100
1000
0010
0000
,
0100
0001
1000
0000
0010
1000
0001
0000
0010
0001
0100
0000
0001
1000
0100
0000
,
0010
0001
1000
0000
0010
1000
0100
0000
0010
0001
1000
0000
0001
0100
0010
0000
,
0100
0001
0010
0000
0100
1000
0001
0000
0010
0001
1000
0000
0100
1000
0010
0000
,
1000
0001
0010
0000
0001
1000
0100
0000
1000
0001
0100
0000
0010
0100
0001
0000
,
0100
0001
0010
0000
0100
1000
0001
0000
0010
0001
0100
0000
0010
1000
0100
0000
,
1000
0001
0100
0000
0001
0010
0100
0000
0010
0001
1000
0000
0010
1000
0100
0000
,
1000
0001
0100
0000
0010
1000
0100
0000
0010
0001
1000
0000
0100
1000
0001
0000
,
0100
0001
0010
0000
0100
0010
0001
0000
1000
0010
0100
0000
0001
0100
0010
0000
,
1000
0100
0010
0000
0001
0100
0010
0000
1000
0001
1000
0000
0001
1000
0001
0000
,
0010
0001
0100
0000
0001
1000
0100
0000
0010
0001
1000
0000
0010
0100
0001
0000
,
0010
0001
1000
0000
0100
0010
0001
0000
0010
0100
1000
0000
0100
0010
0001
0000
,
1000
0001
0100
0000
0010
1000
0001
0000
0100
0010
1000
0000
0001
0100
0010
0000
,
1000
0001
1000
0000
0001
0100
0001
0000
1000
0010
1000
0000
0001
0010
0001
0000
,
1000
0010
0100
0010
1000
0100
0010
0001
,
1000
0001
0100
0010
1000
0100
0020
0031
,
0101
0100
0110
0010
1000
0100
0010
0001
,
1000
0000
0001
0000
0100
0000
0010
0000
1000
0000
1000
0000
0001
0000
0000
0010
,
0001
0100
0001
0010
0100
1000
0010
0100
,
0001
0000
1000
0000
0100
0000
0010
0000
0001
0000
1000
0000
0001
0000
0000
0100
,
0001
0000
0000
1000
0010
0000
0100
0000
0001
0000
0010
0000
0100
0000
1000
0000
,
1010
0010
0110
0100
0001
0010
0200
0000
,
1300
0100
0010
0001
,
1000
0001
0100
0010
,
1000
0100
0010
0100
,
1000
0001
0100
0010
,
1000
0001
0010
0100
0010
0001
1000
0001
,
0100
0001
1000
0100
0010
0001
0100
0010
,
1000
0001
0010
0100
0010
0001
0100
0010
1000
0001
0010
0100
0010
0001
1000
0010
,
0100
0000
0000
0000
,
1000
0010
1000
0000
0001
0100
0010
0000
M1MM
0000
0001
0100
0010
1000
0001
0000
,
MMMM
0000
1000
0100
0010
0100
1000
0000
M1M1
0000
0001
0100
0010
1000
0001
0000
,
MMMM
0000
1000
0100
0010
0001
1000
0000
MM11
0000
0001
1000
0100
0010
0100
0000
,
MMMM
0000
0010
0001
1000
0010
1000
0000
0001
0100
0001
0100
0010
1000
0001
0000
,
MMMM
0000
1000
0100
0010
0100
1000
0000
1MM1
0000
0001
0010
0100
1000
0100
0000
,
MMMM
0000
1000
0001
0100
0001
0100
0000
MMM1
0000
0010
0100
0010
0100
1000
0000
,
MMMM
0000
0001
0100
0010
1000
0001
0000
1MM1
0000
1000
0100
0010
0100
1000
0000
,
MMMM
0000
0001
0100
0010
0100
0010
0000
M00M
0000
1000
0100
1000
0001
1000
0000
,
MMMM
0000
0001
0100
0001
0000
1000
0000
1100
0000
0100
0000
0010
0001
1000
0000
,
MMMM
0000
0001
0100
0010
1000
0100
0000
M11M
0000
0010
0001
1000
0100
0010
0000
,
MMMM
0000
0001
0100
0001
0010
0100
0000
M11M
0000
0010
0100
1000
0010
0100
0000
,
MMMM
0000
0001
1000
0010
0100
0010
0000
1000
0001
0010
0100
1000
0010
0100
0000
,
MMMM
0000
0001
0010
0100
1000
0010
0000
M11M
0000
0100
0001
1000
0100
0010
0000
,
MMMM
0000
0001
0100
0001
1000
0100
0000
0010
0001
0010
0001
0010
0000
0001
0000
,
0000
0000
0100
0000
0100
0010
1000
0100
0010
0001
1000
0010
0100
0001
0010
0100
,
1000
0000
0001
0100
0001
0100
0010
0000
0M0M
0000
1000
0100
1000
0100
0010
0000
,
0002
0003
1000
0000
0001
0000
0100
0000
,
0010
1000
0001
0010
,
0002
0003
1000
0000
0100
0000
0010
0000
,
2002
3003
0000
0000
;
