#TITLE:Awe Of She;
#SUBTITLE:- Guilty Gear XX;
#ARTIST:Daisuke Ishiwatari;
#TITLETRANSLIT:;
#SUBTITLETRANSLIT:;
#ARTISTTRANSLIT:;
#CREDIT:True Ancestor;
#BANNER:Dizzy1.jpg;
#BACKGROUND:Dizzy.jpg;
#LYRICSPATH:;
#CDTITLE:trueancestor.png;
#MUSIC:GuiltyGearXXAweofShe.mp3;
#OFFSET:0.000;
#SAMPLESTART:0.420;
#SAMPLELENGTH:17.120;
#SELECTABLE:YES;
#BPMS:0.000=479.996,69.000=240.000,85.000=240.000,581.000=29.999,583.000=240.000,585.000=240.000,711.000=120.000,713.000=59.999,714.000=29.999,714.500=14.999,714.750=7.499,715.000=240.000,715.250=240.000;
#STOPS:;
#BGCHANGES:0.000=guiltygearx=1.000=0=0=1,
69.000=guiltygearx.avi=1.000=0=0=1,
679.750=guiltygearx.avi=1.000=0=0=1,
715.000=dizzy.jpg=1.000=0=0=1,
99999=-nosongbg-=1.000=0=0=0 // don't automatically add -songbackground-
;
// cache tags:
#FIRSTBEAT:4.750;
#LASTBEAT:739.000;
#SONGFILENAME:Songs/toune/Guilty Gear XX - Awe Of She/GGXXDizzy.sm;
#HASMUSIC:1;
#HASBANNER:1;
#MUSICLENGTH:188.742;
// end cache tags

//---------------dance-single - Challenge----------------
#NOTES:
     dance-single:
     Challenge:
     Challenge:
     12:
     0.966,1.000,0.630,0.339,1.000,1093.000,119.000,64.000,0.000,0.000:

0000
0000
0000
0000
,
0000
0000
0000
1000
0000
0000
0000
0000
0000
0000
0000
0001
0000
0000
0000
0000
,
0000
0000
0000
1000
0000
0000
0000
0000
0000
0000
0000
0100
0000
0000
0000
0000
,
0000
0000
0000
0010
0000
0000
0000
0000
0000
0000
0000
1000
0000
0000
0000
0000
,
0000
0000
0000
0001
0000
0000
0000
0000
0000
0000
0000
0100
0000
0000
0000
0000
,
0000
0000
0000
0010
0000
0000
0000
0000
0000
0000
0000
1000
0000
0000
0000
0000
,
0000
0000
0000
0001
0000
0000
0000
0000
0000
0000
0000
0100
0000
0000
0000
0000
,
0000
0000
0000
1000
0000
0000
0000
0000
0000
0000
0000
0010
0000
0000
0000
0000
,
0000
0000
0000
0100
0000
0000
0000
0000
0000
0000
0000
1000
0000
0000
0000
0000
,
0000
0000
0000
0001
0000
0000
0000
0000
0000
0000
0000
0100
0000
0000
0000
0000
,
0000
0000
0000
0010
0000
0000
0000
0000
0000
0000
0000
1000
0000
0000
0000
0000
,
0000
0000
0000
0001
0000
0000
0000
0000
0000
0000
0000
0100
0000
0000
0000
0000
,
0000
0000
0000
1000
0000
0000
0000
0000
0000
0000
0000
0001
0000
0000
0000
0000
,
0000
0000
0000
0100
0000
0000
0000
0000
0000
0000
0000
0010
0000
0000
0000
0000
,
0000
0000
0000
1000
0000
0000
0000
0000
0000
0000
0000
0001
0000
0000
0000
0000
,
0000
0000
0000
0100
0000
0000
0000
1000
0000
0000
0000
0010
0000
0000
0000
0100
,
0000
0000
0000
0100
0000
0000
0000
0010
0000
0000
0000
1000
0000
0000
0000
0100
,
0000
0000
0000
0001
0000
0000
0000
0010
0000
0000
0000
1000
0000
0000
0000
0100
,
0000
0000
0000
0001
0000
0000
0000
0100
0000
0000
0000
0010
0000
0000
0000
1000
,
0000
0000
0000
0010
0000
0000
0000
0100
0000
0000
0000
1000
0000
0000
0000
0001
,
0000
0000
0000
0100
0000
0000
0000
0010
0000
0000
0000
0100
0000
0000
0000
0001
,
0000
0000
0000
1000
0000
0100
0000
1000
0000
0100
0000
0100
0000
0010
0000
0100
,
0000
1000
0000
0001
0000
0100
0000
0010
0000
0100
0000
1000
0000
0001
0000
0100
,
0000
0010
0000
0100
0000
0010
0000
1000
0000
0100
0000
1000
0000
0001
0000
0100
,
0000
0001
0000
0100
0000
0010
0000
0100
0000
1000
0000
0001
0000
0100
0000
0010
,
0000
0000
0000
0100
0000
0000
0000
1000
0000
0000
0000
0001
0000
0010
0000
0100
,
0000
0000
0000
1000
0000
0000
0000
0001
0000
0000
0000
0010
0000
0100
0000
0010
,
0000
0000
0000
0001
0000
0000
0000
0100
0000
0000
0000
0010
0000
0100
0000
1000
,
0000
0000
0000
0001
0000
1000
0000
0010
0000
0100
0000
1000
0000
0001
0000
0100
,
0000
0100
0000
1000
0000
0000
0000
0001
0000
0000
0000
0100
0000
0010
0000
0100
,
0000
0000
0000
0001
0000
0000
0000
0100
0000
0000
0000
1000
0000
0001
0000
1000
,
0000
0000
0000
0100
0000
0000
0000
0010
0000
0000
0000
0010
0000
0001
0000
0010
,
0000
0000
0000
1000
0000
0100
0000
1000
0000
0001
0000
0100
0000
0010
0000
0100
,
0000
0010
0000
0000
0000
1002
0000
0000
0000
0000
0000
0000
0000
0000
0000
0100
,
0000
0010
0000
2003
0000
0000
0000
0000
0000
0000
0000
0100
0000
0000
0000
0000
,
0000
0000
0000
3001
0000
0000
0000
0100
0000
0000
0000
1000
0000
0000
0000
0001
,
0000
0010
0000
1000
0000
0000
0000
0001
0000
0000
0000
1000
0000
0000
0000
0001
,
0000
0000
0000
2020
0000
0000
0000
0000
0000
0000
0000
0000
0000
0000
0000
3000
,
0000
0000
0002
0000
0000
0000
0003
0000
0000
2000
0000
0000
3000
0000
0000
0002
,
0000
0003
0000
0200
0000
0000
0000
0300
0000
2000
0000
0000
3000
0000
0031
0000
,
0000
0000
0000
0101
0000
0000
0000
1100
0000
0000
0000
0101
0000
0000
0000
1100
,
0000
0000
0000
2200
0000
0000
0000
0000
0000
0000
3000
0000
0000
0000
0000
0010
,
0000
1000
0000
2300
0000
0000
0000
0000
0000
0000
0000
0002
0000
0000
0000
0000
,
0003
0000
0000
0100
0000
0000
0000
0100
0000
0000
0000
0100
0000
0000
0000
0100
,
3000
0000
0000
0010
0000
0100
0000
0010
0000
0000
0000
1000
0000
0000
0000
0001
,
0000
0000
0000
2020
0000
0000
0000
0000
0000
0000
0000
0000
0000
0000
0000
3030
,
0000
0000
0000
0202
0000
0303
0000
0000
0000
2020
0000
3030
0000
0000
0000
2002
,
3003
0000
0000
2020
0000
3030
0000
0000
0000
0202
0000
0303
0000
0000
0000
2020
,
0000
3030
0000
2200
3300
0000
0000
2020
3030
0000
0000
0202
0303
0000
0000
0022
,
0033
0000
0000
2200
3300
0000
0000
1010
0000
0100
0000
0010
0000
1000
0000
0001
,
0000
0100
0000
1000
0000
0010
0000
0100
0000
1000
0000
0001
0000
0100
0000
0010
,
0000
1000
0000
0101
0000
0100
0000
0001
0000
0100
0000
0001
0000
1000
0000
0010
,
0000
0100
0000
0001
0000
1000
0000
0100
0000
0001
0000
1000
0000
0100
0000
0001
,
0000
1000
0000
1100
0000
0010
0000
0100
0000
0010
0000
0001
0000
0100
0000
1000
,
0000
0001
0000
0100
0000
0010
0000
1000
0000
0001
0000
1000
0000
0100
0000
0010
,
0000
0100
0000
2002
0000
0000
0000
0000
0000
0000
0000
0000
0000
0000
0000
0000
,
3000
0000
0000
0200
0000
0000
0000
0000
0000
0000
0000
0000
0000
0000
0000
0000
,
0303
0000
0000
1001
0000
0000
0000
0010
0000
0000
0000
0100
0000
1000
0000
0001
,
0000
0000
0000
0010
0000
0000
0000
0100
0000
0000
0000
1000
0000
0001
0000
0100
,
0000
0000
0000
0000
0000
1000
0000
0000
0000
0000
0000
0000
0000
0010
0000
0000
,
0000
0000
0000
0000
0000
1000
0000
0000
0000
0000
0000
0000
0000
0010
0000
0000
,
0000
0000
0000
0100
0000
0010
0000
0100
0000
0010
0000
0100
0000
1000
0000
0001
,
0000
1000
0000
0001
0000
1000
0000
0001
0000
1000
0000
0001
0000
1000
0000
0100
,
0000
1000
0000
0100
0000
1000
0000
0100
0000
1000
0000
0100
0000
1000
0000
0010
,
0000
1000
0000
0010
0000
1000
0000
0100
0000
0010
0000
0000
0000
0100
0000
0100
,
0000
0100
0000
0110
0000
0000
0000
1001
0000
0100
0000
0010
0000
1000
0000
0001
,
0000
0100
0000
0010
0000
1000
0000
0100
0000
1000
0000
0100
0000
0000
0000
0100
,
0000
0000
0000
1001
0000
0010
0000
0100
0000
0010
0000
1000
0000
0010
0000
0001
,
0000
0100
0000
1000
0000
0010
0000
0100
0000
0010
0000
0100
0000
0000
0000
0010
,
0000
0000
0000
1010
0000
0100
0000
0001
0000
0100
0000
0010
0000
1000
0000
0100
,
0000
0010
0000
1000
0000
0100
0000
0001
0000
0100
0000
0010
0000
0000
0000
0010
,
0000
0000
0000
0110
0000
0100
0000
0010
0000
0100
0000
0010
0000
0100
0000
0010
,
0000
1000
0000
0001
0000
0100
0000
1000
0000
0001
0000
0100
0000
0010
0000
0100
,
0000
0001
0000
0010
0000
0001
0000
0100
0000
0001
0000
0100
0000
1000
0000
0100
,
0000
1000
0000
0010
0000
1000
0000
0010
0000
1000
0000
0100
0000
0001
0000
0010
,
0000
0000
0000
2000
0000
0000
0000
0000
0000
0000
3000
0020
0000
0000
0000
0000
,
0000
0000
0030
2000
0000
0000
0000
0000
0000
0000
3000
0002
0000
0000
0000
0000
,
0000
0000
0003
1000
0000
0100
0000
1000
0000
0100
0000
1000
0000
0100
0000
1000
,
0000
0100
0000
0010
0000
0001
0000
0010
0000
0001
0000
0010
0000
0001
0000
0010
,
0000
0001
0000
1000
0000
0001
0000
1000
0000
0001
0000
1000
0000
0001
0000
1000
,
0000
0001
0000
0010
0000
0100
0000
1000
0000
1000
0000
0100
0000
0010
0000
0001
,
0000
0010
0000
0101
0000
0000
0000
0101
0000
0000
0000
1100
0000
0000
0000
1100
,
0000
0000
0000
0011
0000
0000
0000
0011
0000
0000
0000
0110
0000
0000
0000
0110
,
0000
0000
0000
1001
0000
0000
0000
0011
0000
0000
0000
1100
0000
0000
0000
1001
,
0000
0000
0000
1001
0000
0000
0000
1100
0000
0000
0000
0101
0000
0000
0000
1001
,
0000
0000
0000
1001
0000
0000
0000
0011
0000
0000
0000
1100
0000
0000
0000
0110
,
0000
0000
0000
0110
0000
0000
0000
0101
0000
0000
0000
0101
0000
0000
0000
1100
,
0000
0000
0000
1100
0000
0000
0000
0110
0000
0000
0000
1100
0000
0000
0000
0101
,
0000
0000
0000
0101
0000
0000
0000
1100
0000
0000
0000
0110
0000
0000
0000
1010
,
0000
0000
0000
2010
0000
0000
0000
0001
0000
0000
0000
0100
0000
0000
0000
0010
,
0000
3000
0000
1002
0000
0000
0000
1000
0000
0000
0000
0100
0000
0000
0000
0010
,
0000
0003
0000
1200
0000
0000
0000
1000
0000
0000
0000
0001
0000
0000
0000
1000
,
0000
0300
0000
1020
0000
0000
0000
0100
0000
0000
0000
0001
0000
0000
0000
1000
,
0000
0030
0000
0100
0000
1000
0000
0001
0000
0000
0000
0010
0000
0100
0000
1000
,
0000
0000
0000
0001
0000
0010
0000
0100
0000
0000
0000
1000
0000
0001
0000
1000
,
0000
0000
0000
0100
0000
0010
0000
0100
0000
0000
0000
1000
0000
0001
0000
0100
,
0000
0000
0000
0010
0000
0100
0000
0001
0000
0100
0000
1000
0000
0100
0000
0001
,
0000
1000
0000
0001
0000
1000
0000
0001
0000
0100
0000
0010
0000
0100
0000
1000
,
0000
0001
0000
0100
0000
0010
0000
1000
0000
0100
0000
0010
0000
0001
0000
1000
,
0000
0100
0000
1000
0000
0100
0000
1000
0000
0100
0000
0010
0000
0100
0000
1000
,
0000
0001
0000
0100
0000
0010
0000
0100
0000
0001
0000
0100
0000
0001
0000
0010
,
0000
0001
0000
0010
0000
0001
0000
0100
0000
0001
0000
0100
0000
0010
0000
0001
,
0000
0100
0000
1000
0000
0100
0000
0001
0000
0100
0000
1000
0000
0010
0000
0001
,
0000
0010
0000
1000
0000
0010
0000
0001
0000
0010
0000
1000
0000
0100
0000
0001
,
0000
1000
0000
0100
0000
0010
0000
1000
0000
0001
0000
1000
0000
0100
0000
0001
,
0000
0000
0000
1000
0000
0010
0000
0001
0000
1000
0000
0100
0000
0001
0000
0010
,
0000
0100
0000
1000
0000
0001
0000
0100
0000
0010
0000
0100
0000
1000
0000
0001
,
0000
0100
0000
0010
0000
1000
0000
0001
0000
0100
0000
0010
0000
1000
0000
0001
,
0000
0100
0000
0001
0000
0100
0000
0010
0000
0001
0000
0100
0000
1000
0000
0100
,
0000
1000
0000
0100
0000
0010
0000
0100
0000
1000
0000
0001
0000
0100
0000
0010
,
0000
0100
0000
0001
0000
0100
0000
0010
0000
0100
0000
1000
0000
0100
0000
0010
,
0000
1000
0000
0100
0000
1000
0000
0010
0000
1000
0000
0100
0000
0001
0000
0100
,
0000
0010
0000
1100
0000
0000
0000
0011
0000
0000
0000
0110
0000
0000
0000
0101
,
0000
0000
0000
1001
0000
0100
0000
1000
0000
0100
0000
1000
0000
0100
0000
1000
,
0000
0100
0000
1000
0000
0101
0000
0010
0000
0100
0000
0010
0000
0100
0000
1000
,
0000
0001
0000
0100
0000
1010
0000
0100
0000
0001
0000
0100
0000
0010
0000
0100
,
0000
1000
0000
0001
0000
0110
0000
1000
0000
0100
0000
0010
0000
0100
0000
0001
,
0000
0100
0000
0010
0000
1001
0000
0010
0000
0100
0000
1000
0000
0001
0000
0100
,
0000
0010
0000
0100
0000
0101
0000
1000
0000
0001
0000
1000
0000
0100
0000
0010
,
0000
1000
0000
0001
0000
0110
0000
0001
0000
0100
0000
0010
0000
1000
0000
0001
,
0000
0100
0000
0010
0000
1001
0000
0100
0000
1000
0000
0001
0000
0100
0000
0010
,
0000
0100
0000
0010
0000
1001
0000
0100
0000
0001
0000
0100
0000
0010
0000
1000
,
0000
0010
0000
0100
0000
0101
0000
0100
0000
1000
0000
0100
0000
0010
0000
1000
,
0000
0001
0000
0200
0000
0000
0000
0000
0000
0000
0300
0002
0000
0000
0000
0000
,
0000
0000
0003
2000
0000
0000
0000
0000
0000
0000
3000
0020
0000
0000
0000
0000
,
0000
0000
0030
1000
0000
0100
0000
0010
0000
0001
0000
0010
0000
0100
0000
1000
,
0000
0100
0000
0010
0000
0001
0000
0010
0000
0100
0000
1000
0000
0100
0000
0010
,
0000
0001
0000
0010
0000
0100
0000
1000
0000
0100
0000
0010
0000
0001
0000
0010
,
0000
0100
0000
1000
0000
0100
0000
0010
0000
0100
0000
0000
0000
0010
0000
0010
,
0000
0010
0000
1001
0010
0100
0000
1000
0000
0001
0000
0100
0000
0010
0000
1000
,
0000
0001
0000
0100
0010
1000
0000
0100
0000
0001
0000
1000
0000
0100
0000
0001
,
0000
1000
0000
0001
0100
0010
0000
1000
0000
0100
0000
0010
0000
1000
0000
0001
,
0000
0100
0000
0010
0001
0100
0000
0010
0000
0100
0000
0010
0000
0100
0000
0001
,
0000
0100
0000
0001
1000
0001
0000
0100
0000
0010
0000
1000
0000
0100
0000
1000
,
0000
0100
0000
1000
0100
0010
0000
0100
0000
1000
0000
0100
0000
1000
0000
0010
,
0000
1000
0000
0100
0010
0001
0000
0100
0000
1000
0000
0001
0000
0100
0000
0001
,
0000
0100
0000
0010
1000
0001
0000
0100
0000
0010
0000
1000
0000
0100
0000
1000
,
0000
0100
0000
0010
0001
0100
0000
0001
0000
0100
0000
0010
0000
0001
0000
0100
,
0000
1000
0000
0001
0100
0010
0000
1000
0000
0100
0000
0001
0000
0100
0000
0010
,
0000
1000
0000
0001
0010
0000
0000
0000
0000
0000
0000
0000
0001
0000
0000
0000
,
0000
1000
0000
0001
,
0000
0000
0000
1000
0000
0100
0000
0010
0000
0001
0000
0010
0000
0100
0000
1000
,
0000
0100
0000
0010
0000
0001
0000
1000
0000
0100
0000
0010
0000
0001
0000
1000
,
0000
0100
0000
0010
0000
0001
0000
0001
0000
0010
0000
0100
0000
1000
0000
0001
,
0000
0010
0000
0100
0000
1000
0000
0100
0000
0100
0000
0010
0000
0001
0000
1001
,
0000
1001
0000
0000
0002
0000
0023
0000
2030
0000
3200
0000
0310
0001
0000
0010
,
0000
0100
0000
0001
0000
1000
0000
0100
0000
0001
0000
0010
0000
1000
0000
0100
,
0000
0100
0000
0001
0000
1000
0000
0010
0000
0100
0000
1000
0000
0001
0000
0100
,
0000
0010
0000
1000
0000
0100
0000
1000
0000
0100
0000
0001
0000
0100
0000
0010
,
0000
0100
0000
0001
0000
1000
0000
0100
0000
1000
0000
0001
0000
0010
0000
0100
,
0000
0010
0000
0100
0000
0010
0000
0100
0000
0100
0000
1000
0000
0001
0000
0100
,
0000
0010
0000
0100
0000
1000
0000
0001
0000
0001
0000
0100
0000
1000
0000
0001
,
0000
0100
0000
1000
0000
0001
0000
0100
0000
0010
0000
0100
0000
1000
0000
0001
,
0000
1000
0000
0100
0000
0010
0000
0001
0000
0010
0000
0100
0000
1000
0000
0100
,
0000
0001
0000
1000
0000
0100
0000
1000
0000
0100
0000
1000
0000
0001
0000
1000
,
0000
0100
0000
0001
0000
1000
0000
0001
0000
1000
0000
0001
0000
1000
0000
0001
,
0000
1000
0000
0001
0000
1000
0000
0001
0000
1000
0000
0202
0000
0000
0000
0000
,
0000
0000
0000
0000
0000
0000
0000
0000
0303
1000
0100
0010
0000
0010
0000
0100
,
0000
1000
0000
0100
0000
1000
0000
0100
0000
0001
0000
0100
0000
0010
0000
0001
,
0000
0010
0000
0100
0000
0010
0000
0001
0000
1000
0000
0100
0010
0100
0010
0100
,
0010
0100
0010
0100
0010
0100
0010
0100
0010
0100
0010
0100
0010
1000
0100
1000
,
0100
1000
0100
1000
0100
0001
0100
0001
0100
0001
0100
0101
0000
0000
0000
1010
,
0000
0000
0000
0011
0000
0000
0000
1100
0000
0000
0000
0110
0000
0000
0000
0011
,
0000
0000
0000
1100
0000
0000
0000
0101
0000
0000
0000
1100
0000
0000
0000
0101
,
0000
0000
0000
0110
0000
0000
0000
0110
0000
0000
0000
0011
0000
0000
0000
1100
,
0000
0000
0000
0101
0000
0000
0000
1001
0000
0000
0000
0101
0000
0000
0000
1100
,
0000
0000
0000
1100
0000
0000
0000
1001
0000
0000
0000
1001
0000
0000
0000
0110
,
0000
0000
0000
0101
0000
0000
0000
1001
0000
0000
0000
1010
0000
0000
0000
0101
,
0000
0000
0000
0110
0000
0000
0000
1100
0000
0000
0000
0101
0000
0000
0000
1100
,
0000
0000
0000
1100
0000
0000
0000
0101
0000
0000
0000
1100
0000
0000
0000
0101
,
0000
0000
0000
0101
0010
0100
0000
1000
0100
1000
0000
0001
0100
0001
0000
0100
,
0010
0100
0000
1000
0100
1000
0000
0100
0010
0100
0000
0010
0001
0010
0000
0100
,
1000
0100
0000
0100
0010
0100
0000
0010
0001
0010
0000
0100
0001
0100
0000
0100
,
1000
0100
0000
0010
1000
0010
0000
1000
0100
1000
0000
0010
1000
0010
0000
0100
,
0001
0100
0000
0010
0100
0010
0000
0100
1000
0100
0000
1000
0100
0010
0000
0001
,
0010
0100
0000
1000
0100
1000
0000
0100
0010
0100
0000
0100
0001
0100
0000
0010
,
0100
0010
0000
0001
0100
0001
0000
1000
0100
1000
0000
0100
0010
0100
0000
1000
,
0010
1000
0000
0100
0010
0100
0000
0001
0010
0100
0000
0000
2000
0000
0000
0000
,
0000
0000
0000
0000
3002
0000
0000
0000
0203
0300
0020
0130
2002
0000
0000
0000
,
0000
0000
0000
0000
,
0000
0000
0000
0000
,
0000
0000
0000
0000
,
0000
0000
0000
0000
,
0000
0000
0000
0000
,
0000
0000
0000
3003
;
