#TITLE:Our Lost Ones;
#SUBTITLE:;
#ARTIST:Imil;
#TITLETRANSLIT:;
#SUBTITLETRANSLIT:;
#ARTISTTRANSLIT:;
#CREDIT:Tyler;
#BANNER:our lost bn.png;
#BACKGROUND:our lost bg.png;
#LYRICSPATH:;
#CDTITLE:;
#MUSIC:Our Lost Ones.ogg;
#OFFSET:-0.020;
#SAMPLESTART:105.540;
#SAMPLELENGTH:19.200;
#SELECTABLE:YES;
#BPMS:0.000=200.000;
#STOPS:;
#BGCHANGES:;
// cache tags:
#FIRSTBEAT:14.000;
#LASTBEAT:608.000;
#SONGFILENAME:Songs/SPEEEDCOOOORE 2/Our Lost Ones - [Tyler]/Our Lost Ones.sm;
#HASMUSIC:1;
#HASBANNER:1;
#MUSICLENGTH:184.842;
// end cache tags

//---------------dance-single - T. Moore----------------
#NOTES:
     dance-single:
     T. Moore:
     Challenge:
     12:
     0.938,1.000,0.433,1.000,0.392,932.000,80.000,190.000,56.000,5.000:

0000
0000
0000
0000
,
0000
0000
0000
0000
,
0000
0000
0000
0000
,
0000
0000
00M0
0000
,
0000
0000
0000
0000
,
0000
0000
0M00
0000
,
0000
0000
0000
0000
,
0000
0000
000M
0000
,
2000
0000
0000
0000
0001
0000
0000
3000
2000
0000
0000
0000
0001
0000
0000
3000
,
2000
0000
0000
0000
0001
0000
0000
3000
M020
0000
0000
0000
0230
0000
0000
0000
,
2300
0000
0000
0000
0001
0000
0000
3000
2000
0000
0000
0000
0001
0000
0000
3000
,
0010
0001
20M0
3020
,
0230
0000
0000
0000
0001
0000
0000
0300
0200
0000
0000
0000
0001
0000
0000
0300
,
1000
0001
M020
0230
,
1000
0000
0000
0300
0002
0000
0000
0000
1000
0000
0000
0003
0001
0000
0000
0000
,
0010
0001
01M0
0010
,
2000
0000
0000
0000
0001
0000
0000
3000
2000
0000
0000
0000
0001
0000
0000
3000
,
2000
0000
0000
0000
0001
0000
0000
3000
02M0
0000
0000
0000
0320
0000
0000
0000
,
2030
0000
0000
0000
0001
0000
0000
3000
2000
0000
0000
0000
0001
0000
0000
3000
,
0010
0100
20M0
3002
,
0203
0000
0000
0000
0010
0000
0000
0300
0200
0000
0000
0000
0001
0000
0000
0300
,
1000
0001
0M20
0230
,
1000
0000
0000
0300
0002
0000
0000
0000
1000
0000
0000
0003
0001
0000
0000
0000
,
0100
0001
0M10
0001
,
2444
0333
0000
0000
0000
0000
0000
0000
,
0000
0000
0000
3000
,
0002
0000
0000
0000
,
0000
0000
0000
0003
,
0020
0000
0000
0000
,
0000
0000
0000
0030
,
0200
0000
0000
0000
,
0000
0000
0000
0000
0000
0000
0000
0000
1000
0000
0000
0000
1000
0000
0000
0300
,
0041
0000
0031
0000
1000
0000
0001
0100
0001
0000
1000
0000
0100
0000
1000
0001
,
0100
0000
0100
0000
0010
0000
1000
0010
1000
0010
0100
0000
0001
0000
1000
0001
,
0100
0000
0000
0000
0010
0000
0100
0001
0100
0001
1000
0000
0100
0000
0010
0001
,
1000
0000
0001
0000
0010
0000
0100
1000
0001
0000
1000
0001
0000
1000
0001
0000
,
0100
0000
0001
0000
0010
0000
0100
1000
0100
1000
0001
0000
0100
0000
0001
1000
,
0010
0000
0010
0000
0100
0000
0010
1000
0010
1000
0001
0000
0010
0000
0100
1000
,
0001
0000
0000
0000
0100
0000
0010
1000
0010
1000
0001
0000
0010
0000
0100
1000
,
0001
0000
0000
0000
0001
0000
0000
0000
0404
0000
0000
0303
4040
0000
0000
3030
,
0001
0010
0100
0010
0001
1000
0010
1000
,
0001
0000
0010
0000
0100
0000
0010
0000
0001
0000
1000
0000
0010
0000
1000
0001
,
0010
0100
1000
0100
0010
0001
0100
0001
,
1000
0000
0010
0000
0100
0000
0010
0000
1000
0000
0001
0000
0010
0100
0010
0100
,
1000
0001
0100
0001
1000
0010
0100
0010
,
1000
0000
0000
0000
0000
0000
0001
0000
0000
0000
0000
0000
0010
0000
0000
0000
0000
0000
0001
0000
0000
0000
0000
0000
1000
0000
0000
0000
0000
0000
0100
0000
0000
0010
0000
0000
0001
0000
0000
0000
0000
0000
1000
0000
0001
0000
1000
0000
,
0001
0100
0010
0100
0001
0010
0100
0010
,
0001
0000
1000
0000
0010
0000
1000
0000
2002
0000
0000
3003
2002
0000
0000
3003
,
1000
0010
0100
0001
1000
0001
0100
0010
1000
0000
0001
0000
0010
0000
0001
0000
,
1000
0000
0000
0010
0000
0000
0100
0000
0000
0010
0000
0000
1000
0000
0000
0001
1000
0001
0100
0000
0000
0001
1000
0001
,
0100
0010
1000
0010
0100
0001
0010
0100
,
1000
0000
0010
0000
0100
0000
0001
0000
1000
0001
1000
0001
1000
0001
1000
0001
,
1000
0100
0010
0001
1000
0010
0100
0001
,
1000
0000
0001
0000
0100
0000
0010
0000
1000
0000
0100
0000
0010
0000
0100
1000
,
0002
0000
0000
0003
2002
0000
0000
3003
2002
0000
0000
3003
1001
0000
0001
0000
,
2022
0000
0000
0000
3033
0000
0000
0000
2224
0000
0000
0000
0000
0000
0000
3333
,
1000
0010
0100
0001
1000
0001
0100
0010
1000
0000
0001
0000
0010
0000
0100
0000
,
1000
0000
0001
0000
0100
0000
0010
0000
1000
0000
0010
0000
0100
0000
0001
1000
,
0100
0010
0001
1000
0010
0100
0001
1000
,
0100
0000
1000
0000
0010
0000
0100
0000
0001
0100
0001
0100
0001
0100
0001
0100
,
0001
1000
0010
1000
0001
0010
0100
1000
,
0001
0000
1000
0000
0100
0000
0010
0000
0001
0000
1000
0000
0010
0000
0100
0001
,
1000
0100
0010
0001
1000
0001
0100
0010
,
1000
0000
0001
0000
1000
0000
0001
0000
0020
0000
0000
0030
0220
0000
0000
0330
,
1000
0100
0010
0100
1000
0010
0100
0010
,
1000
0000
0001
0000
0010
0000
0100
0000
1000
0000
0001
0000
1000
0000
0010
0100
,
0001
1000
0100
1000
0010
0100
0001
0100
,
0010
0000
1000
0000
0100
0000
1000
0000
0001
1000
0001
1000
0001
1000
0001
1000
,
0001
0100
0010
1000
0001
1000
0010
0100
0001
0100
0010
0100
0001
1000
0001
0100
,
0001
1000
0100
1000
0001
0010
0001
1000
0100
0010
0001
0100
0001
0100
0001
0010
,
0100
1000
0100
1000
0001
1000
0100
0010
0001
1000
0001
0100
0001
1000
0010
1000
,
0200
0300
1000
1000
,
2001
0000
0001
3000
1000
0000
0100
0000
0100
0000
0001
0000
0100
0000
0100
0000
,
1000
0100
0100
0001
0100
0100
1000
0100
,
0010
0010
1000
0010
0010
0001
0010
0010
,
1000
0010
0010
0001
0010
0010
1000
0001
,
0100
0100
0010
0100
0100
0010
0100
0100
,
0010
0100
0100
0010
0100
0100
0010
0001
,
0100
0100
1000
0100
0100
0001
0010
0010
,
1000
0010
0010
0001
0100
0100
1000
0001
,
0100
0100
1000
0100
0100
0001
0100
0100
,
1000
0100
0100
0001
0100
0100
1000
0100
,
0010
0010
1000
0010
0010
0001
0010
0010
,
1000
0010
0010
0001
0010
0010
1000
0001
,
0100
0100
0010
0100
0100
0010
0100
0100
,
0010
0100
0100
0010
0100
0100
0010
0001
,
0100
0100
1000
0010
0010
0001
0010
0010
,
1000
0000
0100
0000
0100
0000
0001
0000
1000
0001
1000
0001
1000
0001
1000
0001
,
2000
3000
2020
3030
2002
3003
0022
0033
,
0220
0330
2200
3300
0022
0033
0202
0303
,
2020
3030
2002
3003
2002
3003
0202
0303
,
2020
3030
0202
0303
0022
0033
1200
1300
,
2002
3003
0220
0330
0220
0330
0202
0303
,
0022
0033
2200
3300
0202
0303
2020
3030
,
2022
3033
0222
0333
,
2222
0000
0000
0000
3333
0000
0000
0000
0001
0100
0001
0100
0001
0100
0001
0100
,
0020
0030
2020
3030
2002
3003
2200
3300
,
0022
0033
2200
3300
2020
3030
0202
0303
,
0202
0303
2020
3030
2002
3003
2200
3300
,
0022
0033
2200
3300
2020
0000
3030
0000
,
0202
0303
2020
3030
2002
3003
2200
3300
,
0022
0033
2200
3300
2020
3030
0201
0301
,
1002
1003
2100
3100
0012
0013
2100
3100
,
2002
3003
0000
0000
,
1000
0100
0010
0001
0100
0010
1000
0100
,
0010
0001
0100
0010
1000
0100
0010
0001
,
1000
0010
0100
0001
0010
0100
1000
0010
,
0100
0000
0001
0000
0010
0000
0100
0000
1000
0000
0010
0000
0100
0000
0001
1000
,
0001
0100
0010
1000
0100
0010
0001
0100
,
0010
0000
1000
0000
0100
0000
0010
0000
0001
1000
0001
0100
0010
1000
0001
1000
,
0100
0010
0001
0100
0010
1000
0100
0010
,
0001
0100
0010
1000
2200
3300
2200
3300
,
0001
0100
0010
1000
0100
0010
0001
0100
,
0010
0000
0000
0000
0000
0000
1000
0000
0000
0000
0000
0000
0100
0000
0000
0000
0000
0000
0010
0000
0000
0000
0000
0000
0001
0000
0000
0000
0000
0000
1000
0000
0000
0001
0000
0000
1000
0000
0000
0000
0000
0000
0001
0000
0100
0000
0001
0000
,
0100
0010
1000
0100
0010
0001
0100
0010
,
1000
0000
0100
0000
0010
0000
0001
0000
0100
0000
0010
0000
1000
0001
1000
0001
,
1000
0010
0100
0001
0010
0100
1000
0010
,
0100
0001
0010
0100
1000
0010
0100
0001
,
0010
0100
0010
0100
0010
0100
0010
0100
0010
0100
0010
0100
0010
0100
0010
0100
,
2000
0000
3000
0000
0022
0000
0033
0000
0001
1000
0001
1000
0001
1000
0001
1000
,
0001
0100
0010
1000
0100
0010
0001
0100
,
0010
1000
0100
0010
0001
0100
0010
1000
,
0010
0100
0001
0010
0100
1000
0010
0100
,
0001
0000
0010
0000
0100
0000
1000
0000
0010
1000
0001
1000
0100
0010
0001
1000
,
0001
0100
0010
1000
0100
0010
0001
0100
,
0010
0000
0000
1000
0000
0000
0100
0000
0000
0010
0000
0000
0001
0000
0000
1000
0010
1000
0001
0000
0000
1000
0010
1000
,
0001
1000
0010
0100
0001
0010
0100
1000
,
0010
0000
0100
0000
0001
0000
0010
0000
0100
1000
0100
1000
0100
1000
0100
1000
,
0100
0010
0001
0100
0010
1000
0100
0010
,
0001
0100
0010
1000
2002
3003
2002
3003
,
1000
0010
0100
0001
0010
0100
1000
0010
,
0100
0001
0010
0100
2200
0000
3300
0000
,
1000
0010
0100
0001
0010
0100
1000
0010
,
0100
0000
0001
0000
0010
0000
0100
0000
1000
0001
1000
0001
1000
0001
1000
0001
,
2000
3000
0022
0033
2002
3003
2010
3010
,
0202
0303
2020
3030
2002
0000
3003
0000
,
0004
4000
0000
0000
0000
0000
0000
0000
0000
0000
0000
0000
3003
0000
0000
0000
0000
0000
0000
0000
0000
0000
0000
0000
,
0000
0000
0000
0000
,
0020
0000
0000
0000
,
0000
0000
0000
0030
,
2000
0000
0000
0000
,
0000
0000
0010
3001
,
0200
0010
0000
0000
,
0000
0000
0000
0000
0000
0000
0000
0000
0000
0000
0000
0000
03M0
00M0
00M0
00M0
,
20M1
0000
0000
0000
0M00
0M00
0M00
0M00
0M00
0000
0000
0000
000M
000M
000M
000M
,
000M
0000
0000
0000
00M0
00M0
00M0
00M0
00M0
0000
0000
0000
3M00
0M00
0M00
0M00
,
0M20
0000
0000
0000
000M
000M
000M
000M
000M
0000
0000
0000
0M00
0M00
0M00
0M00
,
0M00
0000
0000
0000
M000
M000
M000
M000
M000
0000
0000
0000
003M
000M
000M
000M
,
020M
0000
0000
0000
,
0000
0000
0001
0310
,
2000
0100
0000
0000
,
0000
0000
0000
0000
,
3000
0000
0000
0000
;
