#TITLE:Necrofantasia;
#SUBTITLE:-hellion mix-;
#ARTIST:Hellion Sounds;
#TITLETRANSLIT:;
#SUBTITLETRANSLIT:;
#ARTISTTRANSLIT:;
#CREDIT:;
#BANNER:../fallback-bn.png;
#BACKGROUND:../fallback-bg.png;
#LYRICSPATH:;
#CDTITLE:monst3rjoe - cdtitle.png;
#MUSIC:necrofantasia.ogg;
#OFFSET:-0.106;
#SAMPLESTART:83.947;
#SAMPLELENGTH:24.000;
#SELECTABLE:YES;
#BPMS:0.000=172.000;
#STOPS:;
#BGCHANGES:;
// cache tags:
#FIRSTBEAT:17.000;
#LASTBEAT:552.000;
#SONGFILENAME:Songs/SSSC PACK/[Monst3rjoe] - Necrofantasia (Hellion Sounds mix)/11 - Hellion Sounds - Necrofantasia.sm;
#HASMUSIC:1;
#HASBANNER:1;
#MUSICLENGTH:199.582;
// end cache tags

//---------------dance-single - Blank----------------
#NOTES:
     dance-single:
     Blank:
     Challenge:
     15:
     1.000,1.000,0.486,1.000,1.000,1529.000,97.000,411.000,82.000,8.000:

0000
0000
0000
0000
,
0000
0000
0000
0000
,
0000
0000
0000
0000
,
0000
0000
0000
0000
,
0000
0000
0000
0000
0101
0000
0001
0100
0001
0100
0010
1000
0010
1000
0001
1000
,
0001
1000
0100
1000
0100
0010
0001
0010
0001
1000
0001
1000
0001
0000
1000
0000
,
0110
0000
0001
0000
0020
0000
0130
1000
0100
1000
0010
0100
0001
0010
0001
1000
,
0100
0000
0000
0100
0000
0000
0011
0000
0000
0001
0100
0010
1000
0000
0000
1010
0000
0000
1000
0010
0100
0001
0000
0000
,
1001
1100
0002
0003
11M1
0000
0000
1M11
,
0000
0000
111M
0000
0000
M111
0000
0101
,
0011
2100
0000
3000
11M1
0000
0000
111M
,
0000
0000
0000
0000
M111
0000
0000
0000
0000
0000
1M11
0000
0000
1000
0010
0100
,
0001
0010
0001
0010
0100
0000
1000
0000
0001
0010
0000
1000
0100
0000
0001
0010
,
0000
0000
MMMM
0000
0000
0000
0000
0000
0001
0000
1000
0000
0002
0000
0023
0030
0100
0000
0020
0000
0032
0003
1000
0000
0200
0000
0320
0030
0100
0000
2000
0000
,
3020
0030
0100
0000
0002
0000
0023
0030
0100
0000
1000
0000
0020
0000
0230
0300
0001
0000
0020
0000
0032
0003
0100
0000
0020
0000
2030
3000
0001
0000
0020
0000
,
0032
0003
0100
0000
0020
0000
2030
0000
3100
0000
0010
0000
0002
0000
0023
0030
0100
0000
2000
0000
3002
0003
1000
0000
0020
0000
2030
3000
0001
0000
0200
0000
,
0302
0003
0010
0000
0002
0000
0203
0300
0010
0000
1000
0000
0200
0000
0320
0030
0100
0000
2000
0000
3020
0030
0100
0000
0002
0000
0023
0030
0001
0000
0200
0000
,
0320
0030
1000
0000
0200
0000
2300
3000
0001
0000
0100
0000
0020
0000
2030
3000
0001
0000
0020
0000
0230
0300
1000
0000
0020
0000
0230
0300
0010
0000
2000
0000
,
3200
0300
1000
0000
0002
0000
0203
0300
0001
0000
0010
0000
0200
0000
2300
3000
0001
0000
0200
0000
0302
0003
1000
0000
0020
0000
2030
3000
0001
0000
0200
0000
,
0302
0003
0010
0000
0001
0000
2000
0000
3200
0300
0010
0000
0002
0000
0023
0030
0100
0000
2000
0000
3020
0030
0100
0000
0002
0000
0023
0030
0100
0000
2000
0000
,
3020
0030
0100
0000
0002
0000
0023
0030
0001
0000
0100
0000
0020
0000
2030
3000
0100
0000
0020
0000
0032
0003
0010
0000
0200
0000
2300
3000
0010
0000
0200
0000
,
0302
0003
2000
0000
3010
0000
1000
0000
0100
0000
0000
0000
MMMM
0000
0000
0000
0012
0000
0000
0000
01M3
0000
0000
0000
0000
0000
0000
0000
0120
0000
0000
0000
,
1M30
0000
1010
MMMM
1200
M310
0000
0120
,
0M31
0000
1000
0011
0011
1000
1200
0000
,
0020
0000
0000
0000
0000
0000
0000
0000
0000
0000
0000
0000
0330
0000
0000
0001
0000
0000
1000
0000
0000
0100
0000
0000
0010
0000
0000
0001
0000
0000
0000
0000
0000
0000
0000
0000
0011
0000
0000
0000
0000
0000
0001
0000
0100
0000
0001
0000
,
0100
0010
1000
0001
0000
0000
0101
0000
0000
MMMM
0000
0000
2100
0000
0000
3M10
0000
0000
0000
0000
0000
0210
0000
0000
,
03M1
0000
1001
MMMM
0021
013M
0000
0210
,
13M0
0000
0011
MMMM
2010
31M0
0000
0012
,
02M3
0000
M0M0
0300
0001
0100
0001
1000
0010
1000
0010
0100
0001
1000
0001
0100
,
0002
0000
0000
0000
0203
0310
1000
0100
0010
0001
0010
0100
1000
0100
1000
0010
,
0100
0001
0010
0001
0020
0130
1000
0010
0100
0001
1000
0100
1000
0010
0100
0001
,
0100
0001
0010
0100
2000
3010
0100
0010
1000
0100
2000
3001
0100
0010
0100
0001
,
2000
3100
0010
0001
0010
0100
0010
0001
0100
0010
1000
0100
1000
0001
0100
0010
,
0100
0001
1000
0010
0200
0310
1000
0100
0010
0100
1000
0010
0100
0001
0010
0001
,
0100
0010
0100
0001
2000
3100
0010
0001
0010
0100
1000
0010
0100
0001
1000
0100
,
0010
0001
0100
0010
0200
0301
0010
0100
1000
0010
0100
0001
0010
0001
0100
0010
,
1000
0010
0100
0001
2000
3100
0010
0001
0010
0100
2000
3001
0100
0001
1000
0010
,
2000
3100
1000
0100
0020
0000
0031
0000
0200
0000
0310
0000
1000
0000
0100
0000
,
2000
3020
0130
1000
0100
0001
0010
0100
,
0001
0100
2000
3010
0200
0301
2000
3100
,
0020
0032
0103
0010
2000
3100
2000
3010
,
0200
0302
0013
0001
0200
1300
0200
0310
,
2000
3200
0310
0001
0020
2030
3010
0001
,
0200
0310
2000
3100
2000
3002
0103
0010
,
2000
0000
0020
0000
0000
0000
0000
0000
3000
0000
0030
0000
1010
0001
0000
0010
,
0100
1000
0010
0100
0001
0000
0000
0000
0200
0000
0000
0000
0320
0000
0000
0000
,
1030
0200
0000
0000
0000
0000
0000
0000
,
0000
0320
0032
0203
,
0310
2000
0000
0000
0200
3000
0302
0000
,
0103
2000
0000
0000
0020
3000
0032
0000
,
0013
2000
0000
0000
3200
0000
0320
0000
,
0031
0000
0100
0000
0000
0000
0101
0000
0000
0011
0000
0000
1100
0000
0000
1001
,
0000
0000
0110
0000
1010
0000
0000
0101
0000
0000
0011
0000
0000
0110
0000
0000
,
1001
0000
0001
0010
0001
0100
0010
1000
0100
1000
0100
0010
0001
0000
0000
0000
,
0100
0010
0000
0000
1100
0000
0000
0000
0011
1000
0000
0000
0101
0000
0101
0000
,
1000
0100
0010
0001
0000
0100
0010
1000
,
0000
0000
0100
0000
0010
0000
0001
0000
0100
0001
0010
0000
0100
0000
0010
0000
,
1001
0000
1000
0001
1000
0010
0100
0001
0010
0001
1000
0100
1000
0001
0010
0001
,
0010
0100
1000
0100
1000
0001
1000
0001
1000
0000
0001
0000
0110
0000
1000
0000
,
0200
0000
0310
0001
0010
0001
0100
0010
1000
0100
1000
0001
0020
0000
0130
0000
,
1100
0000
0000
1000
0100
1000
0001
0000
0000
0101
0000
0000
0001
0100
0001
1000
0000
0000
1001
0000
0000
0011
0000
0000
,
0001
0100
0010
1000
0100
0010
0001
0100
0010
1000
0100
1000
0010
0100
0001
1000
,
0100
0010
0001
0100
0001
0010
0100
0010
0001
0100
0010
0100
0001
0010
0100
0010
,
MM02
00M0
0100
0013
1000
0010
0100
0001
0010
0001
0010
0100
1000
0010
0100
0001
,
0100
0010
1000
0001
0010
0001
0010
0100
1000
0010
0100
0001
0010
0001
0010
0001
,
0100
0010
1000
0100
0010
0100
1000
0010
0100
0010
1000
0100
0010
0100
1000
0010
,
0100
0001
0100
0010
0100
0001
0100
0010
0100
0001
0100
0010
0100
0001
0010
0100
,
1000
0100
1000
0001
0010
0001
0010
0100
1000
0100
1000
0010
0100
0010
0100
0001
,
2000
0000
0000
0000
0000
0000
0000
0000
0000
3001
0100
0010
1000
0010
0100
0010
0100
0001
1000
0010
0100
0001
1000
0001
,
0100
0000
0002
0000
0103
0020
0000
0130
0002
0000
0013
0200
0000
0310
0001
0100
,
0010
1000
0200
0000
0310
0200
0000
0310
0002
0003
0010
0200
0000
1300
0020
0000
,
0030
0100
0002
0000
0013
0200
0000
0310
0002
0000
0103
0020
0030
0100
0020
0000
,
0000
0000
0000
0000
0000
0000
0000
0000
0000
0000
0000
0000
0000
0000
0000
0000
0000
0000
0000
0000
0000
0030
0000
0000
0010
0000
0000
0100
0000
0000
0010
0000
0000
0100
0000
0000
0001
0000
0100
0000
0001
0000
0100
0000
0000
0001
0000
0000
,
0100
0000
0000
0000
0000
0000
0000
0000
0020
0000
0000
0000
0M00
0000
0000
0030
0020
0000
0000
0000
0000
0000
0000
0030
1000
0000
0000
0000
0100
0000
0000
0000
0020
0000
0000
0000
0M00
0000
0000
0030
0020
0000
0000
0000
0000
0000
0030
0000
0100
0000
0000
0000
1000
0000
0000
0000
0002
0000
0000
0000
M000
0000
0000
0003
,
0002
0000
0000
0000
0000
0000
0000
0000
0000
0000
0000
0000
0000
0000
0000
0000
0000
0000
0003
0000
0000
0000
0000
0000
0100
0000
0000
0000
0000
0000
0000
0000
0000
0000
0000
0000
0001
0000
0000
0000
0000
0000
0000
0000
0000
0000
0000
0000
2000
0000
0000
0000
0000
0000
0000
0000
0000
0000
0000
0000
0000
0000
0000
0000
0000
0000
0000
0000
0000
0000
0000
3000
200M
0000
0000
0000
0000
0000
0000
0000
0000
0000
0000
0000
0000
0000
0000
0000
0000
0000
0000
0000
0000
3000
0000
0000
0100
0000
0000
0000
0000
0000
0000
0000
0000
0000
0000
0000
1000
0000
0000
0000
0000
0000
0000
0000
0000
0000
0000
0000
0002
0000
0000
0000
0000
0000
0000
0000
0000
0000
0000
0000
0000
0000
0000
0000
0000
0000
0000
0000
0000
0003
0000
0000
0002
0000
0000
0000
0000
0000
0000
0000
0000
0000
0000
0000
0000
0000
0000
0000
0000
0000
0000
0000
0000
0000
0000
0000
0013
0000
0000
0000
0000
0000
0000
0000
0000
0000
0000
0000
0000
0000
0000
0000
0000
0000
0000
0000
0000
0000
0000
0000
,
0001
0000
1000
0000
0001
0000
1000
0000
0000
0010
0000
0000
1000
0000
0000
0100
0000
0000
0040
0000
0000
0000
0000
0000
0430
0000
0000
0300
0000
0000
4000
0000
0000
0004
0000
0000
0000
0000
0000
0000
0000
0000
0003
0000
0000
3000
0000
0000
,
0001
0100
0001
0100
0001
0100
0001
0100
0001
0100
0001
0100
0001
1000
0010
0100
0001
1000
0010
0100
0001
1000
0010
0100
,
0002
0010
0000
1000
0000
0103
0200
0010
,
0000
0001
0000
0302
0000
0010
0023
0100
,
0230
1000
0000
0010
0000
1000
0302
0000
,
0100
0000
0003
0010
0000
0000
1000
0000
,
0001
0000
0000
0100
,
0010
0000
0000
0010
0000
0000
1000
0000
,
0001
0000
0000
0000
0000
1000
0000
1000
,
0200
0000
0000
0000
0000
0000
0300
0M00
0000
1000
0100
1000
0001
0010
0001
1000
0010
1000
0001
0100
0001
1000
0100
1000
,
0001
0010
0001
0100
0010
1000
0100
1000
0002
0023
0032
0023
0032
0103
0010
0100
,
M002
0013
0100
1000
0010
1000
0010
0100
0002
0023
0032
0023
0230
0320
0031
0100
,
0020
1030
0100
1000
0010
0100
0010
1000
0100
1000
0002
0023
0032
0203
0302
0013
,
0002
0103
0010
1000
0100
1000
0010
0100
0002
0023
0032
0203
0320
0230
0302
0023
,
0130
1000
0010
0100
0010
1000
0100
1000
0002
0023
0032
0203
0320
0230
0302
0023
,
0130
1000
0010
0100
0010
1000
0100
1000
0002
0023
0230
0320
0032
0203
0320
2030
,
3001
0000
M012
0013
0100
12M0
130M
0100
1200
13M0
0001
1002
1M03
0010
2010
3000
,
0001
0000
0100
0000
0001
0000
0100
0000
0000
0010
0000
0000
1000
0000
0001
0000
1000
0000
0001
0000
0000
1000
0000
0000
0100
0000
1000
0000
0100
0000
1000
0000
0000
0001
0000
0000
0100
0000
0000
0000
0000
0000
MMMM
0000
0000
0000
0000
0000
,
0200
0310
1000
0100
0020
0031
0010
0100
2000
3100
1000
0010
0200
0301
0020
0031
,
0010
0100
1000
0010
0100
0001
1000
0100
1000
0010
0100
0001
0100
0001
0010
0100
,
2000
3010
0100
0010
0200
0301
1000
0001
0200
0310
0100
0001
2000
3100
0020
0031
,
0010
0100
0010
0001
0200
0310
1000
0100
2000
3001
0100
0010
0200
0301
2000
3010
,
0100
0010
1000
0100
0020
0130
1000
0010
0200
0301
0010
0001
0200
0310
2000
3001
,
0010
0100
0010
0001
0020
0130
1000
0010
0200
0301
1000
0100
0020
0031
0200
0310
,
1000
0001
0010
0100
2000
3010
0100
0001
0020
0031
0100
0010
2000
3010
0200
0301
,
1000
0100
0010
0001
0010
0100
2000
3001
0100
0001
1000
0M0M
1000
0100
1000
0100
,
0020
0031
0200
1300
0002
0013
0200
0302
,
0013
0100
1000
0100
0010
0001
0100
0010
,
0002
0013
0200
0310
0002
0013
0200
0302
,
0013
0100
2000
3100
0002
1003
0020
0230
,
0310
0001
0200
1300
0200
0310
0002
2003
,
3100
0001
0200
1300
0002
0013
1000
0100
,
1100
0000
0100
0110
0000
0010
0011
0000
0001
0101
0000
0100
0110
0000
1001
0000
,
1100
0100
1000
0100
0010
0001
0100
0010
1000
0001
0100
0010
1000
0001
0010
0001
,
0200
0320
2030
3200
0320
0032
0203
0320
2030
3200
2300
3020
0230
0302
0023
0230
,
2300
3200
0320
0032
0203
0320
2030
3200
2300
3020
0230
0302
0023
0032
0203
0320
,
2030
3200
0320
0032
0203
0320
2030
3200
0320
0032
0203
0320
0230
0302
0023
0230
,
2300
0000
0000
3020
0000
0000
0230
0000
0000
0302
0000
0000
0023
0000
0000
0032
0000
0000
0203
0000
0000
0320
0000
0000
2030
0000
0000
3200
0000
0000
0320
0000
0000
0230
0000
0000
1300
0000
0100
0000
1000
0000
0100
0000
1000
0000
0100
0000
,
2000
3200
0320
0032
0203
0320
0230
0302
0023
0032
0203
0320
2030
3200
2300
3020
,
0230
0302
2003
3200
0320
0230
2300
3002
0203
0320
0230
0302
2003
3200
2300
3002
,
0203
0302
2003
3020
2030
3002
0023
0032
2003
3200
0320
0230
2300
3002
0023
0230
,
0320
0000
0000
0032
0000
0000
0203
0000
0000
0320
0000
0000
2030
0000
0000
3020
0000
0000
0230
0000
0000
0302
0000
0000
1003
0000
0100
0000
0010
0000
0001
0000
1000
0000
0100
0000
1000
0000
0001
0000
0100
0000
0001
0000
1000
0000
0010
0000
,
2000
0000
3010
0100
0000
0001
0010
0000
02M0
0000
1300
0010
0000
0100
0001
0000
,
002M
0000
0130
1000
0000
0001
0100
0000
0M20
0000
1030
0100
0000
0010
0001
0000
,
020M
0000
0310
1000
0000
0001
0010
0000
02M0
0000
1300
0001
0000
1000
0100
0000
,
0021
0000
0000
0000
0000
0000
0000
0000
0000
0000
0000
0000
0000
0000
0000
0000
0000
0000
0000
0000
0000
0000
0000
0000
000M
0000
0000
0000
0000
0000
0000
0000
0000
0000
0000
0000
0230
0000
0000
0000
0000
0000
0000
0000
0000
0000
0000
0000
0000
0000
0000
0000
0000
0000
0000
0000
0000
0000
0000
0000
0000
0000
0000
0000
0000
0000
0000
0000
0000
0000
0000
0000
2300
0000
0000
0000
0000
0000
0000
0000
0000
0000
0000
0000
3000
0000
0000
0000
0000
0000
0000
0000
0000
0000
0000
0000
1100
0000
0000
0000
0000
0000
0000
0000
0000
0000
0000
0000
0000
0000
0000
0000
0000
0000
0000
0000
0000
0000
0000
0000
100M
0000
0000
0000
0000
0000
0000
0000
0000
0000
0000
0000
01M0
0000
0000
0000
0000
0000
1000
0000
0000
0000
0000
0000
010M
0000
0000
0000
0000
0000
0000
0000
1000
0000
0000
0000
0000
0000
0000
0000
0100
0000
0000
0000
0000
0000
0000
0000
1000
0000
0000
0000
0000
0000
0000
0000
0000
0000
0000
0000
0100
0000
0000
0000
0000
0000
0000
0000
0000
0000
0000
0000
,
0010
0001
0200
0000
0000
2300
0000
3000
0001
0000
0000
0010
0000
0000
1000
0000
,
0001
0100
0010
0000
0000
0001
0000
0000
1000
0000
0000
0001
0000
0000
0010
0000
,
0200
0302
0023
0230
,
1300
0000
0000
1001
0000
0000
0000
0000
0000
1000
0001
0100
0001
1000
0100
1000
0001
0100
0001
1000
0100
1000
0001
1000
,
1001
0000
0001
0010
0001
0100
0010
1000
0100
1000
0100
0010
0001
0000
0000
0000
,
0100
0010
0000
0000
1100
0000
0000
0000
0011
1000
0000
0000
0101
0000
0101
0000
,
1000
0100
0010
0001
0000
0100
0010
1000
,
0000
0000
0100
0000
0010
0000
0001
0000
0100
0001
0010
0000
0100
0000
0010
0000
,
1001
0000
1000
0001
1000
0010
0100
0001
0010
0001
1000
0100
1000
0001
0010
0001
,
0010
0100
1000
0100
1000
0001
1000
0001
1000
0000
0001
0000
0110
0000
1000
0000
,
0200
0000
0310
0001
0010
0001
0100
0010
1000
0100
1000
0001
0020
0000
0130
0000
,
1100
0000
0000
1000
0100
1000
0001
0000
0000
0101
0000
0000
0001
0100
0001
1000
0000
0000
1001
0000
0000
0011
0000
0000
,
0001
0100
0010
1000
1010
0010
0100
0001
0010
0100
1100
1000
0010
0100
0010
1000
,
1001
0001
0010
0100
1000
0010
0110
0100
0001
1000
1010
0000
1M1M
0000
1010
0000
,
MM02
00M0
1003
0100
1100
1000
0001
0010
0100
0010
0110
0100
1000
0001
1000
0010
,
1010
1000
0001
0010
0001
1000
1001
0001
1000
0010
0100
0010
0100
0010
0100
0010
,
0100
0001
1000
0000
0101
0010
0000
1010
0100
0000
0011
1000
0000
0001
1001
0000
,
MMMM
0000
0000
0000
;
