#TITLE:Cyberteam in Akihabara 2011;
#SUBTITLE:;
#ARTIST:DJ Sharpnel;
#TITLETRANSLIT:;
#SUBTITLETRANSLIT:;
#ARTISTTRANSLIT:;
#CREDIT:;
#BANNER:cyberteam bn.png;
#BACKGROUND:cyberteam bg.png;
#LYRICSPATH:;
#CDTITLE:;
#MUSIC:Cyberteam in Akihabara 2011.ogg;
#OFFSET:-0.080;
#SAMPLESTART:199.735;
#SAMPLELENGTH:13.563;
#SELECTABLE:YES;
#DISPLAYBPM:142.000;
#BPMS:0.000=141.550,15.000=212.325,17.250=141.550,26.500=283.120,27.000=141.550,31.000=212.325,33.250=141.550,42.500=283.120,43.000=141.550,47.000=212.325,49.250=141.550,58.500=283.120,59.000=141.550,74.500=283.120,75.000=141.550,79.000=212.325,81.250=141.550,90.500=283.120,91.000=141.550,275.000=212.325,278.000=141.550,280.000=212.325,280.500=106.163,281.000=212.325,281.500=106.162,282.000=212.325,282.500=106.163,283.000=212.325,283.500=106.162,284.000=212.325,284.500=106.163,285.000=212.325,285.500=106.162,286.000=212.325,286.500=106.163,287.000=212.325,287.500=106.162,288.000=212.325,288.500=106.163,289.000=212.325,289.500=106.162,290.000=212.325,290.500=106.163,291.000=212.325,291.500=106.162,292.000=212.325,292.500=106.163,293.000=212.325,293.500=106.162,294.000=212.325,294.500=106.163,295.000=212.325,295.500=106.162,296.000=212.325,296.500=106.163,297.000=212.325,297.500=106.162,298.000=212.325,298.500=106.163,299.000=212.325,299.500=106.162,300.000=212.325,300.500=106.163,301.000=212.325,301.500=106.162,302.000=212.325,302.500=106.163,303.000=212.325,303.500=106.162,304.000=212.325,304.500=106.163,305.000=212.325,305.500=106.162,306.000=212.325,306.500=106.163,307.000=212.325,307.500=106.162,308.000=212.325,308.500=106.163,309.000=212.325,309.500=106.162,310.000=212.325,310.500=106.163,311.000=212.325,311.500=106.162,312.000=212.325,312.500=106.163,313.000=212.325,313.500=106.162,314.000=212.325,314.500=106.163,315.000=212.325,315.500=106.162,316.000=212.325,316.500=106.163,317.000=212.325,317.500=106.162,318.000=212.325,318.500=106.163,319.000=212.325,319.500=106.162,320.000=212.325,320.500=106.163,321.000=212.325,321.500=106.162,322.000=212.325,322.500=106.163,323.000=212.325,323.500=106.162,324.000=212.325,324.500=106.163,325.000=212.325,325.500=106.162,326.000=212.325,326.500=106.163,327.000=212.325,327.500=106.162,328.000=212.325,328.500=106.163,329.000=212.325,329.500=106.162,330.000=212.325,330.500=106.163,331.000=212.325,331.500=106.162,332.000=212.325,332.500=106.163,333.000=212.325,333.500=106.162,334.000=212.325,334.500=106.163,335.000=212.325,335.500=106.162,336.000=212.325,336.500=106.163,337.000=212.325,337.500=106.162,338.000=212.325,338.500=106.163,339.000=212.325,339.500=106.162,340.000=212.325,340.500=106.163,341.000=212.325,341.500=106.162,342.000=212.325,342.500=106.163,343.000=212.325,343.500=106.162,344.000=141.550,536.000=212.325,536.500=106.163,537.000=212.325,537.500=106.162,538.000=212.325,538.500=106.163,539.000=212.325,539.500=106.162,540.000=212.325,540.500=106.163,541.000=212.325,541.500=106.162,542.000=212.325,542.500=106.163,543.000=212.325,543.500=106.162,544.000=212.325,544.500=106.163,545.000=212.325,545.500=106.162,546.000=212.325,546.500=106.163,547.000=212.325,547.500=106.162,548.000=212.325,548.500=106.163,549.000=212.325,549.500=106.162,550.000=212.325,550.500=106.163,551.000=212.325,551.500=106.162,552.000=212.325,552.500=106.163,553.000=212.325,553.500=106.162,554.000=212.325,554.500=106.163,555.000=212.325,555.500=106.162,556.000=212.325,556.500=106.163,557.000=212.325,557.500=106.162,558.000=212.325,558.500=106.163,559.000=212.325,559.500=106.162,560.000=212.325,560.500=106.163,561.000=212.325,561.500=106.162,562.000=212.325,562.500=106.163,563.000=212.325,563.500=106.162,564.000=212.325,564.500=106.163,565.000=212.325,565.500=106.162,566.000=212.325,566.500=106.163,567.000=212.325,567.500=106.162,568.000=212.325,568.500=106.163,569.000=212.325,569.500=106.162,570.000=212.325,570.500=106.163,571.000=212.325,571.500=106.162,572.000=212.325,572.500=106.163,573.000=212.325,573.500=106.162,574.000=212.325,574.500=106.163,575.000=212.325,575.500=106.162,576.000=212.325,576.500=106.163,577.000=212.325,577.500=106.162,578.000=212.325,578.500=106.163,579.000=212.325,579.500=106.162,580.000=212.325,580.500=106.163,581.000=212.325,581.500=106.162,582.000=212.325,582.500=106.163,583.000=212.325,583.500=106.162,584.000=212.325,584.500=106.163,585.000=212.325,585.500=106.162,586.000=212.325,586.500=106.163,587.000=212.325,587.500=106.162,588.000=212.325,588.500=106.163,589.000=212.325,589.500=106.162,590.000=212.325,590.500=106.163,591.000=212.325,591.500=106.162,592.000=212.325,592.500=106.163,593.000=212.325,593.500=106.162,594.000=212.325,594.500=106.163,595.000=212.325,595.500=106.162,596.000=141.550,660.000=212.325,666.000=141.550,678.000=212.325,680.250=141.550,694.000=212.325,696.250=141.550,710.000=212.325,712.250=141.550;
#STOPS:15.000=0.106
,15.750=0.106
,16.500=0.106
,26.500=0.106
,31.000=0.106
,31.750=0.106
,32.500=0.106
,42.500=0.106
,47.000=0.106
,47.750=0.106
,48.500=0.106
,58.500=0.106
,74.500=0.106
,79.000=0.106
,79.750=0.106
,80.500=0.106
,90.500=0.105
,678.000=0.106
,678.750=0.106
,679.500=0.106
,694.000=0.106
,694.750=0.106
,695.500=0.106
,710.000=0.106
,710.750=0.106
,711.500=0.106
;
#BGCHANGES:;
// cache tags:
#FIRSTBEAT:3.000;
#LASTBEAT:729.500;
#SONGFILENAME:Songs/SHARPNELSTREAMZ v2/Cyberteam in Akihabara 2011/Cyberteam in Akihabara 2011.sm;
#HASMUSIC:1;
#HASBANNER:1;
#MUSICLENGTH:308.940;
// end cache tags

//---------------dance-single - 13+ (Nappo)----------------
#NOTES:
     dance-single:
     13+ (Nappo):
     Challenge:
     13:
     1.000,1.000,0.744,0.185,1.000,2008.000,230.000,57.000,88.000,0.000:
0000
0000
0000
2000
,
3002
0000
0000
0000
0000
0000
0000
0000
0000
0000
0000
0000
0000
0000
0000
0000
0013
0000
0000
0000
0000
0000
0000
0000
0000
0000
0000
0000
0010
0000
0000
0000
0000
0000
0000
0000
0000
0000
0000
0000
0100
0000
0000
0000
0000
0000
0000
0000
1000
0000
0000
0000
0000
0100
0000
0000
0000
0000
0000
0000
0000
0000
0000
0000
,
1000
0000
1000
0000
0002
0003
0000
0002
0003
0000
1000
0000
1001
0000
0000
0000
,
1001
0000
0000
0000
0220
0330
0000
0220
0330
0000
1001
0000
M101
0000
0000
M101
,
0000
0000
M101
0000
0000
M101
0000
0000
0001
0010
0100
1000
0001
0000
0000
0000
,
1001
0000
0000
0000
0000
0000
0000
0000
0000
0000
0000
0000
0000
0000
0000
0000
2200
0000
0000
0000
3300
0000
0000
0000
0000
0000
0000
0000
2002
0000
0000
0000
3003
0000
0000
0000
0000
0000
0000
0000
0011
0000
0000
0000
0000
0000
0000
0000
0001
0000
0000
0000
0000
1000
0000
0000
0000
0000
0000
0000
0000
0000
0000
0000
,
0001
0000
0001
0000
2002
3003
0000
2020
3030
0000
0100
0000
1001
0000
0000
0000
,
1001
0000
0000
0000
0220
0330
0000
0220
0330
0000
1001
0000
M011
0000
0000
M011
,
0000
0000
M011
0000
0000
M011
0000
0000
0001
0010
0100
1000
0001
0000
0000
0000
,
1001
0000
0000
0000
0000
0000
0000
0000
0000
0000
0000
0000
0000
0000
0000
0000
2020
0000
0000
0000
3030
0000
0000
0000
0000
0000
0000
0000
0220
0000
0000
0000
0330
0000
0000
0000
0000
0000
0000
0000
0101
0000
0000
0000
0000
0000
0000
0000
0001
0000
0000
0000
0000
1000
0000
0000
0000
0000
0000
0000
0000
0000
0000
0000
,
0001
0000
0001
0000
2002
3003
0000
2002
3003
0000
0100
0000
1001
0000
0000
0000
,
1001
0000
0000
0000
0022
0033
0000
0022
0033
0000
1001
0000
M101
0000
0000
M101
,
0000
0000
M101
0000
0000
M101
0000
0000
0001
0100
0010
1000
0001
0000
0000
0000
,
1001
0000
0000
0000
0000
0000
0000
0000
0000
0000
0000
0000
0000
0000
0000
0000
2020
0000
0000
0000
3030
0000
0000
0000
0000
0000
0000
0000
0220
0000
0000
0000
0330
0000
0000
0000
0000
0000
0000
0000
0101
0000
0000
0000
0000
0000
0000
0000
0001
0000
0000
0000
0000
1000
0000
0000
0000
0000
0000
0000
0000
0000
0000
0000
,
0001
0000
0001
0000
2002
3003
0000
2200
3300
0000
1000
0000
1001
0000
0000
0000
,
0011
0000
0000
0000
1100
0000
0000
1100
0000
0000
1001
0000
1000
0010
0000
0100
,
0001
0000
0000
0000
1000
0000
0010
0000
0100
0000
0000
0000
0001
1000
0001
1000
0001
0000
1000
0000
0100
0000
0010
0000
0001
0000
0000
0000
1000
0000
0000
0000
,
0001
0000
0000
0000
0000
0000
0000
0000
1000
0000
0000
0000
0000
0000
0000
0000
0001
0000
0000
0000
0000
0000
0000
0000
1000
0000
0000
0000
0000
0000
0000
0000
0010
0000
0000
0000
0000
0000
0000
0000
1000
0000
0000
0000
0000
0000
0000
0000
0010
0000
0000
0000
0000
1000
0000
0000
0000
0000
0000
0000
0000
0000
0000
0000
,
0001
0000
0001
0000
2002
3003
0000
2002
3003
0000
0001
0000
0010
0000
0001
0000
,
0010
0000
0100
0000
2200
3300
0000
2200
3300
0000
1001
0000
101M
0000
0000
101M
,
0000
0000
101M
0000
0000
101M
0000
0000
0001
0010
0100
1000
0001
0000
1000
0000
,
0001
0000
0000
0000
0000
0000
0000
0000
0100
0000
0000
0000
0000
0000
0000
0000
0010
0000
0000
0000
0000
0000
0000
0000
1000
0000
0000
0000
0000
0000
0000
0000
0010
0000
0000
0000
0000
0000
0000
0000
1000
0000
0000
0000
0000
0000
0000
0000
0001
0000
0000
0000
0000
0010
0000
0000
0000
0000
0000
0000
0000
0000
0000
0000
,
0100
0000
0100
0000
1001
0000
0000
1001
0000
0000
0001
0000
0100
0000
0010
0000
,
1000
0000
0001
0000
1001
0000
0000
1001
0000
0000
1000
0000
0010
0100
0000
0001
,
1000
0000
0000
0000
0010
0000
0100
0000
0010
0000
1000
0000
0001
0000
1000
0000
0001
1000
0001
1000
0001
1000
0001
1000
00M1
0000
0000
0000
0M00
0000
0000
0000
,
00M0
M000
0000
0000
00M0
M000
0000
000M
00M0
0M00
M000
000M
0M00
00M0
M000
000M
,
0M00
0000
0000
00M0
M000
0000
0000
00M0
M000
0000
0000
0000
0001
0010
0000
0100
,
1000
0000
00M0
0000
0001
0100
0000
0010
1000
0000
000M
0000
1000
0010
0000
0100
,
0010
0000
0000
0000
1000
0000
0001
0000
1000
0000
0000
0000
0001
1000
0001
1000
0001
0000
0100
0000
0010
0000
1000
0000
0010
0000
0100
0000
0000
0000
1001
0000
,
0000
0001
1000
0000
1010
0000
0010
1000
0000
0000
0001
0000
0011
0000
0010
0100
,
0000
0100
1000
0001
1000
0010
0000
1000
0010
0000
0010
0000
0110
0000
0000
1001
,
0000
0001
0010
0000
1100
0000
1000
0001
0000
0000
1000
0000
1010
0000
0010
0100
,
0000
0100
0001
1000
0001
0010
0000
0001
0010
0000
0010
0000
0110
0000
0000
1100
,
0000
1000
0001
0000
0101
0000
0000
1010
0000
0000
0001
0000
1001
0000
1000
0010
,
0000
0010
0100
0001
1000
0100
0000
1000
0100
0000
0100
0000
0011
0000
0000
1001
,
0000
1000
0010
0000
0110
0000
0000
0101
0000
0000
0001
0000
1000
0100
0000
1000
,
0001
0000
1000
0000
0001
0000
0100
0000
0010
0000
1000
0000
0001
1000
0001
1000
0001
0000
0010
0000
0100
0000
1000
0000
0010
0000
0100
0000
0000
0000
1001
0000
,
0000
0001
1000
0000
1100
0000
0000
1001
0000
0000
0001
0000
0011
0000
0010
0100
,
0000
0100
1000
0001
1000
0001
0000
1000
0001
0000
0001
0000
0101
0000
0000
1010
,
0000
0010
1000
0000
1001
0000
0000
1100
0000
0000
0100
0000
0110
0000
0010
0001
,
0000
0001
1000
0010
0100
0010
0000
0100
0010
0000
0010
0000
1010
0000
0000
1001
,
0000
1000
0100
0000
0110
0000
0000
0011
0000
0000
0001
0000
1001
0000
1000
0010
,
0000
0010
0100
0001
1000
0010
0000
1000
0010
0000
0010
0000
0101
0000
0000
1001
,
0000
1000
0100
0000
0110
0000
0000
0011
0000
0000
0001
0000
1001
0000
1000
0010
,
0000
0000
0010
0000
0100
0000
0001
0000
0010
0000
0100
0000
0010
0000
0001
0000
1000
0001
1000
0001
1000
0001
1000
0001
1000
0000
0000
0000
0000
0000
0000
0000
,
1010
0001
0011
0100
,
1100
0000
0000
1000
0000
0000
1000
0000
0001
0000
0000
0000
0100
0000
0000
0000
,
1010
0000
0000
0001
0000
0000
0001
0000
1000
0001
0000
0000
0100
0000
0000
0000
,
0110
0000
0000
0000
0010
0000
0000
1010
0000
0000
1010
0000
0110
0000
0000
0000
,
0101
0000
0000
0001
0000
0000
1000
0000
1100
0000
0100
0000
0010
0000
0001
0000
,
1000
0000
0010
0000
0000
0010
0000
0000
0010
0000
0000
0000
0100
0000
0001
0000
,
1000
0001
1000
0100
0010
0100
0010
0001
,
1000
0000
0001
0000
1000
0010
0000
0100
0000
0100
0001
0000
1001
0000
0000
0000
,
0001
0000
1000
0001
1000
0000
0010
0000
1010
0000
0000
1000
0001
0000
0001
0000
,
0010
0000
0100
0000
1000
0000
1001
0000
0000
1001
0000
0000
0001
0000
0100
0000
,
0010
0000
1000
0001
1000
0000
0100
0000
0010
0000
0100
0000
1000
0000
0000
0000
,
1001
0000
0001
0000
0100
0000
0001
1000
0010
0000
0010
0000
1010
0000
0000
0000
,
1001
0000
0000
1001
0000
0000
1000
0000
0100
0000
0100
0000
0010
0000
0010
0000
,
0001
0000
1000
0000
0000
0000
0000
0000
0001
2000
0000
0002
0000
0000
0000
0000
,
0000
0000
0000
0000
0000
0000
0000
0000
0000
0000
3000
0000
0103
0010
0000
1000
,
0001
0000
0000
0000
1000
0000
0100
0000
1000
0000
0000
0000
0001
1000
0001
1000
0001
0000
1000
0000
0100
0000
0010
0000
0001
0000
1000
0000
0000
0000
0001
0000
,
1000
0000
0000
0000
0001
0000
0100
0000
0001
0000
0000
0000
1000
0001
1000
0001
1000
0000
0001
0000
0100
0000
0010
0000
1000
0000
0100
0000
0000
0000
1000
0000
,
0100
0000
0000
0000
1000
0000
0001
0000
1000
0000
0000
0000
0001
1000
0001
1000
0001
0000
1000
0000
0010
0000
0100
0000
0001
0000
1000
0000
0001
0000
1000
0000
,
0001
0000
1000
0000
0001
0000
1000
0000
0001
0000
1000
0000
0001
1000
0001
1000
0001
0000
0010
0000
0100
0000
1000
0000
0001
0000
1000
0000
0010
0000
1000
0000
,
0010
0000
0100
0000
0001
0000
0010
0000
0100
0000
1000
0000
0001
1000
0001
1000
0001
0000
0100
0000
0010
0000
1000
0000
0001
0000
0010
0000
0000
0000
0001
0000
,
0010
0000
0000
0000
0001
0000
1000
0000
0001
0000
0000
0000
1000
0100
1000
0100
1000
0000
0001
0000
0100
0000
0010
0000
1000
0000
0001
0000
0000
0000
1000
0000
,
0001
0000
0000
0000
0100
0000
0010
0000
0100
0000
0000
0000
0001
0100
0001
0100
0001
0000
1000
0000
0001
0000
1000
0000
0010
0000
0100
0000
0010
0000
0100
0000
,
0001
0000
1000
0000
0001
0000
1000
0000
0100
0000
0010
0000
0001
1000
0001
1000
0001
0000
0010
0000
0100
0000
1000
0000
0001
0000
0010
0000
0100
0000
1000
0000
,
0001
0000
0000
1000
0000
0000
0001
0000
0000
1000
0000
0000
0001
0000
0100
0000
0010
0000
1000
0000
0001
0000
1000
0000
0100
0000
0010
0000
0001
0000
0100
0000
0010
0000
1000
0000
0002
0000
0000
0000
0000
0000
0000
0000
0000
0000
0000
0000
,
M000
0000
0000
0000
00M0
0000
0000
0000
0000
0000
0000
0000
0000
0000
0000
0000
0000
0000
0000
0000
0000
0000
0003
0000
1000
0000
0000
0010
0000
0000
0000
0000
0000
0100
0000
0000
0000
0000
0000
0100
0000
0000
0001
0000
0000
0000
0000
0000
,
1000
0000
0000
0000
0000
0000
0100
0000
0000
0000
0010
0000
0000
0001
0000
0000
0010
0000
0000
0000
0000
0000
0100
0000
0000
0000
1000
0000
0000
0001
0000
0000
0100
0000
0000
0000
0000
0000
0010
0000
0000
0000
1000
0000
0000
0001
0000
0000
0100
0000
0000
0000
0000
0000
0010
0000
0000
0000
1000
0000
0000
0100
0000
0000
,
0010
0000
0000
0000
0000
0000
0100
0000
0000
0000
1000
0000
0000
0001
0000
0000
0100
0000
0000
0000
0000
0000
0010
0000
0000
0000
0100
0000
0000
0001
0000
0000
1000
0000
0000
0000
0000
0000
0100
0000
0000
0000
0010
0000
0000
0001
0000
0000
0010
0000
0000
0000
0000
0000
0100
0000
0000
0000
1000
0000
0000
0001
0000
0000
,
0100
0000
0000
0000
0000
0000
0010
0000
0000
0000
1000
0000
0000
0001
0000
0000
0100
0000
0000
0000
0000
0000
0001
0000
0000
0000
1000
0000
0000
0100
0000
0000
0010
0000
0000
0000
0000
0000
0100
0000
0000
0000
1000
0000
0000
0010
0000
0000
0100
0000
0000
0000
0000
0000
0001
0000
0000
0000
1000
0000
0000
0010
0000
0000
,
0100
0000
0000
0000
0000
0000
0001
0000
0000
0000
0100
0000
0000
0010
0000
0000
1000
0000
0000
0000
0000
0000
0100
0000
0000
0000
0010
0000
0000
0001
0000
0000
1000
0000
0000
0000
0000
0000
0001
0000
0000
0000
1000
0000
0000
0010
0000
0000
0100
0000
0000
0000
0000
0000
0010
0000
0000
0000
1000
0000
0000
0001
0000
0000
,
0010
0000
0000
0000
0000
0000
0100
0000
0000
0000
1000
0000
0000
0010
0000
0000
0100
0000
0000
0000
0000
0000
0010
0000
0000
0000
1000
0000
0000
0001
0000
0000
0010
0000
0000
0000
0000
0000
0100
0000
0000
0000
1000
0000
0000
0100
0000
0000
0010
0000
0000
0000
0000
0000
0100
0000
0000
0000
1000
0000
0000
0001
0000
0000
,
0100
0000
0000
0000
0000
0000
0010
0000
0000
0000
0100
0000
0000
0001
0000
0000
1000
0000
0000
0000
0000
0000
0010
0000
0000
0000
0100
0000
0000
0001
0000
0000
0100
0000
0000
0000
0000
0000
0010
0000
0000
0000
1000
0000
0000
0001
0000
0000
0100
0000
0000
0000
0000
0000
0001
0000
0000
0000
0010
0000
0000
0100
0000
0000
,
1000
0000
0000
0000
0000
0000
0100
0000
0000
0000
0010
0000
0000
0001
0000
0000
1000
0000
0000
0000
0000
0000
0010
0000
0000
0000
0100
0000
0000
0010
0000
0000
1000
0000
0000
0000
0000
0000
0001
0000
0000
0000
1000
0000
0000
0001
0000
0000
0010
0000
0000
0000
0000
0000
0100
0000
0000
0000
1000
0000
0000
0010
0000
0000
,
0100
0000
0000
0000
0000
0000
0001
0000
0000
0000
0100
0000
0000
0010
0000
0000
1000
0000
0000
0000
0000
0000
0001
0000
0000
0000
0010
0000
0000
0100
0000
0000
1000
0000
0000
0000
0000
0000
0001
0000
0000
0000
0010
0000
0000
0100
0000
0000
1000
0000
0000
0000
0000
0000
0010
0000
0000
0000
0100
0000
0000
0010
0000
0000
,
1000
0000
0000
0000
0000
0000
0001
0000
0000
0000
0010
0000
0000
0001
0000
0000
1000
0000
0000
0000
0000
0000
0010
0000
0000
0000
1000
0000
0000
0001
0000
0000
0100
0000
0000
0000
0000
0000
0010
0000
0000
0000
1000
0000
0000
0001
0000
0000
0100
0000
0000
0000
0000
0000
0001
0000
0000
0000
0010
0000
0000
0100
0000
0000
,
1000
0000
0000
0000
0000
0000
0100
0000
0000
0000
0010
0000
0000
0001
0000
0000
0100
0000
0000
0000
0000
0000
0010
0000
0000
0000
1000
0000
0000
0001
0000
0000
0100
0000
0000
0000
0000
0000
0010
0000
0000
0000
1000
0000
0000
0001
0000
0000
0010
0000
0000
0000
0000
0000
0100
0000
0000
0000
1000
0000
0000
0010
0000
0000
,
0100
0000
0000
0000
0000
0000
0010
0000
0000
0000
0100
0000
0000
0001
0000
0000
1000
0000
0000
0000
0000
0000
0100
0000
0000
0000
0010
0000
0000
0100
0000
0000
1000
0000
0000
0000
0000
0000
0001
0000
0000
0000
1000
0000
0000
0010
0000
0000
0100
0000
0000
0000
0000
0000
0001
0000
0000
0000
1000
0000
0000
0010
0000
0000
,
0100
0000
0000
0000
0000
0000
0001
0000
0000
0000
0010
0000
0000
0100
0000
0000
1000
0000
0000
0000
0000
0000
0010
0000
0000
0000
0100
0000
0000
0001
0000
0000
0100
0000
0000
0000
0000
0000
0010
0000
0000
0000
1000
0000
0000
0100
0000
0000
1000
0000
0000
0000
0000
0000
0001
0000
0000
0000
0010
0000
0000
0100
0000
0000
,
1000
0000
0000
0000
0000
0000
0001
0000
0000
0000
0010
0000
0000
0100
0000
0000
1000
0000
0000
0000
0000
0000
0001
0000
0000
0000
0100
0000
0000
0010
0000
0000
1000
0000
0000
0000
0000
0000
0010
0000
0000
0000
0100
0000
0000
0001
0000
0000
1000
0000
0000
0000
0000
0000
0001
0000
0000
0000
0010
0000
0000
0100
0000
0000
,
1000
0000
0000
0000
0000
0000
0010
0000
0000
0000
0100
0000
0000
0001
0000
0000
0010
0000
0000
0000
0000
0000
0100
0000
0000
0000
1000
0000
0000
0001
0000
0000
0100
0000
0000
0000
0000
0000
0010
0000
0000
0000
1000
0000
0000
0010
0000
0000
0100
0000
0000
0000
0000
0000
0001
0000
0000
0000
1000
0000
0000
0001
0000
0000
,
0100
0000
0000
0000
0000
0000
0010
0000
0000
0000
1000
0000
0000
0100
0000
0000
0010
0000
0000
0000
0000
0000
0100
0000
0000
0000
1000
0000
0000
0001
0000
0000
0100
0000
0000
0000
0000
0000
0010
0000
0000
0000
1000
0000
0000
0010
0000
0000
0100
0000
0000
0000
0000
0000
0001
0000
0000
0000
0010
0000
0000
0100
0000
0000
,
1000
0000
0000
0000
0000
0000
0001
0000
0000
0000
0100
0000
0000
0010
0000
0000
1000
0000
0000
0000
0000
0000
0001
0000
0000
0000
0100
0000
0000
0010
0000
0000
1000
0000
0000
0000
0000
0000
0001
0000
0000
0000
0010
0000
0000
0100
0000
0000
1000
0000
0000
0000
0000
0000
0001
0000
0000
0000
1000
0000
0000
0001
0000
0000
,
0100
0010
0000
1001
0000
0100
0010
0000
1001
0000
0000
1001
0000
0000
0001
0000
,
0011
0000
0010
0100
0000
0100
1000
0001
1000
0010
0000
1000
0010
0000
0010
0000
,
0100
0001
0000
1001
0000
1000
0100
0000
0110
0000
0000
0110
0000
0000
0010
0000
,
0011
0000
0001
1000
0000
1000
0001
0100
0010
1000
0000
0010
1000
0000
1000
0000
,
0100
0010
0000
0011
0000
0001
1000
0000
1001
0000
0000
1001
0000
0000
0001
0000
,
0101
0000
0100
0010
0000
0010
1000
0010
1000
0001
0000
1000
0001
0000
0001
0000
,
1000
0100
0000
0110
0000
0010
0001
0000
1001
0000
0000
1001
0000
0000
0001
0000
,
0101
0000
0100
0010
0000
0010
1000
0001
1000
0100
0000
1000
0100
0000
0100
0000
,
0010
0001
0000
1001
0000
1000
0010
0000
0110
0000
0000
0101
0000
0000
0001
0000
,
1001
0000
1000
0100
0000
0100
0010
0001
0100
0010
0000
0100
0010
0000
0010
0000
,
1000
0001
0000
1001
0000
0001
0010
0000
0110
0000
0000
1100
0000
0000
1000
0000
,
1001
0000
0000
0000
0000
0000
0001
0000
0000
0100
0000
0000
0000
0000
0000
0100
0000
0000
0010
0000
0000
1000
0000
0000
0100
0000
0000
0000
0100
0000
0000
0000
0010
0000
0000
0000
0001
0000
0000
0000
0001
0000
0000
0000
1000
0000
0000
0000
,
0010
0100
0000
0101
0000
0001
1000
0000
1100
0000
0000
0110
0000
0000
0010
0000
,
0011
0000
0001
1000
0000
1000
0010
0100
0001
1000
0000
0001
1000
0000
1000
0000
,
0001
0100
0000
0110
0000
0010
1000
0000
1001
0000
0000
0011
0000
0000
0100
0000
,
1000
0000
0000
0000
0000
0000
0000
0000
0000
1000
0000
0000
0000
0000
0000
0000
0000
0000
1000
0000
0000
0000
0000
0000
0001
0000
0000
0000
0001
0000
0000
0000
0100
0000
0000
0000
0010
0000
0000
0000
0010
0000
0000
0000
1000
0000
0000
0000
,
1001
0000
M00M
0000
1001
0000
1000
0010
1000
0001
1000
0100
0010
0000
0001
0000
,
0011
0000
0000
0000
1001
0000
1000
0100
1000
0001
1000
0001
0100
0000
0010
0100
,
0001
1000
0010
0100
0001
0000
0010
0100
1000
0001
0010
0100
1000
0000
0001
0000
,
1001
0000
0000
0000
1001
0000
0001
0100
0010
1000
0001
0100
0000
0100
0010
0000
,
1000
0100
0010
0001
1000
0100
0010
0001
2000
0000
0000
0000
3000
0000
0001
1000
,
0001
0000
0000
0100
0000
0000
0010
0000
2000
0000
0000
0000
3001
0000
0010
0000
,
0100
0000
0000
0100
0000
0000
0000
0000
1000
0000
0001
0000
1000
0000
0001
0000
,
0100
0010
1000
0001
0010
0100
1000
0001
0100
0010
0100
0001
1000
0000
1000
0000
,
1001
0000
0001
0000
0011
0000
0001
0010
0100
0000
1000
0000
1001
0000
0001
0000
,
0101
0000
0100
0000
0010
1000
0001
1000
0100
0010
0001
1000
0001
0000
1000
0000
,
1001
0000
1000
0000
1010
0000
0010
0100
0001
0000
1000
0000
0001
0000
0021
0000
,
0000
0000
0130
0000
1000
0000
0001
0000
1001
0000
0000
1010
0000
0000
0110
0000
,
0100
0001
1000
0001
0010
0100
1000
1000
,
1001
0001
0010
0200
0000
1300
1000
0001
,
1000
0010
1000
0010
0100
0000
0001
0010
0100
1000
0001
1000
0001
0000
0100
0010
,
1000
0001
1000
0100
0010
0001
1000
0010
0100
0010
0000
1001
0000
0010
0100
0000
,
1MM1
0000
0001
0010
0100
1000
0100
0010
0001
1000
0010
0100
0001
1000
0010
1000
,
0001
0010
0001
1000
0001
0010
0001
1000
0001
0010
0001
1000
0001
0100
0001
1000
,
0010
1000
0001
1000
0001
1000
0100
0010
0100
1000
0001
1000
0001
0100
0010
1000
,
0010
1000
0001
0010
0100
1000
0001
0100
0010
1000
0100
1000
0001
1000
0010
0100
,
0001
1000
0001
1000
0100
0010
0001
1000
0010
1000
0001
0010
0100
1000
0010
0100
,
0001
0010
0100
1000
0001
1000
0010
0100
0010
0100
0010
1000
0001
0010
0100
1000
,
0010
0100
0001
0010
0100
1000
0001
0100
0010
1000
0010
1000
0100
0010
0001
1000
,
0001
1000
0001
0100
0010
0000
0000
1001
0000
00M0
0M00
00M0
0M00
00M0
0M00
00M0
,
1M01
0000
1000
0100
0010
0001
0010
0100
1000
0001
0100
0010
1000
0001
0100
0001
,
1000
0100
1000
0001
1000
0100
1000
0001
1000
0100
1000
0001
1000
0010
1000
0001
,
0100
0010
1000
0100
0010
0001
0100
0010
0100
0001
1000
0001
1000
0010
0100
0001
,
0100
0001
1000
0100
1000
0100
0010
0001
0100
0001
0100
0001
0010
0100
1000
0001
,
1000
0001
0100
0010
1000
0010
0100
0001
1000
0001
1000
0100
0010
0001
0100
0010
,
1000
0100
0010
0001
1000
0001
0100
0010
1000
0010
0100
0001
1000
0100
0010
0001
,
1000
0100
1000
0100
1000
0001
1000
0001
0100
0010
0100
0010
1000
0001
1000
0001
,
0010
0100
0010
0100
1000
0001
1000
0001
0100
0010
0000
1010
0000
1000
0001
0000
,
1MM0
0000
0000
0000
0000
0000
0100
0000
0000
0000
0010
0000
0000
0001
0000
0000
0010
0000
0000
0000
0000
0000
0100
0000
0000
0000
1000
0000
0000
0001
0000
0000
0100
0000
0000
0000
0000
0000
0010
0000
0000
0000
1000
0000
0000
0001
0000
0000
0100
0000
0000
0000
0000
0000
0010
0000
0000
0000
1000
0000
0000
0100
0000
0000
,
0010
0000
0000
0000
0000
0000
0100
0000
0000
0000
1000
0000
0000
0001
0000
0000
0100
0000
0000
0000
0000
0000
0010
0000
0000
0000
0100
0000
0000
0001
0000
0000
1000
0000
0000
0000
0000
0000
0100
0000
0000
0000
0010
0000
0000
0001
0000
0000
0010
0000
0000
0000
0000
0000
0100
0000
0000
0000
1000
0000
0000
0001
0000
0000
,
0100
0000
0000
0000
0000
0000
0010
0000
0000
0000
1000
0000
0000
0001
0000
0000
0100
0000
0000
0000
0000
0000
0001
0000
0000
0000
1000
0000
0000
0100
0000
0000
0010
0000
0000
0000
0000
0000
0100
0000
0000
0000
1000
0000
0000
0010
0000
0000
0100
0000
0000
0000
0000
0000
0001
0000
0000
0000
1000
0000
0000
0010
0000
0000
,
0100
0000
0000
0000
0000
0000
0001
0000
0000
0000
0100
0000
0000
0010
0000
0000
1000
0000
0000
0000
0000
0000
0100
0000
0000
0000
0010
0000
0000
0001
0000
0000
1000
0000
0000
0000
0000
0000
0001
0000
0000
0000
1000
0000
0000
0010
0000
0000
0100
0000
0000
0000
0000
0000
0010
0000
0000
0000
1000
0000
0000
0001
0000
0000
,
0010
0000
0000
0000
0000
0000
0100
0000
0000
0000
1000
0000
0000
0010
0000
0000
0100
0000
0000
0000
0000
0000
0010
0000
0000
0000
1000
0000
0000
0001
0000
0000
0010
0000
0000
0000
0000
0000
0100
0000
0000
0000
1000
0000
0000
0100
0000
0000
0010
0000
0000
0000
0000
0000
0100
0000
0000
0000
1000
0000
0000
0001
0000
0000
,
0100
0000
0000
0000
0000
0000
0010
0000
0000
0000
0100
0000
0000
0001
0000
0000
1000
0000
0000
0000
0000
0000
0010
0000
0000
0000
0100
0000
0000
0001
0000
0000
0100
0000
0000
0000
0000
0000
0010
0000
0000
0000
1000
0000
0000
0001
0000
0000
0100
0000
0000
0000
0000
0000
0001
0000
0000
0000
0010
0000
0000
0100
0000
0000
,
1000
0000
0000
0000
0000
0000
0100
0000
0000
0000
0010
0000
0000
0001
0000
0000
1000
0000
0000
0000
0000
0000
0010
0000
0000
0000
0100
0000
0000
0010
0000
0000
1000
0000
0000
0000
0000
0000
0001
0000
0000
0000
1000
0000
0000
0001
0000
0000
0010
0000
0000
0000
0000
0000
0100
0000
0000
0000
1000
0000
0000
0010
0000
0000
,
0100
0000
0000
0000
0000
0000
0001
0000
0000
0000
0100
0000
0000
0010
0000
0000
1000
0000
0000
0000
0000
0000
0001
0000
0000
0000
0010
0000
0000
0100
0000
0000
1000
0000
0000
0000
0000
0000
0001
0000
0000
0000
0010
0000
0000
0100
0000
0000
1000
0000
0000
0000
0000
0000
0010
0000
0000
0000
0100
0000
0000
0010
0000
0000
,
1000
0000
0000
0000
0000
0000
0001
0000
0000
0000
0010
0000
0000
0001
0000
0000
1000
0000
0000
0000
0000
0000
0010
0000
0000
0000
1000
0000
0000
0001
0000
0000
0100
0000
0000
0000
0000
0000
0010
0000
0000
0000
1000
0000
0000
0001
0000
0000
0100
0000
0000
0000
0000
0000
0001
0000
0000
0000
0010
0000
0000
0100
0000
0000
,
1000
0000
0000
0000
0000
0000
0100
0000
0000
0000
0010
0000
0000
0001
0000
0000
0100
0000
0000
0000
0000
0000
0010
0000
0000
0000
1000
0000
0000
0001
0000
0000
0100
0000
0000
0000
0000
0000
0010
0000
0000
0000
1000
0000
0000
0001
0000
0000
0010
0000
0000
0000
0000
0000
0100
0000
0000
0000
1000
0000
0000
0010
0000
0000
,
0100
0000
0000
0000
0000
0000
0010
0000
0000
0000
0100
0000
0000
0001
0000
0000
1000
0000
0000
0000
0000
0000
0100
0000
0000
0000
0010
0000
0000
0100
0000
0000
1000
0000
0000
0000
0000
0000
0001
0000
0000
0000
1000
0000
0000
0010
0000
0000
0100
0000
0000
0000
0000
0000
0001
0000
0000
0000
1000
0000
0000
0010
0000
0000
,
0100
0000
0000
0000
0000
0000
0001
0000
0000
0000
0010
0000
0000
0100
0000
0000
1000
0000
0000
0000
0000
0000
0010
0000
0000
0000
0100
0000
0000
0001
0000
0000
0100
0000
0000
0000
0000
0000
0010
0000
0000
0000
1000
0000
0000
0100
0000
0000
1000
0000
0000
0000
0000
0000
0001
0000
0000
0000
0010
0000
0000
0100
0000
0000
,
1000
0000
0000
0000
0000
0000
0001
0000
0000
0000
0010
0000
0000
0100
0000
0000
1000
0000
0000
0000
0000
0000
0001
0000
0000
0000
0100
0000
0000
0010
0000
0000
1000
0000
0000
0000
0000
0000
0010
0000
0000
0000
0100
0000
0000
0001
0000
0000
1000
0000
0000
0000
0000
0000
0001
0000
0000
0000
0010
0000
0000
0100
0000
0000
,
1000
0000
0000
0000
0000
0000
0010
0000
0000
0000
0100
0000
0000
0001
0000
0000
0010
0000
0000
0000
0000
0000
0100
0000
0000
0000
1000
0000
0000
0001
0000
0000
0100
0000
0000
0000
0000
0000
0010
0000
0000
0000
1000
0000
0000
0010
0000
0000
0100
0000
0000
0000
0000
0000
0001
0000
0000
0000
1000
0000
0000
0001
0000
0000
,
0100
0000
0000
0000
0000
0000
0010
0000
0000
0000
1000
0000
0000
0100
0000
0000
0010
0000
0000
0000
0000
0000
0100
0000
0000
0000
1000
0000
0000
0001
0000
0000
0100
0000
0000
0000
0000
0000
0010
0000
0000
0000
1000
0000
0000
0010
0000
0000
0100
0000
0000
0000
0000
0000
0001
0000
0000
0000
0010
0000
0000
0100
0000
0000
,
1000
0010
0100
0010
1000
0100
0010
0001
2000
0000
0000
0000
3002
0000
0000
0000
,
0103
0010
1000
0001
0010
0100
1000
0001
1000
0100
1000
0001
1000
0100
1000
0001
,
1000
0100
1000
0001
0100
0010
1000
0010
1000
0010
0100
0001
0010
0100
1000
0010
,
0100
0001
1000
0100
0010
0001
1000
0001
0100
0001
1000
0010
0100
0001
1000
0001
,
0100
0001
1000
0100
0010
0001
1000
0010
0100
0010
0100
0001
1000
0010
0100
0010
,
1000
0100
0010
0001
1000
0010
0100
0010
1000
0001
0010
0100
0010
0001
1000
0010
,
0100
0001
1000
0010
1000
0001
0100
0010
1000
0010
1000
0001
0010
0100
1000
0100
,
0010
0001
1000
0010
0100
0001
1000
0001
0100
0001
1000
0010
0100
0001
1000
0001
,
0100
0001
0010
0100
1000
0010
0100
0001
0010
0100
1000
0100
1000
0001
0100
0001
,
0100
0010
1000
0001
0100
0010
1000
0100
0010
0001
1000
0100
0010
0001
1000
0010
,
1000
0001
0100
0001
1000
0001
0010
0100
1000
0100
1000
0001
0100
0001
0100
0010
,
1000
0010
0100
0001
1000
0010
1000
0100
1000
0001
0100
0001
1000
0010
1000
0100
,
1000
0001
0010
0100
1000
0001
0100
0010
1000
0001
1000
0001
0010
0100
1000
0010
,
0100
0001
0010
0100
1000
0001
0100
0010
1000
0010
0100
0001
0010
0100
1000
0100
,
0010
0001
0100
0001
0100
0010
1000
0010
0100
0001
1000
0100
0010
0001
1000
0010
,
1000
0001
1000
0100
0010
0001
1000
0010
1000
0001
1000
0100
0010
0001
1000
0010
,
0100
0000
0000
000M
0000
0000
M000
0000
0000
00M0
0000
0000
M000
0000
0000
000M
0000
0000
00M0
0000
0000
0M00
0000
0000
M000
0000
0000
000M
0000
0000
0M00
0000
,
0000
00M0
0000
0M00
0000
0000
000M
0000
0000
M000
0000
0000
0000
0000
0000
0000
1001
0000
0000
0000
0000
0000
0000
0000
1001
0000
0000
0000
0000
0000
0000
0000
,
1010
0000
0000
0000
0000
0000
0000
0000
0000
0000
0000
0000
0110
0000
0000
0000
0000
0000
0000
0000
0000
0000
0000
0000
0101
0000
0000
0000
0000
0000
0000
0000
0001
0000
0000
0000
0000
1000
0000
0000
0000
0000
0000
0000
0000
0000
0000
0000
0010
0000
0000
0000
0000
0000
0000
0000
0010
0000
0000
0000
0000
0000
0000
0000
,
1001
0000
0000
1100
0000
0000
0100
0000
0110
0000
0000
0000
0110
0000
0000
0000
,
0011
0000
0000
0011
0000
0000
1001
0000
M101
0000
0000
M101
0000
0000
M101
0000
,
0000
M101
0000
0001
0100
0010
1000
0001
1000
0000
0000
0000
1001
0000
0000
0000
,
0011
0000
0000
0000
0000
0000
0000
0000
0000
0000
0000
0000
0011
0000
0000
0000
0000
0000
0000
0000
0000
0000
0000
0000
0110
0000
0000
0000
0000
0000
0000
0000
0100
0000
0000
0000
0000
1000
0000
0000
0000
0000
0000
0000
0000
0000
0000
0000
0001
0000
0000
0000
0000
0000
0000
0000
0001
0000
0000
0000
0000
0000
0000
0000
,
1001
0000
0000
1001
0000
0000
0100
0000
1001
0000
0000
0000
1001
0000
0000
0000
,
0011
0000
0000
0011
0000
0000
1001
0000
M101
0000
0000
M101
0000
0000
M101
0000
,
0000
M101
0000
0001
1000
0100
0010
0001
1000
0000
0000
0000
1001
0000
0000
0000
,
1010
0000
0000
0000
0000
0000
0000
0000
0000
0000
0000
0000
1010
0000
0000
0000
0000
0000
0000
0000
0000
0000
0000
0000
0101
0000
0000
0000
0000
0000
0000
0000
0001
0000
0000
0000
0000
1000
0000
0000
0000
0000
0000
0000
0000
0000
0000
0000
0001
0000
0000
0000
0000
0000
0000
0000
0001
0000
0000
0000
0000
0000
0000
0000
,
1001
0000
0000
1100
0000
0000
1000
0000
1001
0000
0000
0000
1001
0000
0000
0000
,
1100
0000
0000
1100
0000
0000
1001
0000
M101
0000
0000
M101
0000
0000
M101
0000
,
0000
M101
0000
0001
1000
0100
0010
0001
1000
0000
0000
0000
1001
0000
0000
0000
,
1100
0000
0000
0000
0000
0000
0000
0000
0000
0000
0000
0000
1100
0000
0000
0000
0000
0000
0000
0000
0000
0000
0000
0000
1001
0000
0000
0000
0000
0000
0000
0000
0001
0000
0000
0000
0000
1000
0000
0000
0000
0000
0000
0000
0000
0000
0000
0000
0001
0000
0000
0000
0000
0000
0000
0000
0001
0000
0000
0000
0000
0000
0000
0000
,
1001
0000
0000
0110
0000
0000
1000
0000
1001
0000
0000
0000
0101
0000
0000
0000
,
1010
0000
0000
1010
0000
0000
1001
0000
101M
0000
0000
101M
0000
0000
101M
0000
,
0000
101M
0000
M000
0M00
00M0
000M
0000
0000
0000
0000
0000
0000
0000
0000
0000
;

//---------------dance-single - 12 (TYLappo)----------------
#NOTES:
     dance-single:
     12 (TYLappo):
     Hard:
     12:
     1.000,0.974,0.744,0.605,1.000,1749.000,230.000,187.000,97.000,0.000:
0000
0000
0000
0002
,
2003
0000
0000
0000
0000
0000
0000
0000
0000
0000
0000
0000
0000
0000
0000
0000
3100
0000
0000
0000
0000
0000
0000
0000
0000
0000
0000
0000
0100
0000
0000
0000
0000
0000
0000
0000
0000
0000
0000
0000
0010
0000
0000
0000
0000
0000
0000
0000
0001
0000
0000
0000
0000
0010
0000
0000
0000
0000
0000
0000
0000
0000
0000
0000
,
0001
0000
0001
0000
2000
3000
0000
2000
3000
0000
0001
0000
1001
0000
0000
0000
,
1001
0000
0000
0000
0220
0330
0000
0220
0330
0000
1001
0000
101M
0000
0000
101M
,
0000
0000
101M
0000
0000
101M
0000
0000
1000
0100
0010
0001
1000
0000
0000
0000
,
1001
0000
0000
0000
0000
0000
0000
0000
0000
0000
0000
0000
0000
0000
0000
0000
0022
0000
0000
0000
0033
0000
0000
0000
0000
0000
0000
0000
2002
0000
0000
0000
3003
0000
0000
0000
0000
0000
0000
0000
1100
0000
0000
0000
0000
0000
0000
0000
1000
0000
0000
0000
0000
0001
0000
0000
0000
0000
0000
0000
0000
0000
0000
0000
,
1000
0000
1000
0000
2002
3003
0000
0202
0303
0000
0010
0000
1001
0000
0000
0000
,
1001
0000
0000
0000
0220
0330
0000
0220
0330
0000
1001
0000
110M
0000
0000
110M
,
0000
0000
110M
0000
0000
110M
0000
0000
1000
0100
0010
0001
1000
0000
0000
0000
,
1001
0000
0000
0000
0000
0000
0000
0000
0000
0000
0000
0000
0000
0000
0000
0000
0202
0000
0000
0000
0303
0000
0000
0000
0000
0000
0000
0000
0220
0000
0000
0000
0330
0000
0000
0000
0000
0000
0000
0000
1010
0000
0000
0000
0000
0000
0000
0000
1000
0000
0000
0000
0000
0001
0000
0000
0000
0000
0000
0000
0000
0000
0000
0000
,
1000
0000
1000
0000
2002
3003
0000
2002
3003
0000
0010
0000
1001
0000
0000
0000
,
1001
0000
0000
0000
2200
3300
0000
2200
3300
0000
1001
0000
101M
0000
0000
101M
,
0000
0000
101M
0000
0000
101M
0000
0000
1000
0010
0100
0001
1000
0000
0000
0000
,
1001
0000
0000
0000
0000
0000
0000
0000
0000
0000
0000
0000
0000
0000
0000
0000
0202
0000
0000
0000
0303
0000
0000
0000
0000
0000
0000
0000
0220
0000
0000
0000
0330
0000
0000
0000
0000
0000
0000
0000
1010
0000
0000
0000
0000
0000
0000
0000
1000
0000
0000
0000
0000
0001
0000
0000
0000
0000
0000
0000
0000
0000
0000
0000
,
1000
0000
1000
0000
2002
3003
0000
0022
0033
0000
0001
0000
1001
0000
0000
0000
,
1100
0000
0000
0000
0011
0000
0000
0011
0000
0000
1001
0000
0001
0100
0000
0010
,
1000
0000
0000
0000
0000
0000
0001
0000
0000
0100
0000
0000
0010
0000
0000
0000
0000
0000
1000
0000
0001
0000
1000
0000
0001
0000
0000
1000
0000
0000
0100
0000
0000
0010
0000
0000
0001
0000
0000
0000
0000
0000
1000
0000
0000
0000
0000
0000
,
0001
0000
0000
0000
0000
0000
0000
0000
0100
0000
0000
0000
0000
0000
0000
0000
0001
0000
0000
0000
0000
0000
0000
0000
1000
0000
0000
0000
0001
0000
0000
0000
1000
0000
0000
0000
0000
0000
0000
0000
0100
0000
0000
0000
0000
0000
0000
0000
0010
0000
0000
0000
0000
0001
0000
0000
0000
0000
0000
0000
0000
0000
0000
0000
,
1000
0000
0001
0000
2002
3003
0000
2002
3003
0000
0001
0000
0010
0000
0001
0000
,
0010
0000
0100
0000
2200
3300
0000
2200
3300
0000
1001
0000
101M
0000
0000
101M
,
0000
0000
101M
0000
0000
101M
0000
0000
0001
0010
0100
1000
0001
0000
1000
0000
,
0001
0000
0000
0000
0000
0000
0000
0000
0100
0000
0000
0000
0000
0000
0000
0000
0010
0000
0000
0000
0000
0000
0000
0000
1000
0000
0000
0000
0001
0000
0000
0000
0010
0000
0000
0000
0000
0000
0000
0000
0001
0000
0000
0000
0000
0000
0000
0000
1000
0000
0000
0000
0000
0010
0000
0000
0000
0000
0000
0000
0000
0000
0000
0000
,
0100
0000
0001
0000
1001
0000
0000
1001
0000
0000
0001
0000
0100
0000
0010
0000
,
1000
0000
0001
0000
1001
0000
0000
1001
0000
0000
1000
0000
0010
0100
0000
0001
,
1000
0000
0000
0000
0000
0000
0001
0000
0000
1000
0000
0000
0100
0000
0000
0010
0000
0000
0001
0000
0000
1000
0000
0000
0001
0000
1000
0000
0001
0000
1000
0000
0001
0000
1000
0000
00M1
0000
0000
0000
0000
0000
0M00
0000
0000
0000
0000
0000
,
00M0
M000
0000
0000
00M0
M000
0000
000M
00M0
0M00
M000
000M
0M00
00M0
M000
000M
,
0M00
0000
0000
00M0
M000
0000
0000
00M0
M000
0000
0000
0000
0001
0010
0000
0100
,
1000
0000
00M0
0000
0001
0100
0000
0010
1000
0000
000M
0000
1000
0010
0000
0100
,
0010
0000
0000
0000
1000
0000
0001
0000
1000
0000
0000
0000
0001
1000
0001
1000
0001
0000
0100
0000
0010
0000
1000
0000
0010
0000
0100
0000
0000
0000
1001
0000
,
0000
0001
1000
0000
1010
0000
0010
1000
0000
0000
0001
0000
0011
0000
0010
0100
,
0000
0100
1000
0001
1000
0010
0000
1000
0010
0000
0010
0000
0110
0000
0000
1001
,
0000
0001
0010
0000
1100
0000
1000
0001
0000
0000
1000
0000
1010
0000
0010
0100
,
0000
0100
0001
1000
0001
0010
0000
0001
0010
0000
0010
0000
0110
0000
0000
1100
,
0000
1000
0001
0000
0101
0000
0000
1010
0000
0000
0001
0000
1001
0000
1000
0010
,
0000
0010
0100
0001
1000
0100
0000
1000
0100
0000
0100
0000
0011
0000
0000
1001
,
0000
1000
0010
0000
0110
0000
0000
0101
0000
0000
0001
0000
1000
0100
0000
1000
,
0001
0000
1000
0000
0001
0000
0100
0000
0010
0000
1000
0000
0001
1000
0001
1000
0001
0000
0010
0000
0100
0000
1000
0000
0010
0000
0100
0000
0000
0000
1001
0000
,
0000
0001
1000
0000
1100
0000
0000
1001
0000
0000
0001
0000
0011
0000
0010
0100
,
0000
0100
1000
0001
1000
0001
0000
1000
0001
0000
0001
0000
0101
0000
0000
1010
,
0000
0010
1000
0000
1001
0000
0000
1100
0000
0000
0100
0000
0110
0000
0010
0001
,
0000
0001
1000
0010
0100
0010
0000
0100
0010
0000
0010
0000
1010
0000
0000
1001
,
0000
1000
0100
0000
0110
0000
0000
0011
0000
0000
0001
0000
1001
0000
1000
0010
,
0000
0010
0100
0001
1000
0010
0000
1000
0010
0000
0010
0000
0101
0000
0000
1001
,
0000
1000
0100
0000
0110
0000
0000
0011
0000
0000
0001
0000
1001
0000
1000
0010
,
0000
0000
0000
0010
0000
0000
0100
0000
0000
0001
0000
0000
0010
0000
0000
0100
0000
0000
0010
0000
0000
0001
0000
0000
1000
0000
0001
0000
1000
0000
0001
0000
1000
0000
0001
0000
1000
0000
0000
0000
0000
0000
0000
0000
0000
0000
0000
0000
,
1010
0001
0011
0100
,
1100
0000
0000
1000
0000
0000
1000
0000
0001
0000
0000
0000
0100
0000
0000
0000
,
1010
0000
0000
0001
0000
0000
0001
0000
1000
0001
0000
0000
0100
0000
0000
0000
,
0110
0000
0000
0000
0010
0000
0000
1010
0000
0000
1010
0000
0110
0000
0000
0000
,
0101
0000
0000
0001
0000
0000
1000
0000
1100
0000
0100
0000
0010
0000
0001
0000
,
1000
0000
0010
0000
0000
0010
0000
0000
0010
0000
0000
0000
0100
0000
0001
0000
,
1000
0001
1000
0100
0010
0100
0010
0001
,
1000
0000
0001
0000
1000
0010
0000
0100
0000
0100
0001
0000
1001
0000
0000
0000
,
0001
0000
1000
0001
1000
0000
0010
0000
1010
0000
0000
1000
0001
0000
0001
0000
,
0010
0000
0100
0000
1000
0000
1001
0000
0000
1001
0000
0000
0001
0000
0100
0000
,
0010
0000
1000
0001
1000
0000
0100
0000
0010
0000
0100
0000
1000
0000
0000
0000
,
1001
0000
0001
0000
0100
0000
0001
1000
0010
0000
0010
0000
1010
0000
0000
0000
,
1001
0000
0000
1001
0000
0000
1000
0000
0100
0000
0100
0000
0010
0000
0010
0000
,
0001
0000
1000
0000
0000
0000
0000
0000
0001
2000
0000
0002
0000
0000
0000
0000
,
0000
0000
0000
0000
0000
0000
0000
0000
0000
0000
3000
0000
0103
0010
0000
1000
,
0001
0000
0000
0000
0000
0000
1000
0000
0000
0100
0000
0000
1000
0000
0000
0000
0000
0000
0001
0000
1000
0000
0001
0000
1000
0000
0000
0001
0000
0000
0100
0000
0000
0010
0000
0000
1000
0000
0000
0001
0000
0000
0000
0000
0000
1000
0000
0000
,
0001
0000
0000
0000
0000
0000
1000
0000
0000
0100
0000
0000
1000
0000
0000
0000
0000
0000
0001
0000
1000
0000
0001
0000
1000
0000
0000
0001
0000
0000
0100
0000
0000
0010
0000
0000
1000
0000
0000
0100
0000
0000
0000
0000
0000
1000
0000
0000
,
0100
0000
0000
0000
0000
0000
1000
0000
0000
0001
0000
0000
1000
0000
0000
0000
0000
0000
0001
0000
1000
0000
0001
0000
1000
0000
0000
0001
0000
0000
0010
0000
0000
0100
0000
0000
1000
0000
0000
0001
0000
0000
0100
0000
0000
0010
0000
0000
,
1000
0000
0000
0001
0000
0000
0010
0000
0000
0100
0000
0000
1000
0000
0000
0001
0000
0000
1000
0000
0001
0000
1000
0000
0001
0000
0000
0010
0000
0000
0100
0000
0000
1000
0000
0000
0001
0000
0000
0100
0000
0000
0010
0000
0000
1000
0000
0000
,
0001
0000
0000
1000
0000
0000
0100
0000
0000
0010
0000
0000
0001
0000
0000
1000
0000
0000
0001
0000
0100
0000
0001
0000
0100
0000
0000
0001
0000
0000
1000
0000
0000
0001
0000
0000
0010
0000
0000
0100
0000
0000
0000
0000
0000
0010
0000
0000
,
0100
0000
0000
0000
0000
0000
1000
0000
0000
0100
0000
0000
1000
0000
0000
0000
0000
0000
0001
0000
1000
0000
0001
0000
1000
0000
0000
0001
0000
0000
0100
0000
0000
0010
0000
0000
1000
0000
0000
0001
0000
0000
0000
0000
0000
1000
0000
0000
,
0001
0000
0000
0000
0000
0000
0100
0000
0000
0010
0000
0000
0100
0000
0000
0000
0000
0000
0001
0000
0100
0000
0001
0000
0100
0000
0000
0010
0000
0000
1000
0000
0000
0001
0000
0000
1000
0000
0000
0100
0000
0000
1000
0000
0000
0100
0000
0000
,
0010
0000
0000
0001
0000
0000
0010
0000
0000
0001
0000
0000
0100
0000
0000
0010
0000
0000
1000
0000
0001
0000
1000
0000
0001
0000
0000
0010
0000
0000
0100
0000
0000
1000
0000
0000
0001
0000
0000
0010
0000
0000
0100
0000
0000
1000
0000
0000
,
0001
0000
0000
1000
0000
0000
0001
0000
0000
1000
0000
0000
0001
0000
0100
0000
0010
0000
1000
0000
0001
0000
1000
0000
0100
0000
0010
0000
0001
0000
0100
0000
0010
0000
1000
0000
0002
0000
0000
0000
0000
0000
0000
0000
0000
0000
0000
0000
,
M000
0000
0000
0000
00M0
0000
0000
0000
0000
0000
0000
0000
0000
0000
0000
0000
0000
0000
0000
0000
0000
0000
0003
0000
1000
0000
0000
0010
0000
0000
0000
0000
0000
0100
0000
0000
0000
0000
0000
0100
0000
0000
0001
0000
0000
0000
0000
0000
,
2000
0000
0000
0000
0000
3100
0000
0000
0020
0000
0000
0000
0000
0031
0000
0000
0200
0000
0000
0000
0000
0310
0000
0000
2000
0000
0000
0000
0000
3001
0000
0000
,
0020
0000
0000
0000
0000
0130
0000
0000
2000
0000
0000
0000
0000
3001
0000
0000
0200
0000
0000
0000
0000
0310
0000
0000
2000
0000
0000
0000
0000
3100
0000
0000
,
0020
0000
0000
0000
0000
0031
0000
0000
0200
0000
0000
0000
0000
0310
0000
0000
2000
0000
0000
0000
0000
3001
0000
0000
0020
0000
0000
0000
0000
0130
0000
0000
,
2000
0000
0000
0000
0000
3010
0000
0000
0200
0000
0000
0000
0000
0301
0000
0000
2000
0000
0000
0000
0000
3100
0000
0000
0020
0000
0000
0000
0000
0031
0000
0000
,
0200
0000
0000
0000
0000
0310
0000
0000
2000
0000
0000
0000
0000
3001
0000
0000
0020
0000
0000
0000
0000
0130
0000
0000
2000
0000
0000
0000
0000
3001
0000
0000
,
0200
0000
0000
0000
0000
0310
0000
0000
2000
0000
0000
0000
0000
3100
0000
0000
0020
0000
0000
0000
0000
0031
0000
0000
0200
0000
0000
0000
0000
0310
0000
0000
,
2000
0000
0000
0000
0000
3001
0000
0000
0020
0000
0000
0000
0000
0130
0000
0000
2000
0000
0000
0000
0000
3001
0000
0000
0200
0000
0000
0000
0000
0310
0000
0000
,
2000
0000
0000
0000
0000
3100
0000
0000
0020
0000
0000
0000
0000
0031
0000
0000
2000
0000
0000
0000
0000
3010
0000
0000
0200
0000
0000
0000
0000
0301
0000
0000
,
2000
0000
0000
0000
0000
3100
0000
0000
0020
0000
0000
0000
0000
0031
0000
0000
0200
0000
0000
0000
0000
0310
0000
0000
2000
0000
0000
0000
0000
3001
0000
0000
,
0020
0000
0000
0000
0000
0130
0000
0000
2000
0000
0000
0000
0000
3001
0000
0000
0200
0000
0000
0000
0000
0310
0000
0000
2000
0000
0000
0000
0000
3100
0000
0000
,
0020
0000
0000
0000
0000
0031
0000
0000
0200
0000
0000
0000
0000
0310
0000
0000
2000
0000
0000
0000
0000
3001
0000
0000
0020
0000
0000
0000
0000
0130
0000
0000
,
2000
0000
0000
0000
0000
3010
0000
0000
0200
0000
0000
0000
0000
0301
0000
0000
2000
0000
0000
0000
0000
3100
0000
0000
0020
0000
0000
0000
0000
0031
0000
0000
,
0200
0000
0000
0000
0000
0310
0000
0000
2000
0000
0000
0000
0000
3001
0000
0000
0020
0000
0000
0000
0000
0130
0000
0000
2000
0000
0000
0000
0000
3001
0000
0000
,
0200
0000
0000
0000
0000
0310
0000
0000
2000
0000
0000
0000
0000
3100
0000
0000
0020
0000
0000
0000
0000
0031
0000
0000
0200
0000
0000
0000
0000
0310
0000
0000
,
2000
0000
0000
0000
0000
3001
0000
0000
0020
0000
0000
0000
0000
0130
0000
0000
2000
0000
0000
0000
0000
3001
0000
0000
0200
0000
0000
0000
0000
0310
0000
0000
,
200M
0000
0000
0000
000M
3100
0000
0000
002M
0000
0000
0000
000M
0130
0000
0000
200M
0000
0000
0000
000M
3010
0000
0000
020M
0000
0000
0000
000M
0310
0000
0000
,
1000
0001
0000
1001
0000
0100
0010
0000
1001
0000
0000
1001
0000
0000
0001
0000
,
0011
0000
0010
0100
0000
0100
1000
0001
1000
0010
0000
1000
0010
0000
0010
0000
,
0100
0001
0000
1001
0000
1000
0100
0000
0110
0000
0000
0110
0000
0000
0010
0000
,
0011
0000
0001
1000
0000
1000
0001
0100
0010
1000
0000
0010
1000
0000
1000
0000
,
0100
0010
0000
0011
0000
0001
1000
0000
1001
0000
0000
1001
0000
0000
0001
0000
,
0101
0000
0100
0010
0000
0010
1000
0010
1000
0001
0000
1000
0001
0000
0001
0000
,
1000
0100
0000
0110
0000
0010
0001
0000
1001
0000
0000
1001
0000
0000
0001
0000
,
0101
0000
0100
0010
0000
0010
1000
0001
1000
0100
0000
1000
0100
0000
0100
0000
,
0010
0001
0000
1001
0000
1000
0010
0000
0110
0000
0000
0101
0000
0000
0001
0000
,
1001
0000
1000
0100
0000
0100
0010
0001
0100
0010
0000
0100
0010
0000
0010
0000
,
1000
0001
0000
1001
0000
0001
0010
0000
0110
0000
0000
1100
0000
0000
1000
0000
,
1001
0000
0000
0000
0000
0000
0001
0000
0000
0100
0000
0000
0000
0000
0000
0100
0000
0000
0010
0000
0000
1000
0000
0000
0100
0000
0000
0000
0100
0000
0000
0000
0010
0000
0000
0000
0001
0000
0000
0000
0001
0000
0000
0000
1000
0000
0000
0000
,
0010
0100
0000
0101
0000
0001
1000
0000
1100
0000
0000
0110
0000
0000
0010
0000
,
0011
0000
0001
1000
0000
1000
0010
0100
0001
1000
0000
0001
1000
0000
1000
0000
,
0001
0100
0000
0110
0000
0010
1000
0000
1001
0000
0000
0011
0000
0000
0100
0000
,
1000
0000
0000
0000
0000
0000
0000
0000
0000
1000
0000
0000
0000
0000
0000
0000
0000
0000
1000
0000
0000
0000
0000
0000
0001
0000
0000
0000
0001
0000
0000
0000
0100
0000
0000
0000
0010
0000
0000
0000
0010
0000
0000
0000
1000
0000
0000
0000
,
1001
0000
M00M
0000
1001
0000
1000
0010
1000
0001
1000
0100
0010
0000
0001
0000
,
0011
0000
0000
0000
1001
0000
1000
0100
1000
0001
1000
0001
0100
0000
0010
0100
,
0001
1000
0010
0100
0001
0000
0010
0100
1000
0001
0010
0100
1000
0000
0001
0000
,
1001
0000
0000
0000
1001
0000
0001
0100
0010
1000
0001
0100
0000
0100
0010
0000
,
1000
0100
0010
0001
1000
0100
0010
0001
2000
0000
0000
0000
3000
0000
0001
1000
,
0001
0000
0000
0100
0000
0000
0010
0000
2000
0000
0000
0000
3001
0000
0010
0000
,
0100
0000
0000
0100
0000
0000
0000
0000
1000
0000
0001
0000
1000
0000
0001
0000
,
0100
0010
1000
0001
0010
0100
1000
0001
0100
0010
0100
0001
1000
0000
1000
0000
,
1001
0000
0001
0000
0011
0000
0001
0010
0100
0000
1000
0000
1001
0000
0001
0000
,
0101
0000
0100
0000
0010
1000
0001
1000
0100
0010
0001
1000
0001
0000
1000
0000
,
1001
0000
1000
0000
1010
0000
0010
0100
0001
0000
1000
0000
0001
0000
0021
0000
,
0000
0000
0130
0000
1000
0000
0001
0000
1001
0000
0000
1010
0000
0000
0110
0000
,
0100
0001
1000
0001
0010
0100
1000
1000
,
1001
0001
0010
0200
0000
1300
1000
0001
,
1000
0010
1000
0010
0100
0000
0001
0010
0100
1000
0001
1000
0001
0000
0100
0010
,
1000
0001
1000
0100
0010
0001
1000
0010
0100
0010
0000
1001
0000
0010
0100
0000
,
1MM1
0000
0001
0010
0100
1000
0100
0010
0001
1000
0010
0100
0001
1000
0010
1000
,
0001
0010
0001
1000
0001
0010
0001
1000
0001
0010
0001
1000
0001
0100
0001
1000
,
0010
1000
0001
1000
0001
1000
0100
0010
0100
1000
0001
1000
0001
0100
0010
1000
,
0010
1000
0001
0010
0100
1000
0001
0100
0010
1000
0100
1000
0001
1000
0010
0100
,
0001
1000
0001
1000
0100
0010
0001
1000
0010
1000
0001
0010
0100
1000
0010
0100
,
0001
0010
0100
1000
0001
1000
0010
0100
0010
0100
0010
1000
0001
0010
0100
1000
,
0010
0100
0001
0010
0100
1000
0001
0100
0010
1000
0010
1000
0100
0010
0001
1000
,
0001
1000
0001
0100
0010
0000
0000
1001
0000
00M0
0M00
00M0
0M00
00M0
0M00
00M0
,
1M01
0000
1000
0100
0010
0001
0010
0100
1000
0001
0100
0010
1000
0001
0100
0001
,
1000
0100
1000
0001
1000
0100
1000
0001
1000
0100
1000
0001
1000
0010
1000
0001
,
0100
0010
1000
0100
0010
0001
0100
0010
0100
0001
1000
0001
1000
0010
0100
0001
,
0100
0001
1000
0100
1000
0100
0010
0001
0100
0001
0100
0001
0010
0100
1000
0001
,
1000
0001
0100
0010
1000
0010
0100
0001
1000
0001
1000
0100
0010
0001
0100
0010
,
1000
0100
0010
0001
1000
0001
0100
0010
1000
0010
0100
0001
1000
0100
0010
0001
,
1000
0100
1000
0100
1000
0001
1000
0001
0100
0010
0100
0010
1000
0001
1000
0001
,
0010
0100
0010
0100
1000
0001
1000
0001
0100
0010
0000
1010
0000
1000
0001
0000
,
2MM0
0000
0000
0000
0000
3100
0000
0000
0020
0000
0000
0000
0000
0031
0000
0000
0200
0000
0000
0000
0000
0310
0000
0000
2000
0000
0000
0000
0000
3001
0000
0000
,
0020
0000
0000
0000
0000
0130
0000
0000
2000
0000
0000
0000
0000
3001
0000
0000
0200
0000
0000
0000
0000
0310
0000
0000
2000
0000
0000
0000
0000
3100
0000
0000
,
0020
0000
0000
0000
0000
0031
0000
0000
0200
0000
0000
0000
0000
0310
0000
0000
2000
0000
0000
0000
0000
3001
0000
0000
0020
0000
0000
0000
0000
0130
0000
0000
,
2000
0000
0000
0000
0000
3010
0000
0000
0200
0000
0000
0000
0000
0301
0000
0000
2000
0000
0000
0000
0000
3100
0000
0000
0020
0000
0000
0000
0000
0031
0000
0000
,
0200
0000
0000
0000
0000
0310
0000
0000
2000
0000
0000
0000
0000
3001
0000
0000
0020
0000
0000
0000
0000
0130
0000
0000
2000
0000
0000
0000
0000
3001
0000
0000
,
0200
0000
0000
0000
0000
0310
0000
0000
2000
0000
0000
0000
0000
3100
0000
0000
0020
0000
0000
0000
0000
0031
0000
0000
0200
0000
0000
0000
0000
0310
0000
0000
,
2000
0000
0000
0000
0000
3001
0000
0000
0020
0000
0000
0000
0000
0130
0000
0000
2000
0000
0000
0000
0000
3001
0000
0000
0200
0000
0000
0000
0000
0310
0000
0000
,
2000
0000
0000
0000
0000
3100
0000
0000
0020
0000
0000
0000
0000
0031
0000
0000
2000
0000
0000
0000
0000
3010
0000
0000
0200
0000
0000
0000
0000
0301
0000
0000
,
2000
0000
0000
0000
0000
3100
0000
0000
0020
0000
0000
0000
0000
0031
0000
0000
0200
0000
0000
0000
0000
0310
0000
0000
2000
0000
0000
0000
0000
3001
0000
0000
,
0020
0000
0000
0000
0000
0130
0000
0000
2000
0000
0000
0000
0000
3001
0000
0000
0200
0000
0000
0000
0000
0310
0000
0000
2000
0000
0000
0000
0000
3100
0000
0000
,
0020
0000
0000
0000
0000
0031
0000
0000
0200
0000
0000
0000
0000
0310
0000
0000
2000
0000
0000
0000
0000
3001
0000
0000
0020
0000
0000
0000
0000
0130
0000
0000
,
2000
0000
0000
0000
0000
3010
0000
0000
0200
0000
0000
0000
0000
0301
0000
0000
2000
0000
0000
0000
0000
3100
0000
0000
0020
0000
0000
0000
0000
0031
0000
0000
,
0200
0000
0000
0000
0000
0310
0000
0000
2000
0000
0000
0000
0000
3001
0000
0000
0020
0000
0000
0000
0000
0130
0000
0000
2000
0000
0000
0000
0000
3001
0000
0000
,
0200
0000
0000
0000
0000
0310
0000
0000
2000
0000
0000
0000
0000
3100
0000
0000
0020
0000
0000
0000
0000
0031
0000
0000
0200
0000
0000
0000
0000
0310
0000
0000
,
2000
0000
0000
0000
0000
3001
0000
0000
0020
0000
0000
0000
0000
0130
0000
0000
2000
0000
0000
0000
0000
3001
0000
0000
0200
0000
0000
0000
0000
0310
0000
0000
,
200M
0000
0000
0000
0000
0000
0000
0000
3010
0000
0000
0000
0000
0000
0000
0000
0200
0000
0000
0000
0000
0000
0000
0000
0301
0000
0000
0000
0000
0000
0000
0000
0020
0030
0000
0000
0002
0003
0000
0000
0020
0030
0000
0000
0000
0000
0000
0000
0200
0300
0000
0000
2000
3000
0000
0000
0200
0300
0000
0000
0000
0000
0000
0000
,
1000
0001
0100
0001
1000
0100
0010
0001
1000
0010
0100
0001
1000
0010
0100
0001
,
0010
0100
1000
0001
0010
0100
0010
0001
1000
0001
0100
0010
1000
0001
1000
0010
,
0100
0001
1000
0100
0010
0001
1000
0001
0100
0001
1000
0010
0100
0001
0010
0100
,
1000
0001
1000
0100
0010
0001
1000
0010
0100
0010
0100
0001
1000
0010
0100
0010
,
1000
0100
0010
0001
1000
0010
0100
0010
1000
0001
0010
0100
0010
0001
1000
0010
,
0100
0001
1000
0010
1000
0001
0100
0010
1000
0010
1000
0001
0010
0100
1000
0100
,
0010
0001
1000
0010
0100
0001
1000
0001
0100
0001
1000
0010
0100
0001
1000
0001
,
0100
0001
0010
0100
1000
0010
0100
0001
0010
0100
1000
0100
1000
0001
0100
0001
,
0100
0010
1000
0001
0100
0010
1000
0100
0010
0001
1000
0100
0010
0001
1000
0010
,
1000
0001
0100
0001
1000
0001
0010
0100
1000
0100
1000
0001
0100
0001
0100
0010
,
1000
0010
0100
0001
1000
0010
1000
0100
1000
0001
0100
0001
1000
0010
1000
0100
,
1000
0001
0010
0100
1000
0001
0100
0010
1000
0001
1000
0001
0010
0100
1000
0010
,
0100
0001
0010
0100
1000
0001
0100
0010
1000
0010
0100
0001
0010
0100
1000
0100
,
0010
0001
0100
0001
0100
0010
1000
0010
0100
0001
1000
0100
0010
0001
1000
0010
,
1000
0001
1000
0100
0010
0001
1000
0010
1000
0001
1000
0100
0010
0001
1000
0010
,
0100
0000
0000
000M
0000
0000
M000
0000
0000
00M0
0000
0000
M000
0000
0000
000M
0000
0000
00M0
0000
0000
0M00
0000
0000
M000
0000
0000
000M
0000
0000
0M00
0000
,
0000
00M0
0000
0M00
0000
0000
000M
0000
0000
M000
0000
0000
0000
0000
0000
0000
1001
0000
0000
0000
0000
0000
0000
0000
1001
0000
0000
0000
0000
0000
0000
0000
,
1010
0000
0000
0000
0000
0000
0000
0000
0000
0000
0000
0000
0110
0000
0000
0000
0000
0000
0000
0000
0000
0000
0000
0000
0101
0000
0000
0000
0000
0000
0000
0000
0001
0000
0000
0000
0000
1000
0000
0000
0000
0000
0000
0000
0000
0000
0000
0000
0010
0000
0000
0000
0000
0000
0000
0000
0010
0000
0000
0000
0000
0000
0000
0000
,
1001
0000
0000
1100
0000
0000
0100
0000
0110
0000
0000
0000
0110
0000
0000
0000
,
0011
0000
0000
0011
0000
0000
1001
0000
M101
0000
0000
M101
0000
0000
M101
0000
,
0000
M101
0000
0001
0100
0010
1000
0001
1000
0000
0000
0000
1001
0000
0000
0000
,
0011
0000
0000
0000
0000
0000
0000
0000
0000
0000
0000
0000
0011
0000
0000
0000
0000
0000
0000
0000
0000
0000
0000
0000
0110
0000
0000
0000
0000
0000
0000
0000
0100
0000
0000
0000
0000
1000
0000
0000
0000
0000
0000
0000
0000
0000
0000
0000
0001
0000
0000
0000
0000
0000
0000
0000
0001
0000
0000
0000
0000
0000
0000
0000
,
1001
0000
0000
1001
0000
0000
0100
0000
1001
0000
0000
0000
1001
0000
0000
0000
,
0011
0000
0000
0011
0000
0000
1001
0000
M101
0000
0000
M101
0000
0000
M101
0000
,
0000
M101
0000
0001
1000
0100
0010
0001
1000
0000
0000
0000
1001
0000
0000
0000
,
1010
0000
0000
0000
0000
0000
0000
0000
0000
0000
0000
0000
1010
0000
0000
0000
0000
0000
0000
0000
0000
0000
0000
0000
0101
0000
0000
0000
0000
0000
0000
0000
0001
0000
0000
0000
0000
1000
0000
0000
0000
0000
0000
0000
0000
0000
0000
0000
0001
0000
0000
0000
0000
0000
0000
0000
0001
0000
0000
0000
0000
0000
0000
0000
,
1001
0000
0000
1100
0000
0000
1000
0000
1001
0000
0000
0000
1001
0000
0000
0000
,
1100
0000
0000
1100
0000
0000
1001
0000
M101
0000
0000
M101
0000
0000
M101
0000
,
0000
M101
0000
0001
1000
0100
0010
0001
1000
0000
0000
0000
1001
0000
0000
0000
,
1100
0000
0000
0000
0000
0000
0000
0000
0000
0000
0000
0000
1100
0000
0000
0000
0000
0000
0000
0000
0000
0000
0000
0000
1001
0000
0000
0000
0000
0000
0000
0000
0001
0000
0000
0000
0000
1000
0000
0000
0000
0000
0000
0000
0000
0000
0000
0000
0001
0000
0000
0000
0000
0000
0000
0000
0001
0000
0000
0000
0000
0000
0000
0000
,
1001
0000
0000
0110
0000
0000
1000
0000
1001
0000
0000
0000
0101
0000
0000
0000
,
1010
0000
0000
1010
0000
0000
1001
0000
101M
0000
0000
101M
0000
0000
101M
0000
,
0000
101M
0000
M000
0M00
00M0
000M
0000
0000
0000
0000
0000
0000
0000
0000
0000
;
