#TITLE:Temperature;
#SUBTITLE:;
#ARTIST:Sean Paul;
#TITLETRANSLIT:;
#SUBTITLETRANSLIT:;
#ARTISTTRANSLIT:Sean Paul;
#CREDIT:;
#BANNER:seanpaul.jpg;
#BACKGROUND:Temperature-bg.jpg;
#LYRICSPATH:;
#CDTITLE:;
#MUSIC:Temperature.mp3;
#OFFSET:0.000;
#SAMPLESTART:100.000;
#SAMPLELENGTH:12.000;
#SELECTABLE:YES;
#BPMS:0.000=180.000,549.000=90.000;
#STOPS:;
#BGCHANGES:;
// cache tags:
#FIRSTBEAT:0.000;
#LASTBEAT:598.000;
#SONGFILENAME:Songs/newbie/Temperature-Sean Paul/Temperature.sm;
#HASMUSIC:1;
#HASBANNER:1;
#MUSICLENGTH:216.790;
// end cache tags

//---------------dance-single - ----------------
#NOTES:
     dance-single:
     :
     Hard:
     11:
     0.919,1.000,0.198,0.484,0.417,1246.000,43.000,105.000,0.000,64.000:
2001
0000
0000
0110
0000
0000
0011
0000
,
0000
0110
0000
0000
0011
0000
0000
0110
,
0000
0000
0011
0000
0000
0110
0000
0000
,
3011
0000
1000
0100
1000
0100
1000
0100
,
0010
0100
0010
0100
0010
0001
0010
0001
,
0010
0000
2000
0100
0000
3011
0000
0100
,
0010
0001
0001
0010
0100
1000
1000
0100
,
0010
0001
0001
0010
0100
1000
1000
0100
,
0010
0001
0001
0010
0100
1000
1000
0100
,
0010
0001
0001
0010
0100
1000
1000
0100
,
0010
0001
0001
0010
0100
1000
1000
0100
,
0010
0001
0001
0010
0100
1000
1000
0002
,
0010
0200
0310
1000
0010
0200
1300
0100
,
0010
2000
3010
0100
1000
0200
0310
1003
,
2000
0200
0310
0001
0010
0200
0310
0001
,
0010
0200
0310
0001
0010
0200
0310
0001
,
0010
0200
0310
0001
0010
0200
0310
0001
,
3010
0000
0000
0000
0000
0000
0000
0000
0000
0000
0000
1000
0100
1000
0100
1000
,
0100
1000
0002
0000
0010
0000
0100
0000
1013
0000
0100
0000
0010
0000
0001
0000
,
0001
0010
0100
1000
1000
0100
0010
0001
,
1000
0000
0001
0000
0100
0000
0010
0000
0001
0000
0010
0100
1000
0100
1000
0100
,
1000
0100
0001
0000
0010
0000
0100
0000
0010
0000
0100
0000
1000
0000
0100
0000
,
0010
0100
0010
0100
0001
0100
0020
0130
,
0010
0100
1000
0100
0010
0100
0010
0100
,
0001
0100
0010
0100
0010
0100
1000
0100
,
0010
0100
0010
0100
0010
1000
0010
0002
,
0013
0100
0010
0001
0010
0100
1000
0100
,
0010
0001
0010
0100
1000
0100
0020
0001
,
0100
1000
0100
0001
0130
0001
2000
3010
,
1000
0001
0100
0010
1000
0001
0100
1000
,
0001
0100
0010
1000
0001
0100
0010
1000
,
0001
0010
0100
1000
0100
0010
2000
3100
,
0001
0010
0100
1000
0100
0010
0100
1000
,
0100
0010
0001
0010
0100
1000
0100
0010
,
0100
1000
0200
0010
0001
0010
2000
3010
,
0001
0010
2000
3010
0001
0010
2000
3010
,
0001
0010
2000
3010
0001
0010
2000
3010
,
0301
2000
0200
0300
0010
0001
0020
0130
,
0100
0010
0002
0013
0100
0010
3002
0013
,
0001
0010
0200
1300
0100
0010
0200
0310
,
1000
0000
0001
0000
1000
0000
0000
0000
0000
0000
0000
0000
0000
0000
0001
0010
,
0001
0010
0001
0010
0001
0000
0100
0000
0010
0000
0100
0000
1000
0000
0001
0000
,
1000
0010
0001
0010
0100
1000
0100
0002
,
0010
0000
0100
0000
0013
0000
0100
0000
1000
0000
0100
0000
0010
0001
0010
0001
,
0010
0001
0010
0000
0010
0000
0001
0000
0010
0000
0100
0000
1000
0000
0100
0000
,
0010
0001
0010
0100
1000
0100
0020
0031
,
0010
0100
1000
0010
0100
0010
0100
1000
,
0100
0010
0001
0010
0100
1000
0100
1000
,
0100
1000
0100
0010
0001
0010
1100
0200
,
0310
1000
0100
0010
0001
0010
0100
1000
,
0100
0010
0100
0001
1000
0001
0100
0010
,
0100
1000
0100
0010
0001
0010
0100
2000
,
3100
0010
0100
1000
0100
0010
0001
0010
,
0100
1000
0100
0010
0100
1000
0100
1000
,
0100
0010
0001
0010
0100
1100
0002
0013
,
0100
1000
0100
0010
0001
0010
0100
1000
,
0001
1000
0100
0010
0100
1000
0100
1000
,
0200
1000
0010
0001
0010
1000
0010
0001
,
0020
1030
0010
0001
1000
0010
0002
0013
,
1000
0010
0002
0013
1300
1002
0100
0020
,
0130
1000
0100
0010
0100
2000
3100
0010
,
0100
1000
0100
0020
0130
1000
0100
0010
,
0100
2000
3100
0010
0100
1000
0100
0020
,
0130
0000
1000
0000
0100
0000
0013
0000
0000
0000
0000
0000
0000
0000
1000
0001
,
1000
0001
1000
0001
1000
0000
0100
0000
0010
0000
0001
0000
0010
0000
0100
0000
,
1000
0100
0010
0001
0010
0100
1000
0100
,
0010
0000
0001
0000
0010
0000
0100
0000
1000
0000
0110
0000
0001
1000
0001
1000
,
0001
1000
0010
0000
0001
0000
0010
0000
0100
0000
1000
0000
0100
0000
0010
0000
,
0001
0010
0100
1000
0100
0010
0100
2000
,
3100
0010
0001
0010
0100
1000
0100
0010
,
0100
0010
1000
0001
1000
0100
0001
0100
,
0010
1000
0010
0100
1000
0100
0011
0020
,
0130
1000
0100
0010
0001
0010
0100
1000
,
1000
0100
0010
0001
0001
0010
0100
1000
,
1000
0100
0010
0001
0001
0010
0100
0002
,
0013
0100
1000
0100
0010
0001
0010
0100
,
1000
0100
0010
0001
0010
0100
0010
1000
,
0001
1000
0100
0001
0100
0010
2000
3100
,
0010
0001
0010
0100
1000
0100
0010
0001
,
0010
0100
1000
0100
0010
0001
0010
0100
,
1020
0100
0001
0200
1300
0100
0001
0100
,
1000
0200
0301
0100
1000
0100
0001
0200
,
1300
0100
0001
0100
1000
0200
0301
0100
,
1030
2000
0100
0010
0001
0010
0100
0020
,
0031
0010
0100
0010
0001
0020
0130
0010
,
0001
0010
0100
0020
0031
0010
0100
0010
,
3001
0000
0000
0000
0000
0000
0000
0000
0000
0000
0000
0000
0000
0100
0001
0100
,
0001
0100
0001
0100
0001
0000
0001
0000
0010
0000
0100
0000
1000
0000
1000
0000
,
0200
0010
0302
0000
0013
0100
1000
1000
,
0100
0000
0010
0000
0002
0000
0000
0000
0013
0000
1100
0000
0001
0010
0001
0010
,
0001
0010
0100
0000
1000
0000
0100
0000
0100
0000
0010
0000
0010
0000
0001
0000
,
0020
0000
0230
0000
1300
0100
0100
0020
,
0130
0010
0010
0001
0010
0010
0100
1000
,
0100
0100
0010
0001
0010
0100
1000
0100
,
0010
0001
0010
0100
1000
0100
0010
2000
,
3100
0001
0010
0100
1000
0100
0010
0001
,
0010
0100
1000
0100
0010
0001
0010
0100
,
1000
0100
0010
0001
0010
0100
1000
0002
,
0013
0100
1000
1000
0100
0010
0001
0001
,
0010
0100
1000
1000
0100
0010
0001
0001
,
0010
0100
1000
1000
0100
0010
0001
0200
,
1300
0100
0010
0001
0010
0100
1000
0100
,
0010
0001
0010
0100
1000
0100
0010
0001
,
0010
0100
0020
0100
1000
0200
0301
0100
,
1000
0100
0001
0200
1300
0100
0001
0100
,
1000
0100
0002
0103
1030
2002
0100
0000
,
0000
0010
0000
0000
0100
0000
0000
0010
,
0000
0000
0100
0000
0000
0010
0000
0000
,
0100
0000
0000
0010
0000
0000
0100
0000
,
3003
0000
0000
0000
0000
0000
0000
0000
0000
0000
0000
0000
0000
0000
0000
0100
,
0010
0100
0010
0100
0010
0100
1000
0000
0100
0000
0010
0000
0001
0000
0010
0000
,
0100
1000
0100
0010
0001
0010
0100
1000
,
0100
0000
0010
0000
0001
0000
0010
0000
0100
0000
1000
0000
0100
0000
0001
0100
,
0010
0100
0010
0100
0010
0000
1000
0000
0100
0000
0010
0000
0001
0000
0010
0000
,
0100
0001
0010
0100
1000
0100
0010
0002
,
0013
0100
1000
0100
0010
0001
0010
0100
,
1000
0100
0010
0001
0010
0100
1000
0100
,
0010
0001
0010
0100
1000
0100
0010
0001
,
2000
0000
3100
0000
1000
0100
0000
0010
0000
0001
1000
0100
0000
0010
0000
0001
,
1000
0100
0000
0010
0000
0001
1000
0100
0000
0010
0000
0001
1000
0100
0000
0010
,
0000
0001
1000
0100
0000
0010
0000
0001
1000
0000
0000
0000
0000
0000
0002
0000
,
0013
0000
0010
1000
0000
0100
0000
0010
0001
0010
0000
0100
0000
1000
0100
0010
,
0000
0001
0000
0010
0100
1000
0000
0100
0000
0010
0001
0010
0000
0100
0000
1000
,
0100
0010
0000
0001
0000
0010
0100
1000
0000
0100
0000
0010
0001
0000
0200
0000
,
0310
1000
0100
0010
0001
0010
0100
1000
,
0100
0010
0001
0010
0100
1000
0100
0010
,
0001
0010
0100
1000
0100
0010
2000
0200
,
0310
0001
0010
0200
0310
0001
0010
0200
,
0310
0001
0010
0200
0310
0001
3010
0002
,
0020
0130
1000
0100
0020
0130
1000
0100
,
0020
0130
1000
0100
0020
0130
1000
0100
,
0020
0130
1000
0100
0020
0130
1000
0100
,
0013
0000
0000
0000
0000
0000
0000
0000
0000
0000
0000
0000
0000
0000
0000
1000
,
0100
0010
0001
0010
0100
0100
0000
1000
0000
0100
0000
0010
0000
0001
0000
0010
,
0000
0100
0000
1000
0000
0100
0000
0010
0000
0001
0000
0010
0000
0100
0000
1000
,
0000
0100
0000
0010
0000
0001
0000
0010
0000
0100
0000
1000
0000
0100
0000
0010
,
0001
0010
0100
1000
0100
0010
0001
0010
0100
1000
0100
0010
0000
0002
0000
0013
,
0000
0100
0000
1000
0001
0010
0100
1000
0100
0010
0002
0013
0100
1000
0100
0010
,
0001
0010
0100
1000
0100
0010
0001
0010
0100
1000
0100
0010
0001
0010
0100
1000
,
0100
0010
0002
0013
0100
1000
0100
0010
0001
0010
0100
1000
0100
0010
0001
0010
,
0100
1000
0100
0010
0001
0010
0100
1000
0100
0010
0002
0013
0100
1000
0100
0010
,
0001
0010
0100
1000
0100
0010
0001
0010
0100
1000
0100
0010
0001
0010
0100
1000
,
0110
0002
1003
0100
0010
0001
0010
0100
1000
0100
0010
0001
0010
0100
1000
0100
,
0010
0001
0010
0100
1000
0100
0010
0001
0010
0100
0020
0000
0031
0000
0100
0000
,
1000
0100
0020
0031
0010
0200
1300
0100
,
0020
0031
0010
0100
2000
3100
0010
0001
,
0010
0000
0200
0000
1300
0110
1000
0110
0001
0110
1000
0110
0001
0110
1000
0110
,
0001
0110
1000
0110
0001
0110
1000
0110
0001
0110
1000
0110
0001
0110
1000
0110
,
0001
0110
1000
0110
0001
0110
1000
0110
0001
0110
1000
0110
0001
0110
1000
0110
,
0022
0000
0033
0000
;
