#TITLE:Nothing Ever Dies;
#SUBTITLE:;
#ARTIST:Kamelot;
#TITLETRANSLIT:;
#SUBTITLETRANSLIT:;
#ARTISTTRANSLIT:;
#CREDIT:;
#BANNER:Nothing Ever Dies-bn.JPG;
#BACKGROUND:Nothing Ever Dies-bg.JPG;
#LYRICSPATH:;
#CDTITLE:!TEEXcdtitle.png;
#MUSIC:Kamelot - Nothing Ever Dies.mp3;
#OFFSET:-0.186;
#SAMPLESTART:54.818;
#SAMPLELENGTH:12.000;
#SELECTABLE:YES;
#BPMS:0.000=146.000;
#STOPS:;
#BGCHANGES:;
// cache tags:
#FIRSTBEAT:0.000;
#LASTBEAT:634.000;
#SONGFILENAME:Songs/Fabulously Fresh Flock of Fantastic Files F5/(TEEX) Nothing Ever Dies/Nothing Ever Dies.sm;
#HASMUSIC:1;
#HASBANNER:1;
#MUSICLENGTH:261.911;
// end cache tags

//---------------dance-single - ----------------
#NOTES:
     dance-single:
     :
     Hard:
     11:
     1.000,1.000,1.000,0.424,1.000,1645.000,303.000,111.000,0.000,3.000:
1001
0100
0010
1000
0100
1000
0001
1000
0010
1000
0001
0100
0010
0000
0101
0000
,
0010
1000
0010
0100
0001
0010
0001
0100
0010
1000
0100
1000
0010
0000
0010
0000
,
0101
1000
0001
1000
0010
0100
0001
0010
0001
0100
0010
0100
0001
0000
0101
0000
,
1001
0100
0010
1000
0001
0010
0001
0100
1010
0100
0001
1000
0110
0000
0010
0000
,
1001
0100
1000
0010
0100
0010
1000
0001
0010
0001
0100
0010
1000
0000
1100
0000
,
0010
0100
0010
1000
0010
0100
0010
1000
0001
0010
0001
0100
0010
0000
0101
0000
,
0100
1000
0100
0010
0001
0010
0100
1000
0001
0010
0100
1000
0001
0000
0101
0000
,
0101
0010
1000
0100
1000
0100
1000
0100
0010
0001
0010
0100
2000
0000
0000
0000
,
3010
1000
0100
1000
0101
0010
1000
0001
1000
0001
0100
0001
1100
0000
0011
0000
,
1010
0001
1000
0001
0010
0100
1000
0001
0010
0001
1000
0100
0010
0000
0110
0000
,
1001
0100
0010
1000
0100
1000
0010
0100
0001
0010
0001
0100
0010
0100
0010
0100
,
1010
0100
0001
1000
0001
0100
0010
1000
0001
0100
0001
0010
0001
0100
0010
1000
,
0101
0010
0001
0100
0010
1000
0100
1000
0100
1000
0001
0010
0001
0100
0010
1000
,
0110
1000
0100
1000
0001
0010
0001
0010
0100
1000
0100
0010
0001
1000
0010
1000
,
0011
0100
0010
0100
0001
0010
0100
0010
0001
1000
0100
1000
0010
0100
0010
0000
,
0101
0010
0001
0100
0010
1000
0100
1000
0010
0100
0001
1000
0220
0000
0330
0000
,
1000
0100
0010
0001
0100
0001
1000
0001
0100
0001
1000
0100
0020
0000
0030
0000
,
1001
0000
1000
0000
0001
0000
2200
0000
0300
0000
3010
0000
0001
0100
0010
0000
,
1100
0000
0001
0000
1100
0000
0010
0000
0011
0000
0000
1010
0000
0000
1100
0000
,
1002
0000
0103
2002
0000
0000
3003
0110
,
0000
0000
0010
1000
0001
1000
0001
0100
0001
0010
0001
0100
0010
1000
0100
1000
,
0220
0000
0030
0000
0310
0000
2002
0000
3003
0000
0100
0000
0011
1000
0001
0000
,
1100
0000
1010
0000
0100
0000
0001
0000
1010
0000
0000
1001
0000
0000
1100
0000
,
0120
0000
0031
0210
0000
2300
0000
3010
,
0101
0001
1100
1000
0011
0100
1001
0010
,
2002
0000
3000
0000
0103
0000
0101
0000
0000
0000
0110
0000
0010
0100
1000
0000
,
0110
0000
0001
0000
1000
0000
0100
0000
0011
0000
0000
1001
0000
0000
0101
0000
,
2002
3000
1003
1200
0000
0320
0000
0230
,
0000
0000
1300
0010
1000
0001
0010
0001
0100
0001
1000
0100
0010
0100
1000
0001
,
0110
0000
1000
0100
1001
0000
0010
0001
0010
0100
0010
0000
0101
0000
0001
0100
,
1001
0000
0010
0100
0010
0000
1000
0100
1001
0000
0010
0000
0100
0000
0001
0010
,
0001
1000
0100
1000
0010
0100
0010
1000
0001
0100
0001
0010
0100
1000
0010
0100
,
1020
0130
0102
0013
0021
0130
0210
1300
,
1001
0100
0001
1000
0001
0010
0001
1000
0001
0100
0010
1000
0001
0010
0100
0010
,
0001
1000
0010
0100
0001
1000
0001
0100
0001
1000
0010
0100
0010
1000
0100
1000
,
0001
0010
0100
1000
0010
0100
0001
0010
0100
0010
0001
0010
0001
0000
1100
0000
,
0110
1000
0001
0100
0001
1000
0100
1000
0001
0010
0001
1000
0001
1000
0100
0010
,
0001
0010
0100
1000
0001
1000
0010
1000
0010
0100
0010
1000
0010
0100
0001
0010
,
0001
0100
0010
0100
0001
0100
0010
1000
0001
0010
0100
1000
0001
0000
1001
0000
,
0100
0010
0001
0010
0001
1000
0100
1000
0010
0100
0010
1000
0001
0100
0010
0100
,
2002
0000
0000
0000
0000
0000
0000
3003
,
0110
1000
0010
1000
0100
1000
0001
0100
0010
0100
0001
1000
0010
1000
0100
1000
,
0001
0100
0001
1000
0100
0010
0100
1000
0001
0010
0100
1000
0010
0000
1100
0000
,
0100
0010
0001
0010
0100
1000
0100
0010
0100
1000
0001
0010
0001
1000
0001
0100
,
0001
0100
0010
1000
0010
1000
0001
1000
0100
0010
0100
1000
0010
0100
0010
1000
,
0101
0000
0100
0000
1001
0000
0100
0001
1000
0000
0010
0100
0001
0010
0001
0000
,
0110
0000
0010
0001
0110
0000
0100
1000
0100
0010
0100
0000
1100
0000
0010
0001
,
0200
0302
0000
2003
0000
3010
0100
0001
,
1000
0100
0010
0100
1000
0010
0100
0010
1000
0100
0010
0100
1000
0010
0100
0010
,
2002
0000
3000
0000
0103
0000
2002
0000
0003
0000
3010
0000
0110
1000
0001
0000
,
0101
0000
0001
0000
0010
0000
2200
0000
3300
0000
0110
0000
0101
1000
0001
0000
,
1100
0010
0110
0100
1100
1000
1020
0230
,
0302
0000
0000
0000
2003
0000
0000
0000
3010
0100
0001
0100
0001
0010
0001
0100
,
0010
1000
0100
1000
0100
1000
0010
1000
0101
0000
0000
1001
0000
0000
0011
0000
,
1001
1000
0100
1100
0100
0010
0011
0100
,
0101
0100
0010
1001
1000
0100
1100
1000
,
1020
0000
1030
0000
0001
0010
0100
0010
0001
0100
0001
0010
0100
1000
0010
0000
,
1001
0100
0010
2002
3003
0100
0010
1000
,
1100
0000
0001
0000
0011
0000
1010
0000
1001
0000
0000
1100
0000
0000
0011
0000
,
0011
0100
0010
0110
0010
1000
1100
0100
,
1000
0000
0220
0000
0300
0000
0130
0000
0001
0000
0010
0000
0001
1000
0001
1000
,
0010
0100
0001
0010
0101
1000
0100
1000
0010
0100
0010
1000
0001
0100
0001
1000
,
0101
0010
0100
0010
0001
0010
0100
0010
0100
1000
0001
1000
0001
0100
0001
1000
,
0110
1000
0100
1000
0001
0010
0001
1000
0001
1000
0010
0100
0001
1000
0001
0010
,
0001
1000
0100
1000
0001
0010
0100
1000
0100
0010
0001
1000
0001
1000
0010
1000
,
0010
1000
0010
0100
0010
0100
0001
0100
1001
0000
1000
0000
1010
0000
0010
0000
,
0110
0100
0101
0001
0021
0000
0130
2002
,
3003
0000
0001
0100
0010
1000
0010
0100
0001
0010
0001
0100
0010
1000
0100
0010
,
1001
0100
0101
0010
1100
1000
0001
0011
,
0100
0000
0100
0000
0001
1000
0001
1000
0010
0100
0010
0100
0001
0010
0001
0010
,
0100
1000
0100
1000
0010
1000
0010
1000
0001
0100
0001
0100
0010
0100
0001
1000
,
0110
0000
0010
0000
0100
0001
1000
0001
1000
0100
0010
0001
0010
0100
1000
0001
,
1000
0100
0010
0001
1000
0001
0010
0100
0010
0001
1000
0100
0010
0100
1000
0001
,
0100
0010
1000
0010
1000
0100
1000
0010
0100
0001
0100
0001
0010
0001
0010
0001
,
0010
0100
0010
0100
1000
0100
1000
0100
1000
0010
1000
0010
1001
0000
0100
0000
,
0110
1000
0001
0010
0001
1000
0010
0100
0001
1000
0001
1000
0001
1000
0010
1000
,
0202
0000
0000
0000
0000
0000
0000
0303
,
1001
0000
0110
0000
,
1100
0000
1000
0001
0100
0001
0110
0000
0000
0000
0000
0000
,
0021
0000
0000
0100
0000
0000
1030
0000
0010
0001
0100
0001
,
0210
1300
1020
0130
,
0101
0000
0001
0100
0010
1000
2100
0000
0001
0000
3001
0000
,
0021
0000
0000
0200
0030
0000
2000
0300
0000
3000
0000
0000
,
0020
0000
0000
1000
0000
0000
0230
0000
0000
0301
0000
0010
,
2000
0000
0000
0000
3200
0000
0010
0300
,
1001
0000
1000
0001
0100
0010
0101
0000
0000
0100
0000
0000
,
1010
0000
1000
0001
0100
0010
1010
0000
1001
0000
1100
0000
,
1002
0000
0000
0000
0013
0000
0202
0000
0303
0000
0020
0000
,
2030
0000
3200
0000
1300
0000
0011
0000
1001
0000
0101
0000
,
2002
0003
0000
0000
3010
0000
1000
0000
0001
0000
0100
0000
,
0002
0000
0000
0000
0000
0003
1100
0000
1010
0000
0011
0000
,
0202
0000
2000
0000
,
0020
0000
0000
0000
3333
0000
2222
0000
0000
0000
0000
3333
,
1010
0100
0000
0101
0000
0001
0011
0000
0110
0000
1100
0000
,
1001
0000
0000
0110
0000
1000
1100
0000
0110
0000
0101
0000
,
1001
0001
0000
0110
0000
1000
1100
0000
0011
0000
0010
0000
,
1001
0100
0000
1010
0000
0100
0101
0000
0011
0000
0110
0000
,
1001
0010
0000
1100
0000
1001
0100
0000
1010
0000
0101
0000
,
1010
0000
0000
1100
0000
0001
0011
0000
0101
0000
0110
0000
,
0101
0010
0000
1001
0000
0100
1100
0000
1010
0000
0100
0000
,
1001
0001
0000
0110
0000
0100
1000
0001
0100
0001
0010
0100
,
1001
0010
0000
0110
0000
0100
0101
0000
0001
0000
1000
0000
,
1010
0010
0000
0110
0000
0100
1001
0000
0011
0000
0110
0000
,
1100
1001
0000
0110
0000
1010
0202
0303
0110
0000
0001
0000
,
1000
1100
0000
0010
0000
0100
1002
0000
0203
0000
0301
0000
,
1100
0010
0000
1001
0000
0110
0101
0000
0110
0000
1001
0000
,
1100
0001
0000
0101
0000
0011
1000
0000
1100
0000
0110
0000
,
1001
0100
0000
0110
0000
1010
0001
0000
0100
0000
0001
0000
,
0010
0001
0010
0100
1000
0100
0010
0001
0010
0100
1000
0100
0010
0001
0010
0100
1000
0100
0010
0000
0000
0000
0001
0000
,
1000
0010
0100
0001
0010
0001
0200
0000
0000
0000
0310
0000
,
2002
0000
3000
0000
0103
0000
2001
0000
0100
0000
0010
0000
,
3001
0100
0010
1000
0100
1000
0110
0000
0000
0000
1100
0000
,
0101
0100
0010
1001
0100
0010
1200
0000
0320
0000
0032
0003
,
1100
0010
0100
1001
0100
0001
0022
0003
0000
0000
0130
0000
,
2100
0000
3010
0100
0001
0100
0001
0010
1000
0010
0001
1000
,
0020
0000
0000
0130
0000
0100
0001
0000
0011
0000
0110
0000
,
1001
0100
0000
0110
0000
0100
0001
0010
0100
1000
0010
1000
,
0200
0000
0320
0000
,
0031
1000
0001
0010
0100
0010
0100
1000
0100
1000
0010
1000
,
0002
0000
0203
0000
,
0310
1000
0010
0100
1000
0100
0010
1000
0100
0010
0001
0100
,
0101
0100
0001
0010
0100
0010
1001
0100
1000
0010
0100
0010
,
1010
0010
0100
0001
0010
0100
0101
0001
0010
0100
1000
0100
,
1000
0010
0100
0001
1000
0010
0100
0001
1000
0010
0100
0001
1000
0010
0100
0001
1000
0010
0100
0001
1000
0010
0100
0001
,
0010
0100
1000
0100
0010
0001
0010
0100
1000
0100
0010
0001
0010
0100
1000
0100
0010
0001
0010
0100
1000
0100
0010
0001
,
0010
0000
0000
1100
0000
0010
0110
0000
0101
0000
0110
0000
,
1001
1000
0000
1100
0000
0010
0110
0000
1100
0000
0110
0000
,
1001
0100
0000
0101
0000
0001
0011
0000
0010
0000
0100
0000
,
1100
0001
0000
1001
0000
0010
0101
0000
0110
0000
1100
0000
,
0110
1000
0000
0110
0000
0001
0101
0100
0010
1000
0100
1000
,
0010
0100
0001
0010
0001
0100
0010
1000
0100
1000
0010
0100
,
0001
1000
0001
0010
0100
0010
0100
1000
0100
0010
0001
0010
,
0001
0100
0001
0100
0010
1000
0010
1000
0100
1000
0100
1000
0001
0010
0001
0010
0001
0100
0001
0100
0010
0100
0010
0100
,
0010
1000
0100
0010
0001
0100
0010
1000
0100
0010
0001
0100
0010
0000
0110
0000
,
0101
1000
0010
0100
0001
1000
0100
0010
0001
0010
0100
1000
0001
0000
0110
0000
,
1100
0001
0010
0100
1000
0100
0010
0100
0010
0001
0100
0010
0100
0000
0101
0000
,
0001
0010
0100
0000
1000
0010
0100
0000
0010
1000
0100
0010
0002
0000
0003
0000
,
1010
0000
0000
0101
0000
0000
0011
0000
0000
0110
0000
0000
1100
0000
1010
0000
,
1001
0000
0000
0101
0000
0000
0110
0000
0000
1001
0000
0000
1100
0000
0011
0000
,
1100
0000
0000
0110
0000
0000
1001
0000
0000
0101
0000
0000
0001
0000
0010
0000
,
0101
1000
0001
0000
1010
0001
1000
0000
0010
0100
0010
1000
0002
0000
0000
0000
,
0013
0100
0010
0100
1000
0100
0010
0001
1000
0010
0100
0001
1000
0100
0010
0001
,
1000
0010
0100
0001
0100
0010
1000
0001
0100
0001
0010
0100
0010
0000
1100
0000
,
0101
1000
0010
1000
0010
0100
0010
0100
0010
1000
0001
0100
0001
0010
0001
0100
,
0010
0100
0101
1000
1010
0100
1000
0202
,
0303
0000
0100
0000
1000
0000
1000
0000
0001
0010
0100
1000
0001
0100
0010
1000
,
0001
0010
0100
1000
0010
0100
0010
0100
0001
1000
0001
1000
0010
0000
0100
0000
,
1001
0001
1100
0010
0001
0100
1001
1000
,
0100
0001
0100
0001
0010
0100
0010
0100
1000
0010
1000
0010
0100
0000
0010
0000
,
2002
0000
3003
0000
0010
0100
0001
1000
0100
0010
0001
1000
0010
1000
0100
1000
,
0001
0010
0001
0010
0100
0010
0001
0100
0010
1000
0001
0100
0001
0010
0100
1000
,
0001
1000
0010
1000
0010
0100
0010
0100
0001
0010
0001
1000
0100
1000
0010
0100
,
1001
1000
0101
0010
1100
1000
0001
0110
,
0010
0100
0001
0001
1010
0001
1100
0010
,
1001
0100
1001
0001
1100
1000
0001
0022
,
0030
0000
0013
0000
0100
0000
0100
0000
1000
0000
0001
0000
1000
0010
0100
0010
,
2002
0000
0000
0000
0000
0000
0000
3003
,
0010
0100
0010
0100
0001
0010
0001
0010
0100
1000
0010
0100
0010
0000
1000
0000
,
2002
0000
3003
0000
;
