#TITLE:Yamato-no-Orochi;
#SUBTITLE:;
#ARTIST:Masami Ueda;
#TITLETRANSLIT:;
#SUBTITLETRANSLIT:;
#ARTISTTRANSLIT:;
#CREDIT:Darkmage;
#BANNER:Yamato-no-Orochi-bn.png;
#BACKGROUND:Yamato-no-Orochi-bg.png;
#LYRICSPATH:;
#CDTITLE:!darkmagetitle2.png;
#MUSIC:Yamato-no-Orochi.ogg;
#OFFSET:0.753;
#SAMPLESTART:58.000;
#SAMPLELENGTH:24.800;
#SELECTABLE:YES;
#BPMS:0.000=200.000;
#STOPS:;
#BGCHANGES:0.000=Yamato-no-Orochi-bg.png=1.000=0=0=1,
99999=-nosongbg-=1.000=0=0=0 // don't automatically add -songbackground-
;
// cache tags:
#FIRSTBEAT:4.000;
#LASTBEAT:360.000;
#SONGFILENAME:Songs/Archmage and Dark0wl Hammer of Thor UltraHyperMegaPack/Yamato-no-Orochi/Yamato-no-Orochi.sm;
#HASMUSIC:1;
#HASBANNER:1;
#MUSICLENGTH:105.000;
// end cache tags

//---------------dance-single - Darkmage----------------
#NOTES:
     dance-single:
     Darkmage:
     Challenge:
     12:
     1.000,1.000,1.000,0.019,0.262,580.000,217.000,2.000,0.000,0.000:
0000
0000
0000
0000
,
1001
0000
0010
0100
0000
0000
1001
0000
,
0000
0100
0001
1000
0010
0000
0100
0010
,
1010
0110
0101
0011
,
1000
0000
0000
0100
0000
0000
1000
0000
0100
0000
0010
0000
0001
0000
0000
0000
0000
0000
0011
0000
0000
0100
0000
0000
,
1000
0000
0101
0000
1010
0100
1001
0000
,
0110
0001
0110
1000
0110
0000
0101
0010
,
1100
0000
1010
0100
0010
1000
0001
0010
,
0101
0000
1010
0100
1010
0110
0101
0011
,
1001
0000
0110
1000
1010
0100
1001
0010
,
0101
0010
0100
0001
1010
0100
0010
0100
,
1001
0101
1010
1100
1010
0110
0101
0000
,
1010
0000
1100
0010
1100
0001
0100
1010
,
1001
0000
0110
0000
1001
0010
0101
0000
,
1010
0001
0010
0100
1000
1000
1000
0000
,
0011
0000
0100
1000
0101
0000
1010
0000
,
0101
0110
1000
0010
0101
0000
0110
0000
,
1001
0000
0000
0110
0000
0000
1001
0000
,
0000
0000
0100
0010
1000
0000
0100
0010
,
0101
0000
0000
0110
0000
0000
1010
0000
0000
1000
0100
0010
,
0001
0000
1010
0000
0100
0010
1100
0000
,
0011
0000
1100
0010
0001
0000
0101
0000
,
0110
0000
0000
1000
0000
0000
0001
0000
0010
0000
0100
0000
1000
0000
0000
0100
0000
0000
0011
0000
0000
0100
0000
0000
,
1001
0001
1001
0000
0100
0010
0100
0010
,
0110
0000
0000
0000
0000
0000
0011
0000
0000
0100
0000
0000
1000
0000
0010
0000
0100
0000
0001
0000
0000
0100
0000
0000
,
1010
0000
0001
0100
0010
0100
1010
0000
,
1100
0000
0011
0100
1010
0100
0010
0000
,
1010
0000
0101
0010
0001
0100
1010
0110
,
0101
0000
0000
0000
0000
0000
1100
0000
0000
0001
0000
0000
0010
0000
0100
0000
1000
0000
0100
0000
0000
0010
0000
0000
,
0011
0000
1100
0000
1010
0010
0110
0000
,
0101
0000
0000
0100
0000
0000
0110
0000
0000
0010
0000
0000
1010
0000
0000
1000
0000
0000
1100
0000
1000
0000
0010
0000
,
0100
0001
0101
1000
1010
0000
0101
0010
,
0011
0100
1001
0000
0110
0001
0101
1000
,
1010
0000
0100
0001
0100
0010
1010
0000
,
1000
0100
0010
0100
0010
0001
0011
1000
,
1001
0000
0000
0101
0000
0000
1010
0000
0000
1000
0100
0010
,
0001
0000
1000
0000
0001
0100
0010
1000
,
1001
0000
0110
0001
0011
0010
0110
0000
,
1100
0010
0001
1000
0110
0000
0101
0010
,
1000
0000
0100
0000
0010
0000
0001
0000
0000
1000
0000
0000
0101
0000
0000
0010
0000
0000
0110
0000
0000
1000
0000
0000
,
0101
0000
0000
0000
0000
0000
1010
0000
0000
0100
0000
0000
0001
0000
0010
0000
0100
0000
1000
0000
0000
0001
0000
0000
,
1010
0000
1100
0010
0001
0010
1100
0010
,
0011
0100
1000
0100
0011
0100
1010
0001
,
0110
1000
0101
0000
1010
0100
0001
0010
,
1100
0000
0000
0000
0000
0000
0011
0000
0000
0000
0000
0000
0100
0000
1000
0000
0001
0000
0010
0000
0000
0100
0000
0000
,
0011
0000
1000
0100
0010
0100
0011
0000
,
0001
0000
0000
0100
0000
0000
0010
0000
0000
0000
0000
0000
1010
0000
0000
0100
0000
0000
0010
0000
1000
0000
0001
0000
,
0101
0010
1010
0100
1001
0000
0110
1000
,
0101
0010
1100
0000
0011
0001
1010
1000
,
1001
0000
0000
0110
0000
0000
1001
0000
,
0000
0000
0010
0100
0001
0000
0010
0100
,
1100
0000
0000
0110
0000
0000
0011
0000
0000
1000
0100
1000
,
0001
0000
0101
0100
0110
0010
1000
0000
,
1010
0000
0101
0010
0101
0000
1100
0000
,
0011
0000
0000
0001
0000
0000
1000
0000
0010
0000
0100
0000
0001
0000
0000
0100
0000
0000
0010
0000
0000
0000
0000
0000
,
0100
0000
0001
0000
0100
0000
0010
0000
0000
0000
0000
0000
1000
0000
0000
0010
0000
0000
1000
0000
0000
0010
0000
0000
,
1010
0000
0000
0000
0000
0000
0101
0000
0000
0010
0000
0000
0100
0000
1000
0000
0100
0000
0010
0000
0000
0100
0000
0000
,
0101
0000
0110
1000
0100
0010
0101
0000
,
1100
0000
0000
0010
0000
0000
0001
0000
0000
1000
0000
0000
0101
0000
0000
0010
0000
0000
1000
0000
0100
0000
0010
0000
,
0001
1000
0010
0100
0101
0010
0110
1000
,
1100
0000
0000
0000
0000
0000
0010
0000
0000
0001
0000
0000
1000
0000
0000
0000
0000
0000
0100
0000
0000
0000
0000
0000
1000
0000
0000
0000
0100
0000
0000
0000
0010
0000
0000
0000
0001
0000
0000
0000
0000
0000
1000
0000
0000
0000
0000
0000
,
1001
0000
0101
0000
0110
1000
0101
0000
,
1010
0000
0000
0001
0000
0000
0010
0000
0000
0100
0000
0000
0010
0000
0000
0001
0000
0000
1000
0000
0010
0000
0100
0000
,
0001
0000
0001
0100
1010
0000
1100
0010
,
0101
0010
1001
0000
0110
0001
0011
0010
,
0110
0000
1100
0010
0001
1000
0010
0000
,
0100
0000
0001
0000
1000
0010
0001
0100
,
0110
0000
0000
0110
0000
0000
0110
0000
0000
1000
0100
1000
,
0001
0000
0100
0000
0010
0100
0001
1000
,
0110
0000
0001
0010
0110
1000
0110
0000
,
0011
0000
0000
0100
0000
0000
1000
0000
0100
0000
0010
0000
0001
0000
0000
0010
0000
0000
0100
0000
0000
1000
0000
0000
,
0100
0000
0010
0000
0001
0000
0010
0000
0000
0100
0000
0000
1000
0000
0000
0100
0000
0000
0010
0000
0000
0001
0000
0000
,
1100
0000
0000
0000
0000
0000
0011
0000
0000
0100
0000
0000
0001
0000
0010
0000
0100
0000
1000
0000
0000
0100
0000
0000
,
0011
0000
0100
1000
0100
0010
0110
0000
,
1010
0000
0101
0010
0100
0001
0010
0100
,
1001
0011
1000
0001
1000
0100
0011
0100
,
1000
0000
0000
0110
0000
0000
0101
0010
1000
0001
0000
0000
,
1100
0000
0011
0010
0100
1000
0101
0000
,
0110
0000
0000
1000
0000
0000
0001
0000
0000
0010
0000
0000
1010
0000
0000
0000
0000
0000
1100
0000
0010
0000
0001
0000
,
0011
0000
0110
1000
0101
0000
0110
0001
,
1010
0110
0101
0000
0011
0110
1100
1010
,
1001
0000
0000
0110
0000
0000
1001
0000
,
0000
0000
0100
0010
1000
0000
0001
0010
,
1100
0000
0000
0110
0000
0000
0011
0000
0000
1000
0100
0010
,
0001
0000
0101
0000
0100
0010
1000
0001
,
1001
0000
0011
0100
1000
0010
0110
0000
,
0101
0000
0000
0010
0000
0000
1100
0000
0100
0000
1000
0000
0001
0000
0000
0100
0000
0000
0010
0000
0000
1000
0000
0000
,
0100
0000
0010
0000
0001
0000
1000
0000
0000
0010
0000
0000
0100
0000
0000
0001
0000
0000
1000
0000
0000
0100
0000
0000
,
0022
0000
0000
0000
,
0000
0000
0000
0000
,
0033
0000
0000
0000
;
