#TITLE:Sphere;
#SUBTITLE:(Extended Version);
#ARTIST:Tatsh feat. K. Nayuki;
#TITLETRANSLIT:;
#SUBTITLETRANSLIT:;
#ARTISTTRANSLIT:;
#CREDIT:;
#BANNER:Sphere (EV).png;
#BACKGROUND:Sphere (EV)-bg.png;
#LYRICSPATH:;
#CDTITLE:wmagetitle.png;
#MUSIC:27. Sphere (extended) - Tatsh fest. K.Nayuki.mp3;
#OFFSET:-2.400;
#SAMPLESTART:99.840;
#SAMPLELENGTH:12.000;
#SELECTABLE:YES;
#DISPLAYBPM:80.000:160.000;
#BPMS:0.000=160.000,0.000=80.000,62.000=160.000,129.750=9.200,130.000=80.000,146.000=160.000,370.000=80.000,374.000=160.000,446.000=80.000;
#STOPS:;
#BGCHANGES:;
// cache tags:
#FIRSTBEAT:0.000;
#LASTBEAT:450.000;
#SONGFILENAME:Songs/StepmaniaFreak's Favorites/Sphere (EV)/Sphere (EV).sm;
#HASMUSIC:1;
#HASBANNER:1;
#MUSICLENGTH:211.853;
// end cache tags

//---------------dance-single - ----------------
#NOTES:
     dance-single:
     :
     Hard:
     11:
     1.000,1.000,0.194,1.000,1.000,1322.000,41.000,306.000,0.000,0.000:
2100
0100
0100
0000
0010
0010
3010
0000
,
0102
0100
0100
0000
0010
0010
0013
0000
,
2010
0010
0010
0000
0100
0100
3100
0000
,
0012
0010
0010
0000
0100
0100
0103
0000
,
0120
0100
0100
0000
1000
1000
1030
0000
,
0102
0100
0100
0000
0010
0010
0013
0000
,
2100
0100
0100
0000
0010
0010
3010
0000
,
0012
0010
0010
0000
0100
0100
0103
0000
,
2010
0010
0010
0000
0100
0100
3100
0000
,
1002
1000
1000
0000
0100
0100
0103
0000
,
2001
0001
0001
0000
0100
0100
3100
0000
,
0210
0010
0010
0000
0001
0001
0301
0000
,
1001
0000
0000
0000
0000
0000
1000
0100
0010
0001
1000
0100
0010
0001
1000
0001
0010
0000
0000
0000
0010
0000
0000
0000
0010
0000
0000
0000
0000
0000
0100
0000
,
1001
0000
0000
0000
0000
0000
0001
0010
0100
1000
0001
0010
0100
1000
0001
1000
0100
0000
0000
0000
0100
0000
0000
0000
0100
0000
0000
0000
0000
0100
0010
0100
,
1000
0001
0000
1000
0001
0000
1000
0001
0010
0100
1000
0100
0010
0001
0010
0100
1000
0000
0000
0000
1000
0000
0000
0000
1000
0000
0000
0000
0000
0000
0000
0000
,
0001
1000
0000
0001
1000
0000
0001
1000
0100
0010
0001
0010
0100
1000
0100
0010
0002
0000
0000
0000
0000
0000
0000
0000
0000
0000
0000
0000
0000
0000
0000
0000
,
1003
0001
1000
0001
1000
0001
1000
0001
1000
0010
0000
0100
0010
0000
0100
0001
,
1000
0100
0010
0001
1000
0010
0100
0001
1000
0100
0000
0010
0100
0000
0010
0001
,
0100
0010
1000
0100
1000
0010
0100
0001
0010
0100
0000
0010
0100
0000
0010
0001
,
0100
0010
1000
0100
1000
0010
0100
0001
1000
0010
0000
0100
0010
0000
0100
0001
,
0010
0100
0010
0001
0100
0010
1000
0100
0010
0100
0000
0010
0100
0000
1000
0010
,
0100
0001
0010
0100
0010
0001
0100
0010
1000
0100
0000
0010
0100
0000
0010
0001
,
0100
0001
0010
0100
1000
0010
1000
0100
0010
0001
0000
0010
0100
0000
1000
0100
,
0010
0001
0100
0010
1000
0100
1000
0010
0100
0001
0000
0010
0100
0000
1000
0010
,
0100
0001
0100
0010
1000
0100
0010
0001
1000
0010
0000
0100
0001
0000
0010
0100
,
0010
0001
0100
0010
0100
0001
1000
0100
0010
0001
0000
0010
0100
0000
1000
0100
,
0010
0100
1000
0001
0010
0100
0010
0001
1000
0010
0000
0100
0001
0000
0010
0100
,
0010
0001
0100
0010
1000
0100
0010
0001
1000
0010
0000
0100
0001
0000
0010
0100
,
0010
0001
1000
0100
0010
0100
1000
0001
0010
0100
0000
0010
0100
0000
1000
0010
,
0100
0010
1000
0001
0010
0100
0010
0001
1000
0000
0000
0001
1000
0001
0000
0000
,
0010
0000
0000
0100
0010
0100
0000
0000
1000
0001
0100
0001
1000
0001
0100
0001
,
1000
0010
0100
0010
1000
0010
0100
0010
1000
0001
1000
0010
1000
0001
1000
0010
,
0100
0000
0000
0000
0000
0000
0000
0000
0000
0000
0000
0000
0001
0000
0000
0000
0000
0000
0000
0000
0000
0000
0000
0000
0100
0000
0000
0000
0000
0000
0000
0000
0000
0000
0000
0000
0010
0000
0000
0000
0000
0000
0000
0000
0000
0000
0000
0000
0100
0000
0000
0000
0000
0000
0000
0000
0000
0000
0000
0000
0001
0000
0000
0000
0000
0000
0000
0000
0000
0000
0000
0000
0100
0000
0000
0000
0000
0000
0000
0000
0000
0000
0000
0000
0020
0000
0000
0000
0000
0000
0000
0000
0000
0030
0000
0000
1002
0000
0000
0000
0000
0000
0000
0000
0000
0000
0000
0000
0203
0000
0000
0000
0000
0000
0000
0000
0000
0000
0000
0000
0320
0000
0000
0000
0000
0000
0000
0000
0000
0000
0000
0000
2030
0000
0000
0000
0000
0000
0000
0000
0000
0000
3000
0000
2000
0000
0000
0000
0000
0000
0000
0000
0000
0000
0000
0000
3002
0000
0000
0000
0000
0000
0000
0000
0000
0000
0000
0000
2003
0000
0000
0000
0000
0000
0000
0000
0000
0000
0000
0000
3002
0000
0000
0000
0000
0000
0000
0000
0000
0000
0000
0000
,
0023
0230
0320
0032
2003
3020
0230
0320
2030
3200
0320
0032
2003
0000
3002
0203
,
0320
0000
0000
0000
0000
0000
0000
0000
0000
0000
0000
0000
0230
0000
0000
0000
0000
0000
0000
0000
0000
0000
0000
0000
0302
0000
0000
0000
0000
0000
0000
0000
0000
0000
0000
0000
0023
0000
0000
0000
0000
0000
0000
0000
0000
0000
0000
0000
0230
0000
0000
0000
0000
0000
0000
0000
0000
0000
0000
0000
2300
0000
0000
0000
0000
0000
0000
0000
0000
0000
0000
0000
3020
0000
0000
0000
0000
0000
0000
0000
0000
0000
0000
0000
0030
0000
0000
0000
0000
0000
0000
0000
0000
0000
0000
0000
0200
0000
0000
0000
0000
0000
0000
0000
0000
0000
0000
0000
0320
0000
0000
0000
0000
0000
0000
0000
0000
0000
0000
0000
0230
0000
0000
0000
0000
0000
0000
0000
0000
0000
0000
0000
0302
0000
0000
0000
0000
0000
0000
0000
0000
0000
0003
0000
0002
0000
0000
0000
0000
0000
0000
0000
0000
0000
0000
0000
2003
0000
0000
0000
0000
0000
0000
0000
0000
0000
0000
0000
3020
0000
0000
0000
0000
0000
0000
0000
0000
0000
0000
0000
0230
0000
0000
0000
0000
0000
0000
0000
0000
0000
0000
0000
,
0320
2030
3200
0320
0230
2300
3002
0203
0320
0230
0302
2003
3200
0000
0320
0230
,
2300
3002
0203
0320
2030
3200
0320
0030
1001
0100
0010
0100
0001
0010
0100
0010
,
0001
1000
0010
0100
0001
0010
0100
1000
0001
0100
0010
0100
0001
0010
0100
0010
,
0001
1000
0010
0100
0001
0010
0100
1000
0001
0100
0010
0100
0001
1000
0100
1000
,
0010
0100
0001
0010
0100
1000
0001
0100
0010
1000
0100
0010
0001
0010
0100
1000
,
0010
0100
0001
0010
0100
1000
0100
1000
0101
0010
1000
0100
1000
0010
0100
0001
,
0010
0100
1000
0100
0010
0001
0100
0010
1000
0010
0100
0010
1000
0100
0010
0001
,
1000
0010
0100
0001
1000
0100
0010
0100
0010
0001
0100
0010
1000
0100
1000
0010
,
0100
0001
0010
0100
1000
0100
0010
0001
1010
0100
0010
0001
1000
0100
0010
0001
,
0100
0010
0100
0001
0010
0100
1000
0010
0101
1000
0010
0100
0010
1000
0100
0010
,
0001
0010
0100
0010
0001
0100
0010
1000
0100
1000
0010
0100
0001
0010
0100
1000
,
0100
0010
0100
1000
0010
0100
0010
1000
0010
0100
0001
0010
0100
0010
0001
1000
,
0010
0100
0001
0010
0100
1000
0100
0010
0001
1000
0010
0100
0001
1000
0100
0010
,
0001
0010
0100
1000
0010
1000
0002
0103
0002
0013
0100
0010
0001
0100
0010
1000
,
0100
1000
0010
0100
0010
1000
0100
0010
0001
1000
0010
0100
0001
0010
0100
1000
,
0001
0100
0010
1000
0100
0010
0001
0010
0100
0010
0100
1000
0010
0100
0010
0100
,
0001
0010
0100
1000
0010
0100
0001
0010
0100
0010
0001
0100
0010
1000
0100
0010
,
0001
0010
0100
0010
0001
0100
0010
1000
0101
0010
1000
0100
0010
0001
0110
1000
,
0010
0100
0001
0010
1100
0001
0100
0010
1000
0100
0010
0001
0100
0010
0100
0001
,
0010
0100
1000
0100
0010
0001
0100
0010
1100
0001
0100
0010
1000
0001
0110
1000
,
0010
0100
0001
0010
0101
1000
0010
0100
0001
0010
0100
1000
0100
0010
0001
0100
,
0010
1000
0100
0010
0001
0010
0100
1000
0201
0000
0320
0000
2030
0000
3002
0000
,
0000
0000
0013
0100
1000
0100
0020
0000
0000
0000
0031
1000
0010
1000
0002
0000
,
0000
0000
0000
0000
0000
0000
0000
0000
0023
0000
0000
0000
0000
0000
0000
0030
0020
0000
0000
0000
0000
0000
0000
0000
0230
0000
0000
0000
0000
0000
0000
0000
0320
0000
0000
0000
0000
0000
0000
0000
0230
0000
0000
0000
0000
0000
0000
0000
0320
0000
0000
0000
0000
0000
0000
0000
0230
0000
0000
0000
0000
0000
0000
0000
,
2300
0000
3002
0000
2003
0000
3002
0000
1003
0100
1000
0100
0010
0001
0010
0001
,
1000
0010
1000
0010
0100
0001
0100
0000
1001
1000
1000
1000
0100
0000
0000
0000
,
1001
0001
0001
0001
0010
0000
0000
0000
0011
0000
0000
0000
0101
0000
0000
0000
,
1010
0000
0000
0000
1100
0000
0000
0000
2002
0000
0000
0000
0000
0000
0000
3000
,
0103
0010
0100
0010
0100
0010
0100
0010
0102
0003
0020
0030
0200
0300
2000
3000
,
0020
0030
0200
0300
0002
0003
0200
0300
0020
0030
0020
0030
0020
0030
2000
3000
,
0020
0030
0020
0030
0020
0030
0020
0030
0200
0300
0200
0300
0200
0300
0200
0300
,
0200
0300
0020
0030
0200
0300
0002
0003
2000
3000
2000
3000
2000
3000
2000
3000
,
2000
3000
2000
3000
2000
3000
2000
3000
0200
0300
0200
0300
0200
0300
0200
0300
,
0200
0300
0200
0300
0200
0300
0200
0300
2000
3000
0000
0000
0020
0030
0000
0000
,
2000
3000
0000
0000
0200
0300
0000
0000
0000
0000
0020
0030
0020
0030
0002
0003
,
0002
0003
2000
3000
2000
3000
0002
0003
0200
0300
0000
0000
0200
0300
0000
0000
,
2000
3200
0320
0032
0023
0230
2300
3000
0002
0003
0002
0003
0002
0003
0000
0000
,
2000
3020
0230
0302
0203
0320
2030
3000
0020
0030
0020
0030
0020
0030
0000
0000
,
0200
0302
2003
3020
2030
3002
0203
0300
2000
3000
2000
3000
2000
3000
0000
0000
,
0020
2030
3002
0203
0302
2003
3020
0030
0200
0300
0000
0000
0200
0300
0000
0000
,
0200
0300
0000
0000
0020
0030
0000
0000
2000
3000
0000
0000
2000
3000
0000
0000
,
2000
3000
0000
0000
2000
3000
0000
0000
0000
0000
0200
0300
0200
0300
0000
0000
,
0200
0300
0000
0020
0030
0000
2000
3000
0000
0000
0002
0003
0002
0003
0000
0000
,
0200
0300
0000
0000
0200
0300
0000
0000
1001
0100
0010
0100
0001
1000
0100
0010
,
0001
0100
0010
0100
0010
1000
0100
1000
0021
0030
0200
0300
0020
0030
0002
0003
,
0200
0300
0020
0030
2000
3000
0020
0030
0200
0300
0200
0300
0200
0300
0002
0003
,
0200
0300
0200
0300
0200
0300
0200
0300
0020
0030
0020
0030
0020
0030
0020
0030
,
0020
0030
0200
0300
0020
0030
2000
3000
0002
0003
0002
0003
0002
0003
0002
0003
,
0002
0003
0002
0003
0002
0003
0002
0003
0020
0030
0020
0030
0020
0030
0020
0030
,
0020
0030
0020
0030
0020
0030
0020
0030
0002
0003
0000
0000
0200
0300
0000
0000
,
0002
0003
0000
0000
0020
0030
0000
0000
0000
0000
0200
0300
0200
0300
2000
3000
,
2000
3000
0002
0003
0002
0003
2000
3000
0020
0030
0000
0000
0020
0030
0000
0000
,
0002
0023
0230
2300
3200
0320
0032
0003
2000
3000
2000
3000
2000
3000
0000
0000
,
0002
0203
0320
2030
3020
0230
0302
0003
0200
0300
0200
0300
0200
0300
0000
0000
,
0020
2030
3002
0203
0302
2003
3020
0030
0002
0003
0002
0003
0002
0003
0000
0000
,
0200
0302
2003
3020
2030
3002
0203
0300
0020
0030
0000
0000
0020
0030
0000
0000
,
0020
0030
0000
0000
0200
0300
0000
0000
0002
0003
0000
0000
0002
0003
0000
0000
,
0002
0003
0000
0000
0002
0003
0000
0000
2002
0000
0000
0000
0000
0000
3000
0000
,
0020
0000
0030
0000
0200
0000
0303
0000
1001
0100
0010
1000
0100
1000
0010
0100
,
0010
0100
0001
0010
0100
1000
0010
0100
0001
0010
0001
1000
0100
1000
0100
0010
,
0100
1000
0010
0100
0010
0100
0001
1000
0001
0010
0100
1000
0001
0100
0010
1000
,
0100
0010
0001
1000
0010
0100
0001
1000
0100
0010
0001
1000
0010
0100
0001
0100
,
0001
0010
0001
0010
0100
1000
0010
1000
0110
0001
1000
0001
0010
0100
1000
0100
,
1000
0010
0100
0001
1000
0100
0010
0001
1000
0010
1000
0010
0100
0001
0100
0001
,
0010
0100
0010
0100
1000
0001
1000
0001
0100
0010
0100
0001
0010
0100
0010
0001
,
1000
0010
0100
0001
1000
0100
0010
0001
0010
0100
1000
0001
0100
0010
1000
0100
,
0010
0001
0010
0100
1000
0001
0100
0001
0110
1000
0001
1000
0100
1000
0010
1000
,
0010
1000
0100
1000
0010
1000
0100
1000
0001
0100
0001
0100
0010
0100
0001
0100
,
0001
0100
0001
0100
0010
0100
0001
1000
0001
0100
0010
1000
0001
0010
0100
1000
,
0010
0100
0001
1000
0100
0010
0001
0010
0001
0100
0010
0100
0001
0010
0100
0010
,
0001
1000
0010
0100
0001
1000
0100
0010
0001
0100
0010
1000
0100
0010
0001
0100
,
0010
1000
0100
0010
0001
0100
0010
1000
0001
0010
0100
1000
0010
0100
0001
0010
,
0100
1000
0010
0100
0001
0010
0100
1000
0001
0100
0010
1000
0001
0010
0100
1000
,
0001
0100
0010
1000
0001
0010
0100
1000
0001
0100
0001
0100
0001
0100
0001
0100
,
0001
0100
0001
0100
0001
0100
0001
0100
0010
1000
0010
1000
0010
1000
0010
1000
,
0010
1000
0010
1000
0010
1000
0010
1000
0100
0010
0100
0010
0100
0010
0100
0010
,
0100
0010
0100
0010
0100
0010
0100
0010
2002
0000
0000
0000
0000
0000
0000
0000
,
0000
0000
3003
0000
;
