#TITLE:pandora;
#SUBTITLE:(Original);
#ARTIST:Dj TAKA feat. TOMOMI;
#TITLETRANSLIT:;
#SUBTITLETRANSLIT:;
#ARTISTTRANSLIT:;
#CREDIT:[the Whan Tahn DESTROYER.];
#BANNER:Pandora(Original)Bnr.bmp;
#BACKGROUND:Pandora(Original)Bg.bmp;
#LYRICSPATH:;
#CDTITLE:;
#MUSIC:224.pandora(original).mp3;
#OFFSET:0.000;
#SAMPLESTART:86.340;
#SAMPLELENGTH:12.000;
#SELECTABLE:YES;
#BPMS:0.000=148.000;
#STOPS:;
#BGCHANGES:409.000=PandoraBg(Alternate).bmp=1.000=1=0=1,
99999=-nosongbg-=1.000=0=0=0 // don't automatically add -songbackground-
;
// cache tags:
#FIRSTBEAT:1.000;
#LASTBEAT:793.000;
#SONGFILENAME:Songs/toune/pandora/224.pandora(original).sm;
#HASMUSIC:0;
#HASBANNER:1;
#MUSICLENGTH:100.000;
// end cache tags

//---------------dance-single - Created By [the Whan----------------
#NOTES:
     dance-single:
     Created By [the Whan:
     Challenge:
     9:
     1.000,1.000,0.070,1.000,0.870,1086.000,7.000,127.000,0.000,0.000:
0000
0000
1000
0100
0010
0001
0000
0100
,
0010
0001
0001
0010
0100
1000
0000
0010
,
0100
1000
0010
0100
0010
0001
0010
0100
,
1000
0010
0100
0001
0010
1000
0000
0010
,
0010
0000
1000
0100
0010
0001
0000
0001
,
0000
0001
0010
0000
0000
0000
0010
0000
,
0000
0000
0010
0100
1000
0010
0100
0001
,
0010
0000
0100
0000
1000
0100
0010
0001
1000
0100
0010
0001
1000
0010
0100
0001
,
1000
0010
0100
0001
1000
0000
1000
0000
0100
0000
0010
0000
0000
0000
1000
0000
,
1000
0100
0001
0001
0010
0100
0000
0001
,
0001
0010
1000
0100
0010
0100
1000
0100
,
0001
0100
0010
0001
0010
0100
1000
0100
,
1000
0000
0010
0100
0010
1000
0000
0100
,
0000
0010
0000
0010
,
0100
0010
0001
1000
0100
0010
0100
1000
,
0001
0000
0010
0000
0100
0010
0001
1000
0100
0010
0001
1000
0100
1000
0010
0100
,
0001
1000
0010
0100
0002
0000
0000
0000
0003
0000
0002
0000
0003
0000
0002
0000
,
0003
0020
0030
0200
0300
1000
0100
0100
,
0020
0031
0000
0000
0100
0000
1000
1000
,
1000
0100
0020
0000
0030
0100
0000
0001
,
0010
0010
0100
0000
0000
0000
1000
1000
,
0010
0010
0001
0000
0000
0000
0100
0010
,
0100
0100
0002
0000
0000
0000
0000
0000
,
0000
0000
1000
0000
1003
0100
0010
0001
1000
0100
0010
0001
1000
0010
0100
0001
,
1000
0010
0100
0001
0020
0000
0000
0000
0030
0000
0020
0000
0030
0000
0020
0000
,
0030
0200
0300
0200
0300
1000
1000
0010
,
0100
0020
0030
0000
0200
0300
0200
0310
,
0010
0001
0020
0000
0030
0020
0030
0000
,
0000
0000
2000
0000
3000
0020
0000
0230
,
0000
1300
0000
1000
1000
0000
2000
3000
,
0200
0300
0002
0000
0000
0000
0000
0000
,
0000
0000
0000
0000
,
0000
0103
0000
0000
,
0000
0000
0010
0000
0000
0001
0000
0000
,
0010
0100
0000
0000
,
0000
0000
1000
0100
0100
1000
0000
0100
,
0000
0010
0010
0000
0000
0001
0000
0000
,
1000
0000
0100
0000
0000
0100
0000
0000
,
0010
0000
0010
0000
0000
0001
0000
0000
,
0010
0000
0100
0000
0000
0001
0000
0000
,
0100
0010
0000
0000
,
0000
0000
0000
0000
,
0000
0001
0000
0000
,
0000
0000
0000
0000
,
0000
1000
0000
0000
,
0000
0001
0000
0000
,
0000
1000
0000
0001
,
0000
1000
0001
1000
,
0001
0000
1000
0001
1000
0001
1000
0010
,
1000
0010
1000
0001
1000
0001
1000
0100
,
1000
0000
1000
0000
0001
0010
0100
1000
0001
0010
0100
1000
0001
0010
0100
1000
,
0001
0010
0100
1000
0001
0100
0010
1000
0001
0100
0010
1000
0001
0100
0010
1000
,
0001
0100
0010
1000
0100
0000
0000
0000
0000
0000
0000
0000
0000
0000
0000
0000
,
0000
0000
0000
0000
1000
0100
0010
0001
1000
0100
0010
0001
1000
0010
0100
0001
,
1000
0010
0100
0001
1000
0100
0000
0000
0010
0000
0001
0000
0010
0000
0000
0001
,
0000
0000
0100
0000
0010
1000
0000
0000
1000
0000
0010
0000
0100
0000
0000
0100
,
0000
0000
0100
0000
0010
1000
0000
0000
0100
0000
0100
0000
0010
0000
0000
0010
,
0000
0000
0010
0000
1000
0100
0000
0000
0010
0000
0100
0000
0010
0000
0000
0010
,
0000
0000
0010
0000
0001
0100
0000
0000
1000
0000
0100
0000
0010
0000
0000
0010
,
0000
0000
0010
0000
1000
0100
0000
0000
1000
0000
0010
0000
0100
0000
0000
0100
,
0000
0000
0100
0000
0001
0010
0000
0000
1000
0000
0000
0000
0001
0010
0000
0000
,
1000
0000
0010
0000
1000
0100
0010
0001
1000
0100
0010
0001
1000
0010
0100
0001
,
1000
0010
0100
0001
0010
0000
0100
0000
0010
0000
0001
0000
0000
0000
0001
0000
,
0010
0100
1000
0100
0010
0001
0000
0001
,
0010
0100
1000
0100
1000
0100
0010
0100
,
0010
0001
0010
0100
1000
0100
0000
0100
,
0010
0000
0001
0010
0001
0010
0000
1000
,
1000
1000
0100
0010
0001
0010
0000
0001
,
0001
0001
0010
0100
0010
0000
0010
0000
,
0010
0000
1000
0000
1000
0100
0010
0001
1000
0100
0010
0001
1000
0010
0100
0001
,
1000
0010
0100
0001
0010
0000
0100
0000
0010
0000
0001
0000
0010
0000
0100
0000
,
1000
0100
0010
0100
0010
0001
0010
0100
,
1000
0010
0100
0001
0010
0100
1000
0100
,
0010
0001
0100
0010
1000
0001
0100
0010
,
1000
0100
0010
0001
0010
0100
1000
0001
,
0100
0010
1000
0001
0100
0010
1000
0001
,
0010
0001
1000
0100
1000
0010
0100
0010
,
0001
0000
0100
0000
0100
0001
0000
0000
1000
0000
0010
0000
1000
0000
0000
0010
,
0000
0000
0001
0000
1000
0100
0000
0000
0100
0000
1000
0000
0001
0000
0000
0001
,
0000
0000
0001
0000
1000
0100
0000
0000
0001
0000
0001
0000
1000
0000
0000
1000
,
0000
0000
1000
0000
0100
0001
0000
0000
1000
0000
0001
0000
1000
0000
0000
1000
,
0000
0000
1000
0000
0010
0001
0000
0000
0100
0000
0001
0000
1000
0000
0000
1000
,
0000
0000
1000
0000
0100
0001
0000
0000
0100
0000
1000
0000
0001
0000
0000
0001
,
0000
0000
0001
0000
0010
1000
0000
0000
0100
0000
0010
0000
0100
0000
0000
0100
,
0000
0000
0100
0000
0001
0010
0000
0000
1000
0000
0100
0000
0001
0010
0000
0000
,
1000
0000
0100
0000
0010
0001
0000
0000
1000
0000
0100
0000
1000
0000
0000
0100
,
0000
0010
0100
0000
1000
0000
0001
0001
,
0001
0020
0000
0030
0001
0000
0100
0100
,
0000
0010
0000
0000
0000
0000
1000
0010
,
0010
0200
0000
0000
0301
0000
0010
0020
,
0000
2030
0000
3000
0000
0000
0020
0100
,
0230
0000
0000
0300
0020
0030
0000
0000
,
1000
0000
0000
0000
0002
0000
0003
0000
0002
0000
0003
0000
0000
0000
0010
0001
,
0100
0010
1000
0000
1000
0000
0010
0020
,
0030
0200
0300
0000
0000
0000
1000
0100
,
0010
0200
0000
0300
0010
0000
0002
0013
,
0000
0010
0000
0000
0000
0000
1000
1000
,
0100
0020
0000
0030
0002
0003
0010
0010
,
0000
0002
0003
0000
0000
0000
0010
0010
,
0100
0020
0000
0030
1000
0000
0000
0000
,
0010
0000
0000
0000
0002
0000
0003
0000
0002
0000
0003
0000
0000
0000
0010
1000
,
0100
0100
0100
0010
,
0001
0000
1002
1000
0103
0010
0000
0001
,
0010
0100
1000
1000
0010
0100
0000
0001
,
0000
0020
0000
0000
0000
0000
0000
0000
,
0031
0020
0000
0000
,
0000
0000
0000
0030
0000
0000
0000
0000
,
0100
0100
0200
0000
0000
0000
0320
0030
,
0200
0300
0002
0000
0000
0000
0000
0000
,
0000
0000
0000
0000
,
0000
0003
0100
0000
0000
0000
0000
0000
,
0000
0000
0010
0000
0010
0200
0300
1000
,
0100
0020
2030
0000
0000
0000
0000
3000
,
0001
0010
0001
0020
0000
0000
0000
0000
,
0000
0000
0030
0000
,
0220
0330
2020
0000
0000
0000
3030
0000
,
1001
0202
0000
0000
,
0000
0000
0303
0000
,
0000
1100
0000
0020
,
0000
0000
0230
0000
0000
0300
2000
0000
,
0000
3000
0020
0000
0000
0000
0000
0000
,
0000
0000
0030
0000
,
0000
0000
0000
0000
,
1000
0100
0200
0000
0300
0000
0020
0000
,
0030
0002
0000
0000
,
0000
0000
0000
0000
0003
0000
0100
0100
,
0200
0300
0020
0030
0000
0020
0030
0020
,
0030
0002
0003
0200
0300
0010
1000
1000
,
0100
0100
0000
0000
0010
0000
0001
0010
,
0001
0001
0002
0003
0000
0002
0000
0003
,
0000
0000
0020
0030
0000
0100
0000
0100
,
0000
0010
0000
2000
3000
0000
0200
0300
,
0200
0300
0020
0000
0000
0000
0000
0000
,
0030
0000
0010
0001
0010
0000
1000
0100
1000
0000
0100
0010
0100
0010
0001
0010
,
0001
0010
0100
0010
1000
0100
0000
0000
0010
0000
0001
0000
0010
0000
0000
0001
,
0000
0000
0100
0000
0010
1000
0000
0000
1000
0000
0010
0000
0100
0000
0000
0100
,
0000
0000
0100
0000
0010
1000
0000
0000
0100
0000
0100
0000
0010
0000
0000
0010
,
0000
0000
0010
0000
1000
0100
0000
0000
0010
0000
0100
0000
0010
0000
0000
0010
,
0000
0000
0010
0000
0001
0100
0000
0000
1000
0000
0100
0000
0010
0000
0000
0010
,
0000
0000
0010
0000
1000
0100
0000
0000
1000
0000
0010
0000
0100
0000
0000
0100
,
0000
0000
0100
0000
0001
0010
0000
0000
1000
0000
0000
0000
0001
0010
0000
0000
,
1000
0000
0001
0000
0001
0010
0100
1000
0001
0010
0100
1000
0001
0100
0010
1000
,
0001
0100
0010
1000
0100
0010
0000
0000
0100
0000
0001
0000
1000
0000
0000
1000
,
0000
0000
1000
0000
0010
0100
0000
0000
1000
0000
0001
0000
0100
0000
0000
0100
,
0000
0000
0100
0000
0010
1000
0000
0000
0100
0000
0001
0000
0010
0000
0000
0100
,
0000
0000
1000
0000
0001
0010
0000
0000
1000
0000
0010
0000
0010
0000
0000
0100
,
0000
0000
0100
0000
1000
0100
0000
0000
0001
0000
0100
0000
0010
0000
0000
0100
,
0000
0000
0010
0000
1000
0100
0000
0000
0100
0000
0100
0000
0010
0000
0000
0010
,
0000
0000
0100
0000
1000
0001
0000
0000
0010
0000
0000
0000
0010
1000
0000
0000
,
1000
0000
0100
0000
0001
0010
0100
1000
0001
0010
0100
1000
0001
0100
0010
1000
,
0001
0100
0010
1000
1000
0010
0000
0000
1000
0000
0001
0000
0100
0000
0000
0100
,
0000
0000
0100
0000
0010
1000
0000
0000
0100
0000
0001
0000
1000
0000
0000
1000
,
0000
0000
1000
0000
0010
0100
0000
0000
1000
0000
0001
0000
0010
0000
0000
1000
,
0000
0000
0100
0000
0001
0010
0000
0000
0100
0000
0010
0000
0010
0000
0000
1000
,
0000
0000
1000
0000
0100
1000
0000
0000
0001
0000
1000
0000
0010
0000
0000
1000
,
0000
0000
0010
0000
0100
1000
0000
0000
1000
0000
1000
0000
0010
0000
0000
0010
,
0000
0000
1000
0000
0100
0001
0000
0000
0100
0000
0010
0000
0100
0001
0000
0000
,
0100
0000
0010
0000
0001
0100
0000
0000
0010
0000
1000
0000
0000
0100
0000
0000
,
0010
0001
0100
0010
0100
1000
0100
0010
,
0001
0010
0100
0010
0100
1000
0100
0010
,
0001
0100
0010
1000
0100
0010
0001
0010
,
0100
1000
0010
0100
0001
1000
0010
0100
,
0001
0010
0100
1000
0100
0010
0001
1000
,
0010
0100
0001
1000
0010
0100
0001
1000
,
0100
0001
0001
0001
,
0001
0000
0000
0000
0010
0001
0000
0000
0001
0000
0010
0000
0000
0000
1000
0000
,
0010
1000
0200
0000
0300
0020
0030
0020
,
0030
0020
0030
0002
0013
0001
0010
0100
,
0100
1000
0000
0000
0020
0030
0001
0001
,
0001
0010
0020
0000
0030
0020
0030
0010
,
0100
0100
0001
0000
0000
0000
1000
0100
,
0100
0010
0100
0000
0000
0000
0001
0001
,
0010
0001
0200
0000
0000
0000
0000
0000
,
0000
0000
0300
0000
0001
0010
0100
1000
0001
0010
0100
1000
0001
0100
0010
1000
,
0001
0100
0010
1000
0200
0000
0000
0000
0300
0000
0200
0000
0300
0000
0200
0000
,
0300
0200
0300
0020
0030
0001
0001
1000
,
2000
3010
0000
0000
2000
3000
0010
0100
,
0010
0100
0002
0000
0003
0002
0003
0000
,
0000
0100
2000
0000
3000
0020
0000
0230
,
0000
0302
0000
0013
0010
0000
0100
0000
,
1000
0020
0000
0000
,
0000
0000
0000
0000
0000
0100
1000
1000
,
0100
0100
2030
0000
3000
2000
3000
2000
,
3000
0200
0300
0020
0030
0001
0001
0010
,
0010
0100
0000
0000
0020
0030
0001
0001
,
0010
0100
0200
0000
0300
0020
0030
1000
,
0100
0010
0010
0000
0000
0000
0001
0001
,
0010
0100
0100
0000
0000
0000
0100
1000
,
1000
0100
0020
0000
0000
0000
0000
0000
,
0000
0000
0000
0000
0030
0000
1000
1000
,
0100
0010
0200
0000
0300
0200
0300
0200
,
0300
0200
0300
0020
0030
0001
0010
0010
,
0100
0010
0000
0000
2000
3000
0100
0100
,
0010
0010
0002
0000
0003
0020
0000
0030
,
0000
0000
2000
0000
3000
0020
0000
0230
,
0000
0320
0000
0031
0001
0000
0020
0030
,
0200
0300
2000
0000
0000
0000
0000
0000
,
0000
0000
0000
0000
,
3000
1001
0000
0000
;
