#TITLE:Kolibre Tonci Huljic;
#SUBTITLE:;
#ARTIST:Maskim;
#TITLETRANSLIT:;
#SUBTITLETRANSLIT:;
#ARTISTTRANSLIT:;
#CREDIT:;
#BANNER:Kolibre-bn.png;
#BACKGROUND:Kolibre-bg.png;
#LYRICSPATH:;
#CDTITLE:cdtitle.png;
#MUSIC:Kolibre (Tonci Huljic).mp3;
#OFFSET:-2.700;
#SAMPLESTART:16.000;
#SAMPLELENGTH:13.900;
#SELECTABLE:YES;
#BPMS:0.000=143.960,296.000=71.980,328.000=143.960;
#STOPS:;
#BGCHANGES:;
// cache tags:
#FIRSTBEAT:0.000;
#LASTBEAT:496.000;
#SONGFILENAME:Songs/Fabulously Fresh Flock of Fantastic Files F5/(Linus) Kolibre/Kolibre.sm;
#HASMUSIC:1;
#HASBANNER:1;
#MUSICLENGTH:226.460;
// end cache tags

//---------------dance-single - ----------------
#NOTES:
     dance-single:
     :
     Challenge:
     11:
     1.000,1.000,1.000,0.168,0.963,1340.000,289.000,38.000,0.000,1.000:  // measure 1
0100
0010
0100
1000
0100
0000
0100
0010
0100
1000
0100
0000
0100
0010
0100
1000
,  // measure 2
0100
0000
0000
0000
,  // measure 3
0010
0001
0010
0100
0010
0000
0010
0001
0010
0100
0010
0000
0010
0001
0010
0100
,  // measure 4
0010
0000
0000
0000
,  // measure 5
0100
0001
0100
1000
0100
0000
0100
0001
0100
1000
0100
0000
0100
0001
0100
1000
,  // measure 6
0100
0000
0000
0000
,  // measure 7
0010
0001
0010
1000
0010
0000
0010
0001
0010
1000
0010
0000
0010
0001
0010
0000
,  // measure 8
1002
0000
0000
0000
0100
0000
0000
0000
1003
0000
0001
0000
0100
0010
0100
0010
,  // measure 9
1100
0010
0010
0010
1100
0010
0010
0010
,  // measure 10
1100
0000
0010
0000
0010
0000
0010
0000
0100
0010
0001
0010
0100
0010
0001
0010
,  // measure 11
1100
0010
0010
0010
1100
0010
0010
0010
,  // measure 12
1100
0000
0010
0000
0010
0000
0010
0000
1000
0100
0010
0100
1000
0100
0010
0100
,  // measure 13
1001
0100
0100
0100
1001
0100
0100
0100
,  // measure 14
1001
0000
0100
0000
0100
0000
0100
0000
1000
0010
0100
0010
1000
0010
0100
0010
,  // measure 15
1001
0100
0100
0100
1001
0100
0100
0100
,  // measure 16
1000
0010
0001
0010
1000
0010
0001
0010
1000
0010
0001
0010
0100
0010
0000
0000
,  // measure 17
0101
0010
0010
0010
0101
0010
0010
0010
,  // measure 18
0101
0000
0010
0000
0010
0000
0010
0000
0001
1000
0010
1000
0001
1000
0010
1000
,  // measure 19
0101
0010
0010
0010
0101
0010
0010
0010
,  // measure 20
0001
1000
0010
1000
0001
1000
0010
1000
0001
1000
0010
1000
0100
0010
0001
0000
,  // measure 21
0110
0001
0001
0001
0110
0001
0001
0001
,  // measure 22
0110
0000
0001
0000
0001
0000
0001
0000
1000
0010
0001
0010
1000
0010
0001
0010
,  // measure 23
1100
0010
0100
0000
1000
0001
1000
0000
0100
0001
0100
0000
0010
0001
0010
0000
,  // measure 24
0100
0010
0100
0000
1000
0001
1000
0000
0100
0001
0100
0000
1100
0000
0110
0000
,  // measure 25
0011
0000
1000
0010
0100
0000
0001
0100
0010
0000
1000
0010
0100
0000
0001
0100
,  // measure 26
0010
0000
1000
0001
0100
0000
0010
0001
1000
0000
1000
0001
1100
0000
0110
0000
,  // measure 27
0011
0000
1000
0010
0100
0000
0001
0100
0010
0000
1000
0010
0101
0000
1010
0000
,  // measure 28
0100
0000
0010
1000
0001
0000
0100
0001
1000
0000
0100
0010
0100
0010
0100
0010
,  // measure 29
0110
0000
1000
1000
0100
0000
0100
0100
0010
0000
0010
0010
0001
0000
0001
0001
,  // measure 30
0010
0000
0010
0010
0100
0000
0100
0100
1000
0000
1000
1000
0110
0000
0101
0000
,  // measure 31
0011
0000
1000
1000
0010
0000
0100
0100
0001
0000
0010
0010
1001
0000
1010
0000
,  // measure 32
0110
0000
1000
0001
0110
0000
0001
1000
0110
0000
0100
0010
0100
0010
0100
0010
,  // measure 33
1001
0100
1000
0100
1000
0100
1000
0100
1000
0100
1000
0100
1000
0001
1000
0010
,  // measure 34
1000
0100
1000
0100
1000
0100
1000
0100
1000
0100
1000
0100
1000
0001
1000
0010
,  // measure 35
1000
0100
1000
0100
1000
0100
1000
0100
1000
0100
1000
0100
1000
0001
1000
0010
,  // measure 36
1000
0100
1000
0100
1000
0001
1000
0010
1000
0100
1000
0100
1000
0001
1000
0010
,  // measure 37
0001
0010
0001
0010
0001
0010
0001
0010
0001
0010
0001
0010
0001
1000
0001
0100
,  // measure 38
0001
0010
0001
0010
0001
0010
0001
0010
0001
0010
0001
0010
0001
1000
0001
0100
,  // measure 39
0001
0010
0001
0010
0001
0010
0001
0010
0001
0010
0001
0010
0001
1000
0001
0100
,  // measure 40
0001
0010
0001
0010
0001
1000
0001
0100
0001
0010
0001
0010
0001
0100
0001
1000
,  // measure 41
1000
0010
1000
0010
1000
0010
1000
0010
1000
0010
1000
0010
0001
0001
0100
0100
,  // measure 42
1000
0010
1000
0010
1000
0010
1000
0010
1000
0010
1000
0010
0001
0001
0100
0100
,  // measure 43
1000
0010
1000
0010
1000
0010
1000
0010
1000
0010
1000
0010
0001
0001
0100
0100
,  // measure 44
1000
0010
1000
0010
0001
0001
0100
0100
1000
0010
1000
0010
0100
0100
0001
0010
,  // measure 45
0001
0100
0001
0100
0001
0100
0001
0100
0001
0100
0001
0100
0010
0010
1000
1000
,  // measure 46
0001
0100
0001
0100
0001
0100
0001
0100
0001
0100
0001
0100
0010
0010
1000
1000
,  // measure 47
0100
0010
0100
0000
1000
0001
1000
0000
0100
0001
0100
0000
0010
0001
0010
0000
,  // measure 48
1000
0100
1000
0000
0010
0100
0010
0000
0001
0010
0001
0010
1100
0010
0110
0100
,  // measure 49
0011
0000
1000
0010
0100
0000
0001
0100
0010
0000
1000
0010
0100
0000
0001
0100
,  // measure 50
0010
0000
1000
0001
0100
0000
0010
0001
1000
0000
1000
0001
1100
0000
0110
0000
,  // measure 51
0011
0000
1000
0010
0100
0000
0001
0100
0010
0000
1000
0010
0101
0000
1010
0000
,  // measure 52
0100
0000
0010
1000
0001
0000
0100
0001
1000
0000
0100
0010
0100
0010
0100
0010
,  // measure 53
0110
0000
1000
1000
0100
0000
0100
0100
0010
0000
0010
0010
0001
0000
0001
0001
,  // measure 54
0010
0000
0010
0010
0100
0000
0100
0100
1000
0000
1000
1000
0110
0000
0101
0000
,  // measure 55
0011
0000
1000
1000
0010
0000
0100
0100
0001
0000
0010
0010
1001
0000
1010
0000
,  // measure 56
0110
0000
0001
0001
0110
1000
1000
1000
0100
0010
0100
0010
0100
0010
0100
0010
,  // measure 57
1100
0010
0011
0010
1100
0010
0011
0010
,  // measure 58
1100
0000
0010
0000
0011
0000
0010
0000
0100
0010
0001
0010
0100
0010
0001
0010
,  // measure 59
1100
0010
0011
0010
1100
0010
0011
0010
,  // measure 60
1100
0000
0010
0000
0011
0000
0010
0000
1000
0100
0010
0100
1000
0100
0010
0100
,  // measure 61
1001
0100
0110
0100
1001
0100
0110
0100
,  // measure 62
1001
0000
0100
0000
0110
0000
0100
0000
1000
0010
0100
0010
1000
0010
0100
0010
,  // measure 63
1001
0100
0110
0100
1001
0100
0110
0100
,  // measure 64
1000
0010
0001
0010
1000
0010
0001
0010
1000
0010
0001
0010
0100
0010
0000
0000
,  // measure 65
0101
0010
1010
0010
0101
0010
1010
0010
,  // measure 66
0101
0000
0010
0000
1010
0000
0010
0000
0001
1000
0010
1000
0001
1000
0010
1000
,  // measure 67
0101
0010
1010
0010
0101
0010
1010
0010
,  // measure 68
0101
0000
0010
0000
1010
0000
0010
0000
0001
1000
0010
1000
0001
1000
0010
1000
,  // measure 69
0110
0001
1001
0001
0110
0001
1001
0001
,  // measure 70
0110
0000
0001
0000
1001
0000
0001
0000
1000
0010
0001
0010
1000
0010
0001
0010
,  // measure 71
1100
0010
0100
0000
1000
0001
1000
0000
0100
0001
0100
0000
0010
0001
0010
0000
,  // measure 72
1000
0100
1000
0100
0000
0000
0100
0010
0100
0010
0000
0000
0010
0001
0010
0001
0000
0000
1100
0000
0000
1010
0000
0000
,  // measure 73
1001
0100
1000
0100
1000
0010
0100
0010
1000
0100
1000
0100
0010
0100
0010
0001
,  // measure 74
1001
0000
0000
0100
0000
0000
1000
0000
0000
0100
0000
0000
0010
0000
0000
0100
0000
0000
0010
0000
0000
0001
0000
0000
0010
0000
0000
0001
0000
0000
1000
0000
0100
0000
0010
0000
0001
0000
1000
0000
0100
0000
0010
0000
0001
0000
1000
0000
,  // measure 75
0210
0000
0000
0000
0000
0000
0001
0000
0000
0000
0000
0000
0010
0000
1300
0010
0002
0000
0000
0000
0000
0000
0023
0000
0000
0000
0000
0000
0130
0000
0001
0100
,  // measure 76
2000
0000
0000
0000
0000
0000
0001
0000
0000
0000
0000
0000
0010
0000
3100
0010
0002
0000
0000
0000
0000
0000
0023
0000
0000
0000
0000
0000
0230
0000
0000
0000
,  // measure 77
2300
0000
0000
0000
0000
0000
0010
0000
0000
0000
0000
0000
0100
0000
3100
0010
0002
0000
0000
0000
0000
0000
0203
0000
0000
0000
0000
0000
2300
0000
0000
0000
,  // measure 78
3200
0000
0000
0000
0000
0000
0010
0000
0000
0000
0000
0000
0001
0000
0300
0010
2000
0000
0000
0000
0000
0000
0000
0000
0010
0000
0000
0000
0000
0000
0000
0000
,  // measure 79
3210
0000
0000
0000
0000
0000
0001
0000
0000
0000
0000
0000
0010
0000
1300
0010
0102
0000
0000
0000
0000
0000
0023
0000
0000
0000
0000
0000
0230
0000
0000
0000
,  // measure 80
2300
0000
0000
0000
0000
0000
3001
0010
0200
0000
0000
0000
0000
0000
0300
0010
1002
0000
0000
0000
0000
0000
0023
0000
0000
0000
0000
0000
0230
0000
0000
0000
,  // measure 81
2300
0000
0000
0010
0000
0000
0100
0000
3002
0000
0000
0000
0000
0000
0203
0000
,  // measure 82
0320
0000
0001
0000
,  // measure 83
1030
0000
1000
1000
0000
1000
1000
0000
1000
0000
1000
0100
0000
0100
1000
0000
,  // measure 84
1000
0000
1000
1000
0000
1000
1000
0000
1000
0000
1000
0010
0000
0010
1000
0000
,  // measure 85
1000
0000
1000
1000
0000
1000
1000
0000
1000
0000
1000
0001
0000
0001
1000
0000
,  // measure 86
1100
0000
0100
0010
1000
0010
0100
0000
1100
0010
0000
0010
1100
0010
0100
0010
,  // measure 87
1100
0011
0011
0011
1100
0011
0011
0011
,  // measure 88
1100
0000
0011
0000
0011
0000
0011
0000
0100
0010
0001
0010
0100
0010
0001
0010
,  // measure 89
1100
0011
0011
0011
1100
0011
0011
0011
,  // measure 90
1100
0000
0011
0000
0011
0000
0011
0000
1000
0100
0010
0100
1000
0100
0010
0100
,  // measure 91
1001
0110
0110
0110
1001
0110
0110
0110
,  // measure 92
1001
0000
0110
0000
0110
0000
0110
0000
1000
0010
0100
0010
1000
0010
0100
0010
,  // measure 93
1001
0110
0110
0110
1001
0110
0110
0110
,  // measure 94
1000
0010
0001
0010
1000
0010
0001
0010
1000
0010
0001
0010
0100
0010
0000
0000
,  // measure 95
0101
1010
1010
1010
0101
1010
1010
1010
,  // measure 96
0101
0000
1010
0000
1010
0000
1010
0000
0001
1000
0010
1000
0001
1000
0010
1000
,  // measure 97
0101
1010
1010
1010
0101
1010
1010
1010
,  // measure 98
0101
0000
1010
0000
1010
0000
1010
0000
0001
1000
0010
1000
0001
1000
0010
1000
,  // measure 99
0110
1001
1001
1001
0110
1001
1001
1001
,  // measure 100
0110
0000
1001
0000
1001
0000
1001
0000
1000
0010
0001
0010
1000
0010
0001
0010
,  // measure 101
0110
1001
1001
1001
0110
1001
1001
1001
,  // measure 102
0110
0000
1001
0000
1001
0000
1001
0000
1000
0010
0001
0010
1000
0010
0001
0000
,  // measure 103
1100
1010
1010
1010
1100
1010
1010
1010
,  // measure 104
1100
1010
1010
1010
1100
1010
1010
1010
,  // measure 105
0110
0101
0101
0101
0110
0101
0101
0101
,  // measure 106
0110
0101
0101
0101
0110
0101
0101
0101
,  // measure 107
0011
1001
1001
1001
0011
1001
1001
1001
,  // measure 108
0011
1001
1001
1001
0000
1001
1001
1001
,  // measure 109
0011
1001
1001
1001
0011
1001
1001
1001
,  // measure 110
0011
1001
1001
1001
0000
1001
1001
1001
,  // measure 111
2100
0010
0010
0010
0100
3010
0012
0013
,  // measure 112
2100
0000
0010
0000
0010
0000
0010
0000
0100
3000
1000
0100
0010
0001
0010
0100
,  // measure 113
2000
0010
0010
0010
0100
3010
0012
0013
,  // measure 114
2100
0000
0010
0000
0010
0000
0010
0000
0100
3000
1000
0100
0010
0001
0010
0100
,  // measure 115
2000
0010
0010
0010
0100
3010
0012
0013
,  // measure 116
2100
0000
0010
0000
0010
0000
0010
0000
0100
3000
1000
0100
0010
0001
0010
0100
,  // measure 117
1000
0100
1000
0100
0000
0000
0100
0010
0100
0010
0000
0000
0010
0001
0010
0001
0000
0000
0001
1000
0001
1000
0000
0000
,  // measure 118
1010
0000
0100
0001
1000
0000
0110
0000
0000
0000
0000
0000
0101
0000
0010
1000
0100
0000
0011
0000
0000
0000
0000
0000
0110
0000
0001
1000
0010
0000
0101
0000
0000
0000
0000
0000
1100
0000
0000
0000
0000
0000
1010
0000
0000
0000
0000
0000
,  // measure 119
1001
0100
1000
0100
1000
0010
0100
0010
1000
0100
1000
0100
0010
0100
0010
0001
,  // measure 120
1001
0000
0000
0100
0000
0000
1000
0000
0000
0100
0000
0000
0010
0000
0000
0100
0000
0000
0010
0000
0000
0001
0000
0000
0010
0000
0000
0001
0000
0000
1000
0000
0100
0000
0010
0000
0001
0000
1000
0000
0100
0000
0010
0000
0001
0000
1000
0000
,  // measure 121
0110
1001
1100
0011
,  // measure 122
0110
1001
1010
0101
,  // measure 123
1001
0000
0110
0000
,  // measure 124
2002
0000
0000
0000
0000
0000
0003
0001
0001
0001
0001
0001
,  // measure 125
3001
0000
0000
0000
;

//---------------dance-single - ----------------
#NOTES:
     dance-single:
     :
     Hard:
     10:
     0.835,0.931,0.751,0.168,0.616,1116.000,170.000,38.000,0.000,2.000:  // measure 1
0100
0010
0100
1000
0100
0000
0100
0010
0100
1000
0100
0000
0100
0010
0100
1000
,  // measure 2
0100
0000
0000
0000
,  // measure 3
0010
0001
0010
0100
0010
0000
0010
0001
0010
0100
0010
0000
0010
0001
0010
0100
,  // measure 4
0010
0000
0000
0000
,  // measure 5
0100
0001
0100
1000
0100
0000
0100
0001
0100
1000
0100
0000
0100
0001
0100
1000
,  // measure 6
0100
0000
0000
0000
,  // measure 7
0010
0001
0010
1000
0010
0000
0010
0001
0010
1000
0010
0000
0010
0001
0010
0000
,  // measure 8
1002
0000
0000
0000
0100
0000
0000
0000
1003
0000
0001
0000
0100
0010
0100
0010
,  // measure 9
1000
0010
0010
0010
1000
0010
0010
0010
,  // measure 10
1000
0000
0010
0000
0010
0000
0010
0000
0100
0010
0001
0010
0100
0010
0001
0010
,  // measure 11
1000
0010
0010
0010
1000
0010
0010
0010
,  // measure 12
1000
0000
0010
0000
0010
0000
0010
0000
1000
0100
0010
0100
1000
0100
0010
0100
,  // measure 13
1000
0100
0100
0100
1000
0100
0100
0100
,  // measure 14
1000
0000
0100
0000
0100
0000
0100
0000
1000
0010
0100
0010
1000
0010
0100
0010
,  // measure 15
1000
0100
0100
0100
1000
0100
0100
0100
,  // measure 16
1000
0010
0001
0010
1000
0010
0001
0010
1000
0010
0001
0010
0100
0010
0000
0000
,  // measure 17
0001
0010
0010
0010
0001
0010
0010
0010
,  // measure 18
0001
0000
0010
0000
0010
0000
0010
0000
0001
1000
0010
1000
0001
1000
0010
1000
,  // measure 19
0001
0010
0010
0010
0001
0010
0010
0010
,  // measure 20
0001
1000
0010
1000
0001
1000
0010
1000
0001
1000
0010
1000
0100
0010
0001
0000
,  // measure 21
0100
0001
0001
0001
0100
0001
0001
0001
,  // measure 22
0100
0000
0001
0000
0001
0000
0001
0000
1000
0010
0001
0010
1000
0010
0001
0010
,  // measure 23
1100
0010
0100
0000
1000
0001
1000
0000
0100
0001
0100
0000
0010
0001
0010
0000
,  // measure 24
0100
0010
0100
0000
1000
0001
1000
0000
0100
0001
0100
0000
1100
0000
0110
0000
,  // measure 25
0011
1000
0100
0001
0010
1000
0100
0001
,  // measure 26
0010
1000
0100
0010
1000
1000
1100
0110
,  // measure 27
0011
1000
0100
0001
0010
1000
0101
1010
,  // measure 28
0100
0010
0001
0100
1000
0100
1000
0001
,  // measure 29
0110
1000
0100
0100
0010
0010
0001
0001
,  // measure 30
0010
0010
0100
0100
1000
1000
0110
0101
,  // measure 31
0011
1000
0010
0100
0001
0010
1001
1010
,  // measure 32
0110
1000
0110
0001
0110
0100
0100
0100
,  // measure 33
1001
0100
1000
0100
1000
0100
1000
0100
1000
0100
1000
0100
0001
0000
0010
0000
,  // measure 34
1000
0100
1000
0100
1000
0100
1000
0100
1000
0100
1000
0100
0001
0000
0010
0000
,  // measure 35
1000
0100
1000
0100
1000
0100
1000
0100
1000
0100
1000
0100
0001
0000
0010
0000
,  // measure 36
1000
0100
1000
0100
0001
0000
0010
0000
1000
0100
1000
0100
0001
0000
1000
0000
,  // measure 37
0001
0010
0001
0010
0001
0010
0001
0010
0001
0010
0001
0010
1000
0000
0100
0000
,  // measure 38
0001
0010
0001
0010
0001
0010
0001
0010
0001
0010
0001
0010
1000
0000
0100
0000
,  // measure 39
0001
0010
0001
0010
0001
0010
0001
0010
0001
0010
0001
0010
1000
0000
0100
0000
,  // measure 40
0001
0010
0001
0010
1000
0000
0100
0000
0001
0010
0001
0010
1000
0000
0100
0000
,  // measure 41
1000
0010
1000
0010
1000
0010
1000
0010
1000
0010
1000
0010
0001
0000
0100
0000
,  // measure 42
1000
0010
1000
0010
1000
0010
1000
0010
1000
0010
1000
0010
0001
0000
0100
0000
,  // measure 43
1000
0010
1000
0010
1000
0010
1000
0010
1000
0010
1000
0010
0001
0000
0100
0000
,  // measure 44
1000
0010
1000
0010
0001
0000
0100
0000
1000
0010
1000
0010
0100
0000
0001
0000
,  // measure 45
0001
0100
0001
0100
0001
0100
0001
0100
0001
0100
0001
0100
0010
0000
1000
0000
,  // measure 46
0001
0100
0001
0100
0001
0100
0001
0100
0001
0100
0001
0100
0010
0000
1000
0000
,  // measure 47
0100
0010
0100
0000
1000
0001
1000
0000
0100
0001
0100
0000
0010
0001
0010
0000
,  // measure 48
1000
0100
1000
0000
0010
0100
0010
0000
0001
0010
0001
0000
1100
0000
0110
0000
,  // measure 49
0011
1000
0100
0001
0010
1000
0100
0001
,  // measure 50
0010
1000
0100
0010
1000
1000
1100
0110
,  // measure 51
0011
1000
0100
0001
0010
1000
0101
1010
,  // measure 52
0100
0010
0001
0100
1000
0100
0001
1000
,  // measure 53
0110
1000
0100
0100
0010
0010
0001
0001
,  // measure 54
0010
0010
0100
0100
1000
1000
0110
0101
,  // measure 55
0011
1000
0010
0100
0001
0010
1001
1010
,  // measure 56
0110
0000
0001
0000
0110
0000
1000
0000
0100
0010
0100
0010
0100
0010
0100
0010
,  // measure 57
1100
0010
0010
0010
1100
0010
0010
0010
,  // measure 58
1100
0000
0010
0000
0010
0000
0010
0000
0100
0010
0001
0010
0100
0010
0001
0010
,  // measure 59
1100
0010
0010
0010
1100
0010
0010
0010
,  // measure 60
1100
0000
0010
0000
0010
0000
0010
0000
1000
0100
0010
0100
1000
0100
0010
0100
,  // measure 61
1001
0100
0100
0100
1001
0100
0100
0100
,  // measure 62
1001
0000
0100
0000
0100
0000
0100
0000
1000
0010
0100
0010
1000
0010
0100
0010
,  // measure 63
1001
0100
0100
0100
1001
0100
0100
0100
,  // measure 64
1000
0010
0001
0010
1000
0010
0001
0010
1000
0010
0001
0010
0100
0010
0000
0000
,  // measure 65
0101
0010
0010
0010
0101
0010
0010
0010
,  // measure 66
0101
0000
0010
0000
0010
0000
0010
0000
0001
1000
0010
1000
0001
1000
0010
1000
,  // measure 67
0101
0010
0010
0010
0101
0010
0010
0010
,  // measure 68
0101
0000
0010
0000
0010
0000
0010
0000
0001
1000
0010
1000
0001
1000
0010
1000
,  // measure 69
0110
0001
0001
0001
0110
0001
0001
0001
,  // measure 70
0110
0000
0001
0000
0001
0000
0001
0000
1000
0010
0001
0010
1000
0010
0001
0010
,  // measure 71
1100
0010
0100
0000
1000
0001
1000
0000
0100
0001
0100
0000
0010
0001
0010
0000
,  // measure 72
1100
0010
0100
0000
0110
0001
0010
0000
0011
1000
0001
0000
1100
0000
1010
0000
,  // measure 73
1001
0000
0000
0000
,  // measure 74
1001
0000
0000
0000
0000
0000
0000
0000
0000
0000
1000
0100
0010
0001
0010
1000
,  // measure 75
0210
0000
0000
0000
0000
0000
0000
0000
0000
0000
0000
0000
0000
0000
1300
0010
0002
0000
0000
0000
0000
0000
0023
0000
0000
0000
0000
0000
0130
0000
0001
0100
,  // measure 76
2000
0000
0000
0000
0000
0000
0000
0000
0000
0000
0000
0000
0000
0000
3100
0010
0002
0000
0000
0000
0000
0000
0023
0000
0000
0000
0000
0000
0230
0000
0000
0000
,  // measure 77
2300
0000
0000
0000
0000
0000
0000
0000
0000
0000
0000
0000
0000
0000
3100
0010
0002
0000
0000
0000
0000
0000
0203
0000
0000
0000
0000
0000
2300
0000
0000
0000
,  // measure 78
3200
0000
0000
0000
0000
0000
0000
0000
0000
0000
0000
0000
0000
0000
0300
0010
2000
0000
0000
0000
0000
0000
0000
0000
0010
0000
0000
0000
0000
0000
0000
0000
,  // measure 79
3210
0000
0000
0000
0000
0000
0000
0000
0000
0000
0000
0000
0000
0000
1300
0010
0002
0000
0000
0000
0000
0000
0023
0000
0000
0000
0000
0000
0230
0000
0000
0000
,  // measure 80
2300
0000
0000
0000
0000
0000
3001
0010
0200
0000
0000
0000
0000
0000
0300
0010
0002
0000
0000
0000
0000
0000
0023
0000
0000
0000
0000
0000
0230
0000
0000
0000
,  // measure 81
2300
0000
0000
0000
3002
0000
0000
0203
,  // measure 82
0320
0000
0001
0000
,  // measure 83
1030
0000
0000
1000
0000
0000
1000
0000
1000
0000
0000
0100
0000
0000
1000
0000
,  // measure 84
1000
0000
0000
1000
0000
0000
1000
0000
1000
0000
0000
0010
0000
0000
1000
0000
,  // measure 85
1000
0000
0000
1000
0000
0000
1000
0000
1000
0000
0000
0001
0000
0000
1000
0000
,  // measure 86
1000
0000
0000
0100
0000
0000
1000
0000
1000
0000
0000
0001
0000
0000
0100
0000
,  // measure 87
1100
0010
0011
0010
1100
0010
0011
0010
,  // measure 88
1100
0000
0010
0000
0011
0000
0010
0000
0100
0010
0001
0010
0100
0010
0001
0010
,  // measure 89
1100
0010
0011
0010
1100
0010
0011
0010
,  // measure 90
1100
0000
0010
0000
0011
0000
0010
0000
1000
0100
0010
0100
1000
0100
0010
0100
,  // measure 91
1001
0010
0110
0010
1001
0010
0110
0010
,  // measure 92
1001
0000
0010
0000
0110
0000
0010
0000
1000
0010
0100
0010
1000
0010
0100
0010
,  // measure 93
1001
0010
0110
0010
1001
0010
0110
0010
,  // measure 94
1000
0010
0001
0010
1000
0010
0001
0010
1000
0010
0001
0010
0100
0010
0000
0000
,  // measure 95
0101
0010
1010
0010
0101
0010
1010
0010
,  // measure 96
0101
0000
0010
0000
1010
0000
0010
0000
0001
1000
0010
1000
0001
1000
0010
1000
,  // measure 97
0101
0010
1010
0010
0101
0010
1010
0010
,  // measure 98
0101
0000
0010
0000
1010
0000
0010
0000
0001
1000
0010
1000
0001
1000
0010
1000
,  // measure 99
0110
0001
1001
0001
0110
0001
1001
0001
,  // measure 100
0110
0000
0001
0000
1001
0000
0001
0000
1000
0010
0001
0010
1000
0010
0001
0010
,  // measure 101
0110
0001
1001
0001
0110
0001
1001
0001
,  // measure 102
0110
0000
0001
0000
1001
0000
0001
0000
1000
0010
0001
0010
1000
0010
0001
0000
,  // measure 103
1100
1000
1010
1000
1100
1000
1010
1000
,  // measure 104
1100
1000
1010
1000
1100
1000
1010
1000
,  // measure 105
0110
0100
0101
0100
0110
0100
0101
0100
,  // measure 106
0110
0100
0101
0100
0110
0100
0101
0100
,  // measure 107
0011
0001
1001
0001
0011
0001
1001
0001
,  // measure 108
0011
0001
1001
0001
1000
0001
1001
0001
,  // measure 109
0011
0001
1001
0001
0011
0001
1001
0001
,  // measure 110
0011
0001
1001
0001
1000
0001
1001
0001
,  // measure 111
2100
0000
0000
0000
0000
0000
3012
0003
,  // measure 112
2100
0000
0000
0000
0000
0000
0000
0000
0000
3000
1000
0100
0010
0001
0010
0100
,  // measure 113
2100
0000
0000
0000
0000
3000
0012
0003
,  // measure 114
2100
0000
0000
0000
0000
0000
0000
0000
0000
3000
1000
0100
0010
0001
0010
0100
,  // measure 115
2010
0000
0000
0000
0000
3000
0012
0003
,  // measure 116
2100
0000
0000
0000
0000
0000
0000
0000
0000
3000
1000
0100
0010
0001
0010
0100
,  // measure 117
1010
0100
1000
0000
0110
1000
0100
0000
0101
0010
0100
0000
0011
0100
0010
0000
,  // measure 118
1000
0100
1000
0100
0000
0000
0100
0010
0100
0010
0000
0000
0010
0001
0010
0001
0000
0000
1100
0000
0000
1010
0000
0000
,  // measure 119
1001
0000
0000
0000
,  // measure 120
1001
0000
0000
0000
0000
0000
0000
0000
0000
0000
1000
0100
0010
0001
0010
1000
,  // measure 121
0110
1001
1100
0011
,  // measure 122
0110
1001
1010
0101
,  // measure 123
1001
0000
0110
0000
,  // measure 124
2002
0000
0000
0000
,  // measure 125
3003
0000
0000
0000
;
