#TITLE:Death Illusion;
#SUBTITLE:;
#ARTIST:Xi;
#TITLETRANSLIT:;
#SUBTITLETRANSLIT:;
#ARTISTTRANSLIT:;
#CREDIT:Arvin;
#BANNER:../Tachyon Gamma-bn.png;
#BACKGROUND:../Tachyon Gamma-bg.png;
#LYRICSPATH:;
#CDTITLE:;
#MUSIC:Death Illusion.ogg;
#OFFSET:-0.136;
#SAMPLESTART:72.120;
#SAMPLELENGTH:12.000;
#SELECTABLE:YES;
#DISPLAYBPM:160.000;
#BPMS:0.000=160.000;
#STOPS:;
#BGCHANGES:;
// cache tags:
#FIRSTBEAT:8.000;
#LASTBEAT:423.750;
#SONGFILENAME:Songs/Tachyon Gamma/Death Illusion - [Arvin]/Death Illusion.sm;
#HASMUSIC:1;
#HASBANNER:1;
#MUSICLENGTH:161.423;
// end cache tags

//---------------dance-single - Arvin----------------
#NOTES:
     dance-single:
     Arvin:
     Challenge:
     15:
     1.000,1.000,0.006,0.836,1.000,1157.000,1.000,135.000,72.000,0.000:

0000
0000
0000
0000
,
0000
0000
0000
0000
,
0002
0000
0000
0000
0000
0000
1003
0000
0000
0001
0000
0000
0000
0000
0000
1000
0000
0000
0001
0000
0000
0000
0000
0000
1000
0000
0000
0001
0000
0000
0000
0000
0000
1000
0000
0000
0001
0000
1000
0000
0001
0000
0010
0000
0000
0000
0000
0000
,
0200
0000
0000
0000
0000
0000
1300
0000
0000
0100
0000
0000
0000
0000
0000
1000
0000
0000
0100
0000
0000
0010
0000
0000
0000
0000
0000
0100
0000
0000
0010
0000
0000
0000
0000
0000
0100
0000
1000
0000
0100
0000
0010
0000
0000
0000
0000
0000
,
0002
0000
0000
0000
0000
0000
1003
0000
0000
0001
0000
0000
0000
0000
0000
1000
0000
0000
0001
0000
0000
0000
0000
0000
1000
0000
0000
0001
0000
0000
0000
0000
0000
1000
0000
0000
0001
0000
1000
0000
0001
0000
0010
0000
0000
0000
0000
0000
,
0200
0000
0000
0000
0000
0000
1300
0000
0000
0100
0000
0000
0000
0000
0000
1000
0000
0000
0100
0000
0000
0000
0000
0000
1000
0000
0000
0100
0000
0000
0000
0000
0000
1000
0000
0000
0100
0000
1000
0000
0100
0000
0010
0000
0000
0000
0000
0000
,
0002
0000
0000
0000
0000
0000
1003
0000
0000
0001
0000
0000
0000
0000
0000
1000
0000
0000
0001
0000
0000
0000
0000
0000
1000
0000
0000
0001
0000
0000
0000
0000
0000
1000
0000
0000
0001
0000
1000
0000
0001
0000
0100
0000
0000
0000
0000
0000
,
0020
0000
0000
0000
0000
0000
1030
0000
0000
0010
0000
0000
0000
0000
0000
1000
0000
0000
0010
0000
0000
0100
0000
0000
0000
0000
0000
0010
0000
0000
0100
0000
0000
0000
0000
0000
0010
0000
1000
0000
0010
0000
0100
0000
0000
0000
0000
0000
,
0001
0100
0010
0100
0001
1000
0100
0010
M00M
0010
1000
0001
0010
0100
0010
0100
,
M00M
0100
0001
1000
0100
1000
0001
0010
M00M
0010
1000
0100
0010
0001
0010
0100
,
1000
0010
0100
0010
1000
0001
0010
0100
M00M
0100
0001
1000
0100
0010
0100
0010
,
M00M
0010
1000
0001
0010
0001
1000
0100
M00M
0100
0001
0010
0100
1000
0100
0010
,
0001
0100
0010
0100
0001
1000
0100
0010
M00M
0010
1000
0001
0010
0100
0010
0100
,
M00M
0100
0001
1000
0100
1000
0001
0010
M00M
0010
1000
0100
0010
0001
0010
0100
,
1000
0010
0100
0010
1000
0001
0010
0100
M00M
0100
0001
1000
0100
0010
0100
0010
,
M00M
0010
1000
0001
0010
0001
1000
0100
M00M
0100
0001
0010
0100
1000
0010
0010
,
0001
0000
0010
0100
0000
1000
0010
0010
0001
0000
0010
0100
0000
1000
0100
0100
,
0001
0000
0100
0010
0000
1000
0100
0100
0001
0000
0100
0010
0000
1000
0010
0010
,
0001
0000
0010
0100
0000
1000
0010
0010
0001
0000
0010
0100
0000
1000
0100
0100
,
0010
0000
1000
0001
0000
1000
0010
0010
0100
0000
1000
0001
0000
1000
0100
0100
,
0001
0000
0100
0010
0000
1000
0100
0100
0001
0000
0100
0010
0000
1000
0010
0010
,
0001
0000
0010
0100
0000
1000
0010
0010
0001
0000
0010
0100
0000
0000
0000
0000
,
2000
0000
0000
3020
0000
0000
0230
0000
0302
0000
0000
2003
0000
0000
3200
0000
,
0320
0000
0000
0230
0000
0000
2300
0000
3001
0010
0001
0010
0100
0010
0100
1000
,
0001
0000
0100
0010
0000
1000
0100
0010
0001
0000
0100
0010
0000
1000
0100
0010
,
0001
0000
0100
0010
0000
1000
0100
0010
0002
0000
0000
0000
0000
0000
0000
0000
,
1003
0000
0010
0100
0000
0001
0010
0100
1000
0000
0010
0100
0000
0001
0010
0100
,
2000
0000
0000
0000
,
3001
0000
0010
0100
0000
1000
0010
0100
0001
0000
0010
0100
0000
1000
0010
0100
,
0001
0000
0010
0100
0000
1000
0010
0100
0002
0000
0000
0000
0000
0000
0000
0000
,
2003
0000
3000
2000
0000
0000
3020
0000
0230
0000
0000
0302
0000
0000
0203
0000
,
0320
0000
0000
2030
0000
0000
0000
0000
0000
0000
0000
0000
0000
0000
3001
0000
,
0020
0000
0000
0000
0000
0000
0031
0200
0000
0000
0320
0000
2030
0000
3001
0020
,
0000
0230
0000
0000
0000
0000
0000
0000
0000
0000
0000
0000
0000
0000
1300
0000
,
0200
0000
0000
0000
0000
0000
0310
0002
0000
0000
2003
0000
3020
0000
0230
0000
,
0301
0010
0001
1000
0010
0100
0001
0100
0010
1000
0100
0010
0001
0010
0100
1000
,
0002
0000
0000
0000
0000
0000
1003
0020
0000
0000
0230
0000
0302
0000
1003
0200
,
0000
0320
0000
0000
0000
0000
0031
1000
0000
0200
0000
0000
0000
0000
0310
0000
,
0002
0000
0003
0002
0000
0000
2003
0000
3020
0000
0230
0000
0302
0000
2003
0000
,
3200
0000
0000
0000
,
1300
0010
0100
0001
0000
0010
0100
0000
1000
0010
0100
0001
0000
0010
0100
0000
,
1000
0100
0010
0001
0000
0100
0010
0000
1000
0100
0010
0001
0010
0100
1000
0001
,
0200
0000
0301
0010
0001
1000
0001
0100
0010
1000
0010
0100
0001
1000
0400
0000
,
0310
0000
0001
0000
1000
0000
0010
0000
1000
0000
0100
0000
0010
0000
0001
0000
0100
0000
0010
0000
0100
0000
0001
0000
4000
0000
0000
0000
0000
0000
0000
3000
,
0001
0100
0010
1000
0010
0100
0001
0100
0010
1000
0010
0100
0001
1000
0100
0010
0001
0010
0100
1000
0001
0010
0100
1000
,
0001
0010
0001
1000
0010
1000
0001
0100
0001
1000
0100
1000
0001
0010
0100
1000
0001
0010
0100
1000
0100
0010
0001
1000
,
0020
0000
0130
0002
0000
1003
0010
0100
0001
0100
0010
1000
0001
1000
0010
0100
,
0002
0000
0000
2003
0000
0000
3200
0000
0320
0000
0000
0032
0000
0000
2003
0000
,
3001
0010
0100
1000
0010
0100
0001
0010
0100
1000
0010
0100
0001
0010
0100
1000
,
0001
0100
0010
1000
0100
0010
0001
0100
0010
1000
0100
0010
0001
0100
0010
1000
,
0001
0100
0010
0100
0001
1000
0100
0010
0001
0010
0100
1000
0001
0100
0010
0100
0001
1000
0100
0010
0001
0010
0100
1000
,
0001
0100
0010
0100
0001
1000
0100
0010
0001
0010
0100
1000
0001
0100
0010
1000
0010
0100
0001
1000
0100
0010
0001
1000
,
0100
1000
0001
0010
0001
1000
0100
1000
0001
0100
0010
1000
0001
0010
0001
1000
0100
1000
0001
0010
0100
1000
0001
0100
,
0001
1000
0010
1000
0001
0010
0100
1000
0001
0100
0001
1000
0010
1000
0001
0010
0001
1000
0100
1000
0001
0100
0010
1000
,
0001
0000
0000
0000
0000
0000
0000
0000
1000
0000
0000
0000
0000
0000
0000
0000
0001
0000
0000
0000
0000
0000
0000
0000
0010
0000
0000
0000
0000
0000
0000
0000
0100
0000
0000
0000
0000
0000
0000
0000
1000
0000
0000
0000
0000
0000
0000
0000
0004
0000
0000
0000
0000
0000
0000
0000
0000
0000
0000
0000
0000
0000
0000
0000
0000
0000
0000
0000
0000
0000
0000
0000
0000
0000
0000
0000
0000
0000
0000
0000
0000
0000
0000
0000
0000
0000
0000
0000
0000
0000
0003
0000
0000
0000
0000
0000
1000
0000
0000
0000
0000
0000
0000
0000
0100
0000
0000
0000
0000
0000
0000
0000
0010
0000
0000
0000
0000
0000
0000
0000
0001
0000
0000
0000
0000
0000
0000
0000
0100
0000
0000
0000
0000
0000
0000
0000
0010
0000
0000
0000
0000
0000
0000
0000
1000
0000
0000
0000
0000
0000
0000
0000
0010
0000
0000
0000
0000
0000
0000
0000
0100
0000
0000
0000
0000
0000
0000
0000
0001
0000
0000
0000
0000
0000
0000
0000
0100
0000
0000
0000
0000
0000
0000
0000
0010
0000
0000
0000
0000
0000
0000
0000
,
1000
0000
0000
0000
0000
0000
0000
0000
0001
0000
0000
0000
0000
0000
0000
0000
0010
0000
0000
0000
0000
0000
0000
0000
0100
0000
0000
0000
0000
0000
0000
0000
1000
0000
0000
0000
0000
0000
0000
0000
0001
0000
0000
0000
0000
0000
0000
0000
1000
0000
0000
0000
0000
0000
0000
0000
0001
0000
0000
0000
0000
0000
0000
0000
0010
0000
0000
0000
0000
0000
0000
0000
0100
0000
0000
0000
0000
0000
0000
0000
1000
0000
0000
0000
0000
0000
0000
0000
0100
0000
0000
0000
0000
0000
0000
0000
0010
0000
0000
0000
0000
0000
0000
0000
0001
0000
0000
0000
0000
0000
0000
0000
1000
0000
0000
0000
0000
0000
0000
0000
0001
0000
0000
0000
0000
0000
0000
0000
1000
0000
0000
0000
0000
0000
0000
0000
0010
0000
0000
0000
0000
0000
0000
0000
0400
0000
0000
0000
0000
0000
0000
0000
0000
0000
0000
0000
0000
0000
0000
0000
0000
0000
0000
0000
0000
0000
0000
0000
0000
0000
0000
0000
0000
0000
0000
0000
0000
0000
0000
0000
0000
0000
0000
0000
0000
0000
0300
0000
0000
0000
0000
0000
,
0001
0010
0100
0010
0001
1000
0010
0100
M00M
0100
1000
0001
0100
0010
0100
0010
,
M00M
0010
0001
1000
0010
1000
0001
0100
M00M
0100
1000
0010
0100
0001
0100
0010
,
1000
0100
0010
0100
1000
0001
0100
0010
M00M
0010
0001
1000
0010
0100
0010
0100
,
M00M
0100
1000
0001
0100
0001
1000
0010
M00M
0010
0001
0100
0010
1000
0010
0100
,
0001
0010
0100
0010
0001
1000
0010
0100
M00M
0100
1000
0001
0100
0010
0100
0010
,
M00M
0010
0001
1000
0010
1000
0001
0100
M00M
0100
1000
0010
0100
0001
0100
0010
,
1000
0100
0010
0100
1000
0001
0100
0010
M00M
0010
0001
1000
0010
0100
0010
0100
,
M00M
0100
1000
0001
0100
0001
1000
0010
M00M
0010
0001
0100
0010
1000
0100
0100
,
0001
0000
0100
0010
0000
1000
0100
0100
0001
0000
0100
0010
0000
1000
0010
0010
,
0001
0000
0010
0100
0000
1000
0010
0010
0001
0000
0010
0100
0000
1000
0100
0100
,
0001
0000
0100
0010
0000
1000
0100
0100
0001
0000
0100
0010
0000
1000
0010
0010
,
0100
0000
1000
0001
0000
1000
0100
0100
0010
0000
1000
0001
0000
1000
0010
0010
,
0001
0000
0010
0100
0000
1000
0010
0010
0001
0000
0010
0100
0000
1000
0100
0100
,
0001
0000
0100
0010
0000
1000
0100
0100
0001
0000
0100
0010
0000
0000
0000
0000
,
2000
0000
0000
3200
0000
0000
0320
0000
0032
0000
0000
2003
0000
0000
3020
0000
,
0230
0000
0000
0320
0000
0000
2030
0000
3001
0100
0001
0100
0010
0100
0010
1000
,
0001
0000
0010
0100
0000
1000
0010
0100
0001
0000
0010
0100
0000
1000
0010
0100
,
0001
0000
0010
0100
0000
1000
0010
0100
0002
0000
0000
0000
0000
0000
0000
0000
,
1003
0000
0100
0010
0000
0001
0100
0010
1000
0000
0100
0010
0000
0001
0100
0010
,
2000
0000
0000
0000
,
3001
0000
0100
0010
0000
1000
0100
0010
0001
0000
0100
0010
0000
1000
0100
0010
,
0001
0000
0100
0010
0000
1000
0100
0010
0002
0000
0000
0000
0000
0000
0000
0000
,
2003
0000
3000
2000
0000
0000
3020
0000
0230
0000
0000
0302
0000
0000
0203
0000
,
0320
0000
0000
2030
0000
0000
0000
0000
0000
0000
0000
0000
0000
0000
3001
0000
,
0020
0000
0000
0000
0000
0000
0031
0200
0000
0000
0320
0000
2030
0000
3001
0020
,
0000
0230
0000
0000
0000
0000
0000
0000
0000
0000
0000
0000
0000
0000
1300
0000
,
0200
0000
0000
0000
0000
0000
0310
0002
0000
0000
2003
0000
3020
0000
0230
0000
,
0301
0010
0001
1000
0010
0100
0001
0100
0010
1000
0100
0010
0001
0010
0100
1000
,
0002
0000
0000
0000
0000
0000
1003
0020
0000
0000
0230
0000
0302
0000
1003
0200
,
0000
0320
0000
0000
0000
0000
0031
1000
0000
0200
0000
0000
0300
0000
0010
0000
,
0002
0000
0003
0002
0000
0000
2003
0000
3020
0000
0230
0000
0302
0000
2003
0000
,
3200
0000
0000
0000
0000
0000
0000
1300
,
0002
0000
0000
0000
0000
0000
1003
0020
0000
0000
0230
0000
0302
0000
1003
0200
,
0000
0320
0000
0000
0000
0000
0000
0000
0000
0000
0000
0000
0000
0000
0031
0000
,
0020
0000
0000
0000
0000
0000
0130
2000
0000
0000
3002
0000
0203
0000
0320
0000
,
1030
0100
1000
0001
0100
0010
1000
0010
0100
0001
0010
0100
1000
0100
0010
0001
,
2000
0000
0000
0000
0000
0000
3001
0200
0000
0000
0320
0000
2030
0000
3001
0020
,
0000
0230
0000
0000
0000
0000
1300
0001
0000
0020
0000
0000
0030
0000
0100
0000
,
2000
0000
3000
2000
0000
0000
3002
0000
0203
0000
0320
0000
2030
0000
3002
0000
,
0023
0000
0000
0000
0000
0000
0000
0130
,
2000
0000
0000
3100
0010
0001
0010
0100
,
2000
0000
0000
0000
,
3001
0010
0100
0010
0001
1000
0010
0100
M00M
0100
1000
0001
0100
0010
0100
0010
,
M00M
0010
0001
1000
0010
1000
0001
0100
M00M
0100
1000
0010
0100
0001
0100
0010
,
1000
0100
0010
0100
1000
0001
0100
0010
M00M
0010
0001
1000
0010
0100
0010
0100
,
M00M
0100
1000
0001
0100
0001
1000
0010
M00M
0010
0001
0100
0010
1000
0010
0100
,
0001
0010
0100
0010
0001
1000
0010
0100
M00M
0100
1000
0001
0100
0010
0100
0010
,
M00M
0010
0001
1000
0010
1000
0001
0100
M00M
0100
1000
0010
0100
0001
0100
0010
,
1000
0100
0010
0100
1000
0001
0100
0010
M00M
0010
0001
1000
0010
0100
0010
0100
,
M00M
0100
1000
0001
0100
0001
1000
0010
M00M
0010
0001
0100
0010
1000
0001
0010
;
