#TITLE:Here I Am;
#SUBTITLE:(Full Intention Radio Mix);
#ARTIST:David Morales feat. Tamra Keenan;
#TITLETRANSLIT:;
#SUBTITLETRANSLIT:;
#ARTISTTRANSLIT:;
#CREDIT:;
#BANNER:hereiamfirm.png;
#BACKGROUND:hereiamfirm-bg.png;
#LYRICSPATH:;
#CDTITLE:;
#MUSIC:hereiamfirm.mp3;
#OFFSET:-5.746;
#SAMPLESTART:52.310;
#SAMPLELENGTH:12.000;
#SELECTABLE:YES;
#BPMS:0.000=127.000;
#STOPS:132.063=0.472
,132.563=1.654
,133.063=1.654
,133.563=1.654
,134.063=0.236
;
#BGCHANGES:;
// cache tags:
#FIRSTBEAT:4.000;
#LASTBEAT:168.000;
#SONGFILENAME:Songs/juju steps/hereiamfirm/hereiamfirm.sm;
#HASMUSIC:1;
#HASBANNER:1;
#MUSICLENGTH:93.630;
// end cache tags

//---------------dance-single - ----------------
#NOTES:
     dance-single:
     :
     Easy:
     5:
     0.233,0.247,0.107,0.000,0.000,143.000,10.000,0.000,0.000,0.000:  // measure 1
0000
0000
0000
0000
,  // measure 2
1000
0000
0000
0001
0000
0000
0001
0000
,  // measure 3
0100
0000
0000
0010
0000
0000
0010
0000
,  // measure 4
1000
0000
0000
0100
0000
0000
0100
0000
,  // measure 5
0010
0000
0000
0001
0000
0000
0001
0000
,  // measure 6
1000
0000
0000
0001
0000
0000
1000
0000
,  // measure 7
0010
0000
0000
0100
0000
0000
0010
0000
,  // measure 8
0100
0000
0000
0001
0000
0000
0100
0000
,  // measure 9
0010
0000
0000
1000
0000
0000
0010
0000
,  // measure 10
1000
0000
0001
0000
1000
0000
0000
0010
,  // measure 11
0000
0100
0000
0010
0000
1000
0000
0100
,  // measure 12
0000
0100
0000
0010
0000
0000
0001
0000
,  // measure 13
1000
0010
0100
0010
,  // measure 14
1000
0000
0100
0000
0010
0000
0000
0001
,  // measure 15
0000
0100
0000
0010
0000
1000
0000
0100
,  // measure 16
0000
1000
1000
0000
0001
0000
0001
0000
,  // measure 17
0100
0000
0010
0010
,  // measure 18
1000
0000
0001
0000
1000
0000
0000
0010
,  // measure 19
0000
0010
0000
0100
0000
0100
0000
0001
,  // measure 20
0000
0001
0000
0000
1000
0000
1000
0000
,  // measure 21
0100
1000
0010
0100
,  // measure 22
0001
0000
0001
0100
0000
0100
0000
0010
,  // measure 23
0000
1000
0000
0100
0000
1000
0000
0001
,  // measure 24
0000
0100
0000
0000
0010
0000
0010
0000
,  // measure 25
1000
0001
1000
0010
,  // measure 26
0100
0000
0000
1001
0000
0000
0100
0000
,  // measure 27
0010
1000
0100
0010
,  // measure 28
0001
0000
0000
1001
0000
0000
0010
0000
,  // measure 29
0100
1000
0010
0100
,  // measure 30
0001
0000
0000
0110
0000
0000
0100
0000
,  // measure 31
1000
0010
0100
0001
,  // measure 32
0010
0000
0000
1001
0000
0000
0100
0000
,  // measure 33
0010
1000
0100
0100
,  // measure 34
0010
0100
0100
1000
1001
0000
0000
0000
,  // measure 35
1000
0000
0000
0100
0000
0000
0001
0000
,  // measure 36
1000
0000
0000
0010
0000
0000
0001
0000
,  // measure 37
1000
0000
0000
0100
0000
0000
0001
0000
,  // measure 38
1000
0000
0000
0010
0000
0000
0001
0000
,  // measure 39
0100
0000
0000
0110
0000
0000
1000
0000
,  // measure 40
0100
0000
0000
0110
0000
0000
0001
0000
,  // measure 41
1000
0000
0000
1001
0000
0000
0010
0000
,  // measure 42
0001
0000
0000
1001
0000
0000
1000
0000
,  // measure 43
0110
0000
0000
0000
;

//---------------dance-single - ----------------
#NOTES:
     dance-single:
     :
     Medium:
     6:
     0.362,0.314,0.342,0.085,0.000,197.000,32.000,8.000,0.000,0.000:  // measure 1
0000
0000
0000
0000
,  // measure 2
1010
0000
0001
0100
0000
0010
1000
0000
,  // measure 3
0110
0000
0010
0001
0000
0100
0010
0000
,  // measure 4
1001
0000
0100
0010
0000
1000
0100
0000
,  // measure 5
0011
0000
0100
0010
0000
1000
0100
0000
,  // measure 6
1001
0000
0100
0010
0000
1000
0001
0000
,  // measure 7
0110
0000
1000
0100
0000
0010
0100
0000
,  // measure 8
1100
0000
0010
0001
0000
0100
0010
0000
,  // measure 9
0101
0000
1000
0100
0010
0000
0010
0000
,  // measure 10
0001
1000
1000
0000
0110
0000
0001
1000
,  // measure 11
0000
0100
0000
0011
0000
0100
0010
1000
,  // measure 12
0000
0100
0000
1001
0000
0000
0100
0000
,  // measure 13
0010
0000
1000
0000
0001
0100
0100
0000
,  // measure 14
0010
1000
0010
0000
0110
0000
1000
0100
,  // measure 15
0000
1100
0000
0001
0100
0001
0000
0110
,  // measure 16
0000
1000
0100
0000
0100
0000
0010
0000
,  // measure 17
0001
0100
0010
1000
,  // measure 18
0100
0000
0010
0100
0100
0000
0010
1000
,  // measure 19
0000
1100
0000
0001
0000
0011
0000
0100
,  // measure 20
0000
0110
0000
0000
1000
0000
0001
0000
,  // measure 21
1000
0100
1000
0010
,  // measure 22
0100
0001
0100
0000
0100
0010
0100
0000
,  // measure 23
0010
1000
0010
0000
0010
0100
0010
0000
,  // measure 24
1000
0001
0100
0100
,  // measure 25
0010
1000
0100
0100
,  // measure 26
0010
0000
0001
0202
0000
0000
0303
0000
,  // measure 27
1000
0100
1000
0000
0010
0100
0010
0000
,  // measure 28
1000
0000
0010
0220
0000
0000
0330
0000
,  // measure 29
0001
0010
0001
0000
0001
0100
0001
0000
,  // measure 30
0010
0000
0100
2200
0000
0000
3300
0000
,  // measure 31
0010
0001
0100
0000
0001
0010
0100
0000
,  // measure 32
0010
0000
0001
2002
0000
0000
3003
0000
,  // measure 33
0100
0010
1000
0000
1000
0001
0100
0000
,  // measure 34
1001
0100
0010
1000
0110
0000
0000
0000
,  // measure 35
0001
0000
1000
1100
0000
0010
0100
0000
,  // measure 36
0010
0000
0001
0101
0000
1000
0100
0000
,  // measure 37
1000
0000
0010
0110
0000
0100
0001
0000
,  // measure 38
0010
0000
0100
1100
0000
0010
0100
0000
,  // measure 39
0010
0000
0001
1001
0000
0100
0010
0000
,  // measure 40
1000
0000
0100
0110
0000
0010
0100
0000
,  // measure 41
1000
0000
0010
1010
0000
0100
0010
0000
,  // measure 42
0100
0000
0001
0101
0000
1000
0100
0000
,  // measure 43
0110
0000
0000
0000
;

//---------------dance-single - ----------------
#NOTES:
     dance-single:
     :
     Hard:
     7:
     0.450,0.404,0.427,0.021,0.011,253.000,40.000,2.000,0.000,0.000:  // measure 1
0000
0000
0000
0000
,  // measure 2
1000
0000
0001
0110
0000
1000
0001
1000
,  // measure 3
0010
0000
1000
0110
0000
0001
0100
0010
,  // measure 4
0100
0000
0010
1001
0000
1000
0010
0100
,  // measure 5
0010
0000
0100
1001
0010
1000
0100
0000
,  // measure 6
0010
0000
0001
1100
0000
0010
0001
0100
,  // measure 7
0010
0000
1000
0101
0000
1000
0010
0100
,  // measure 8
0001
0000
0010
1100
0000
0010
0001
1000
,  // measure 9
0100
0000
0010
0101
1000
0100
1000
0000
,  // measure 10
0010
0100
1000
0100
0010
0000
1000
0100
,  // measure 11
0010
0001
0010
0100
1000
0000
0010
0100
,  // measure 12
0001
1000
0100
1000
0100
0000
0010
0001
,  // measure 13
0100
0010
1000
0010
1000
0000
0110
0000
,  // measure 14
0001
0010
0100
0010
0001
0000
1000
0010
,  // measure 15
0100
0001
0100
0010
1000
0000
0001
0100
,  // measure 16
0010
0000
1000
0000
0000
1000
0000
0000
0100
0000
0000
0100
0000
0000
0010
0000
,  // measure 17
0001
0100
0010
0000
1000
0100
0001
0000
,  // measure 18
0100
1000
0100
0010
0100
0000
0010
0010
,  // measure 19
0001
0100
0001
0100
0000
0010
0000
1001
,  // measure 20
0000
0110
0000
1000
0001
0000
0001
0000
,  // measure 21
1000
0100
1000
0000
0010
0000
0010
0000
,  // measure 22
1000
0100
0010
0100
1000
0100
0010
0100
,  // measure 23
1000
0001
0100
0001
1000
0001
0100
0001
,  // measure 24
0010
0100
0020
0001
,  // measure 25
0230
0000
1000
0000
0310
0001
0010
0100
,  // measure 26
1000
0000
0110
0101
0000
1000
0100
0000
,  // measure 27
0010
0001
0100
0010
1000
0100
0010
0001
,  // measure 28
1000
0000
0101
0110
0000
1000
0001
0000
,  // measure 29
0010
0000
1100
0110
0000
0001
0100
0010
,  // measure 30
1000
0000
0110
0011
0000
0100
0010
0000
,  // measure 31
1000
0001
0100
0010
0100
0001
1000
0010
,  // measure 32
0100
0000
1001
1100
0000
0010
0001
0000
,  // measure 33
1000
0000
1001
0101
0000
0100
0010
0000
,  // measure 34
1001
0110
1100
0101
1001
0000
0000
0000
,  // measure 35
1000
0100
1000
0100
1000
0010
0100
0001
,  // measure 36
0010
0100
0010
0100
0010
0001
1000
0010
,  // measure 37
0100
0001
0100
0001
0100
0010
1000
0001
,  // measure 38
0100
0010
0100
0010
0100
0000
0010
0000
,  // measure 39
1000
0000
0101
0110
0000
1000
1100
0000
,  // measure 40
0010
0000
0011
0110
0000
1000
1001
0000
,  // measure 41
0100
0000
1001
0101
0000
0010
0110
0000
,  // measure 42
1000
0000
0110
0011
0100
0010
0100
0000
,  // measure 43
1001
0000
0000
0000
;
