#TITLE:F**K AWAY NOW;
#SUBTITLE:;
#ARTIST:DJ Sharpnel;
#TITLETRANSLIT:;
#SUBTITLETRANSLIT:;
#ARTISTTRANSLIT:;
#CREDIT:;
#BANNER:FxxK AWAY NOW - bn.png;
#BACKGROUND:FxxK AWAY NOW - bg.png;
#LYRICSPATH:;
#CDTITLE:;
#MUSIC:FxxK AWAY NOW.ogg;
#OFFSET:0.009;
#SAMPLESTART:98.321;
#SAMPLELENGTH:18.112;
#SELECTABLE:YES;
#DISPLAYBPM:131.800;
#BPMS:0.000=131.815,36.000=131.800,52.000=131.805,68.000=131.785,96.000=100.000,96.250=131.000,96.500=131.750,96.750=131.850,98.750=225.995,99.063=122.786,100.000=131.850,114.000=131.662,128.000=131.900,131.000=133.200,132.000=131.870,164.000=131.780,180.000=131.800,188.000=131.650,196.000=131.640,212.000=132.290,216.000=131.827,280.000=131.730,308.000=130.200,311.000=138.000,312.000=131.750,324.000=129.800,327.000=137.000,328.000=131.880,340.000=131.800,343.000=129.800,344.000=131.820;
#STOPS:;
#BGCHANGES:;
// cache tags:
#FIRSTBEAT:36.000;
#LASTBEAT:377.000;
#SONGFILENAME:Songs/Index Tournament 1/FxxK AWAY NOW/FxxK AWAY NOW.sm;
#HASMUSIC:1;
#HASBANNER:1;
#MUSICLENGTH:173.052;
// end cache tags

//---------------dance-single - Aoreo (Fastest)----------------
#NOTES:
     dance-single:
     Aoreo (Fastest):
     Challenge:
     17:
     0.960,1.000,0.075,0.139,1.000,1118.000,13.000,24.000,2.000,0.000:

0000
0000
0000
0000
,
0000
0000
0000
0000
,
0000
0000
0000
0000
,
0000
0000
0000
0000
,
0000
0000
0000
0000
,
0000
0000
0000
0000
,
0000
0000
0000
0000
,
0000
0000
0000
0000
,
0000
0000
0000
0000
,
1001
0000
0000
0001
0000
0000
0010
0000
0000
0100
0000
0000
1000
0000
0001
0000
,
0100
0000
0000
0010
0000
0000
0100
0000
0000
0001
0000
0000
0010
0000
0100
0000
,
1000
0000
0000
0010
0000
0000
1000
0000
0000
0100
0000
0000
0010
0000
0001
0000
,
1000
0000
0000
0001
0000
0000
1000
0000
0000
0010
0000
0000
0100
0000
0001
0000
,
0010
0000
0000
0100
0000
0000
0010
0000
0000
0001
0000
0000
1000
0000
0010
0000
,
1000
0000
0000
0100
0000
0000
0010
0000
0000
0001
0000
0000
1000
0000
0010
0000
,
1010
0000
0000
0101
0000
0000
1001
0000
0000
1100
0000
0000
0100
0000
0010
0000
,
0011
0000
0000
1001
0000
0000
1010
0000
0000
0110
0000
0000
0100
0000
0001
0000
,
1000
0000
0000
0000
0000
0000
0001
0000
0000
1000
0000
0000
0100
0000
0000
0010
0000
0000
0001
0000
1000
0000
0100
0000
0010
0000
0100
0000
1000
0000
0001
0000
0100
0000
0001
0000
1000
0000
0100
0000
0010
0000
0001
0000
0100
0000
0001
0000
,
1000
0010
1000
0001
0100
0001
1000
0100
0010
0001
1000
0100
1000
0001
0100
0001
1000
0100
0010
0001
1000
0000
0001
0000
0010
0000
0000
0000
0100
0000
0000
0000
,
1000
0000
0000
0000
0000
0000
0000
0000
0000
0000
0000
0000
0000
0000
0000
0000
0000
0000
0000
0000
0000
0000
0000
0000
0010
0000
0000
0000
0000
0000
0000
0000
0000
0000
0000
0000
0100
0000
0000
0000
0000
0000
0000
0000
0000
0000
0000
0000
0001
0000
0000
0000
0000
0000
0000
0000
1000
0000
0000
0000
0000
0000
0000
0000
0001
0000
0000
0000
0000
0000
0000
0000
0010
0000
0000
0000
0000
0000
0000
0000
0100
0000
0000
0000
0000
0000
0000
0000
1000
0000
0000
0000
0000
0000
0000
0000
0001
0000
0000
0000
0000
0000
0100
0000
0000
0000
0000
0000
0001
0000
0000
0000
0000
0000
1000
0000
0000
0000
0000
0000
0100
0000
0000
0000
0000
0000
0010
0000
0000
0000
0000
0000
0001
0000
0000
0000
0000
0000
1000
0000
0000
0000
0000
0000
0001
0000
0000
0000
0000
0000
0100
0000
0000
0000
0000
0000
0010
0000
0000
0000
0000
0000
0100
0000
0000
0000
0000
0000
0001
0000
0000
0000
0000
0000
1000
0000
0000
0000
0000
0000
0001
0000
0000
0000
0000
0000
0100
0000
0000
0000
0000
0000
,
0001
0000
1000
0000
0100
0000
0010
0000
0001
0000
1000
0100
1000
0001
0100
0010
0100
0001
1000
0100
0010
0001
1000
0001
,
0100
0000
0010
0000
0100
0000
0001
0000
1000
0000
0100
0000
0010
0000
0000
0001
0000
0000
1000
0000
0000
0000
0100
0000
0000
0000
0000
0020
0000
0000
0000
0000
0000
0000
0000
0000
0030
0000
0000
0000
0000
0000
0000
0000
0000
0000
0000
0000
,
0004
0000
0000
0003
0000
0000
0000
0000
0000
0004
0000
0000
1003
0000
0010
0000
1000
0000
0001
0100
0001
0010
0100
1000
,
0001
0000
1000
0000
0001
0000
0010
0000
0100
0000
0000
1000
0000
0000
0001
0000
0000
0000
0100
0000
0000
0010
0000
0000
1000
0000
0000
0000
0001
0000
0000
0000
,
1000
0000
0000
0000
0010
0000
0000
0000
1000
0000
0000
0000
0100
0000
0000
0000
0010
0000
0000
0000
0001
0000
0000
0000
1000
0000
0000
0000
0010
0000
0000
0000
1000
0000
0000
0000
0100
0000
0000
0000
0010
0000
0000
0000
0001
0000
0000
0000
0000
0200
0000
0000
0000
0000
0000
0000
0300
0000
0000
0000
0000
0000
0000
0000
,
2MM2
0000
0000
0000
,
0000
0000
0000
3003
0000
0000
0000
0000
,
0001
0000
0000
0001
0000
0000
0010
0000
0000
0010
0000
0000
0100
0000
0000
0100
,
0000
0000
0000
0000
0000
0000
0000
0000
1000
0000
0000
0000
0000
0000
0000
0000
0000
0000
0000
0000
1000
0000
0000
0000
0000
0000
0000
0000
0000
0000
0000
0000
0200
0000
0000
0000
0000
0000
0000
0300
0100
0000
0000
0000
0001
0000
0000
0000
0020
0000
0000
0000
0000
0000
0000
0030
0010
0000
0000
0000
1000
0000
0000
0000
,
0001
0000
0000
0001
0000
0000
0100
0000
0000
0100
0000
0000
0001
0000
0000
0001
,
0000
0000
0000
0000
0000
0000
0000
0000
1000
0000
0000
0000
0000
0000
0000
0000
0000
0000
0000
0000
1000
0000
0000
0000
0000
0000
0000
0000
0000
0000
0000
0000
0200
0000
0000
0000
0000
0000
0000
0300
0100
0000
0000
0000
0001
0000
0000
0000
0020
0000
0000
0000
0000
0000
0000
0030
0010
0000
0000
0000
1000
0000
0000
0000
,
0001
0000
0000
0001
0000
0000
0010
0000
0000
0010
0000
0000
0001
0000
0000
0001
,
1000
0100
0010
0100
1000
0010
1000
0100
0010
0001
0100
0001
1000
0000
0100
0100
,
0001
0000
0000
1000
0000
0000
0100
0000
0000
1000
0000
0000
0010
0000
0000
0100
,
0000
0000
0000
0000
0000
0000
0000
0000
0001
0000
0000
0000
0000
0000
0000
0000
0000
0000
0000
0000
0010
0000
0000
0000
0000
0000
0000
0000
0000
0000
0000
0000
0200
0000
0000
0000
0000
0000
0000
0300
0100
0000
0000
0000
0001
0000
0000
0000
0020
0000
0000
0000
0000
0000
0000
0030
0010
0000
0000
0000
1000
0000
0000
0000
,
0001
0000
0000
1000
0000
0000
0100
0000
0000
1000
0000
0000
0010
0000
0000
0100
,
0000
0000
0000
0000
0000
0000
0000
0000
0010
0000
0000
0000
0000
0000
0000
0000
0000
0000
0000
0000
1000
0000
0000
0000
0000
0000
0000
0000
0000
0000
0000
0000
0200
0000
0000
0000
0000
0000
0000
0300
0100
0000
0000
0000
0001
0000
0000
0000
0020
0000
0000
0000
0000
0000
0000
0030
0010
0000
0000
0000
1000
0000
0000
0000
,
0001
0000
0000
0100
0000
0000
0001
0000
0000
0010
0000
0000
0001
0000
0000
1000
,
0000
0000
0000
0000
0000
0000
0000
0000
0010
0000
0000
0000
0000
0000
0000
0000
0000
0000
0000
0000
1000
0000
0000
0000
0000
0000
0000
0000
0000
0000
0000
0000
0200
0000
0000
0000
0000
0000
0000
0300
0100
0000
0000
0000
0001
0000
0000
0000
0020
0000
0000
0000
0000
0000
0000
0030
0010
0000
0000
0000
1000
0000
0000
0000
,
0001
0000
0000
0010
0000
0000
0001
0000
0000
1000
0000
0000
0010
0000
0000
0100
,
0001
0000
0000
1000
0100
0010
0100
1000
0010
0000
0000
0000
1000
0100
0100
0001
,
0010
0000
0000
0000
0001
0100
0100
1000
0001
0000
0000
0000
1000
0100
0100
0001
,
1000
0000
0000
0000
0001
0100
0100
1000
0001
0000
0000
0000
1000
0100
0100
0001
,
0010
0000
0000
0000
0001
0100
0100
1000
0001
0000
0000
0000
1000
0100
0100
0001
,
1000
0000
0000
0000
0001
0100
0100
1000
0001
0000
0000
0000
1000
0100
0100
0001
,
0010
0001
0100
0100
1000
0001
0100
0100
1000
0001
0100
0100
1000
0001
0100
0100
,
1000
0001
0100
0100
1000
0001
0100
0100
1000
0001
0100
0100
1000
0001
0100
0100
,
0020
0000
0000
0000
0000
0000
0130
0000
0000
1000
0000
0000
0010
0000
0000
1000
0000
0000
0100
0000
0000
0010
0000
0000
0001
0000
0000
0100
0000
0000
0001
0000
0000
1000
0000
0000
0001
0000
0100
0000
0001
0000
1000
0000
0100
0000
0010
0000
,
0001
1000
0010
0100
0010
1000
0001
1000
0100
0010
0001
1000
0001
0100
0010
0100
0001
1000
0001
0100
0010
0100
0001
1000
,
0001
0100
0001
1000
0010
1000
0001
0100
0010
0100
0001
1000
0001
0010
0100
1000
0001
0100
0001
1000
0100
1000
0001
0100
0001
0000
1000
0000
0100
0000
0010
0000
,
0001
1000
0010
0100
0001
0100
0001
1000
0100
0010
0001
1000
0010
0100
0010
1000
,
0001
0100
0001
1000
0100
0010
0001
1000
0010
0100
0010
1000
0001
0010
0100
0010
0001
1000
0010
1000
0100
0010
0001
1000
,
0001
0100
0001
1000
0010
0100
0010
1000
0001
1000
0100
0010
0001
1000
0100
1000
0001
0100
0001
1000
0010
0100
0010
1000
0001
0010
0100
1000
0001
0100
0001
1000
,
0020
0000
0000
0000
0000
0030
0000
0000
0000
0000
0000
0000
0000
0000
0000
0000
,
1000
0100
1000
0010
0100
0010
1000
0001
0010
0100
1000
0001
0100
0010
0100
0001
,
1000
0100
0010
0001
1000
0001
0100
0010
0001
0010
1000
0100
0010
1000
0010
0001
,
1000
0010
1000
0001
0100
0010
0100
0001
1000
0100
0010
0001
1000
0100
1000
0010
,
0100
0010
1000
0001
0010
0100
1000
0010
0001
0010
0100
0001
0010
1000
0010
0001
,
1000
0010
1000
0100
0010
0001
1000
0001
0100
0010
0100
0001
1000
0100
0010
0100
,
1000
0001
0100
0010
0100
0001
1000
0010
0100
1000
0100
0001
0010
0100
0001
0100
,
1000
0001
1000
0010
0100
0010
1000
0001
0010
0100
1000
0010
1000
0001
0100
0001
,
1000
0100
0010
0100
0001
1000
0010
0001
1000
0010
0000
0000
0100
0000
0100
0000
,
0001
0100
0001
0010
0100
0010
0001
1000
0010
0100
0001
1000
0100
0010
0100
1000
,
0001
0100
0010
1000
0001
1000
0100
0010
1000
0010
0001
0100
0010
0001
0010
1000
,
0001
0010
0001
1000
0100
0010
0100
1000
0001
0100
0010
1000
0001
0100
0001
0010
,
0100
0010
0001
1000
0010
0100
0001
0010
1000
0010
0100
1000
0010
0001
0010
1000
,
0001
0010
0001
0100
0010
1000
0001
1000
0100
0010
0100
1000
0001
0100
0010
0100
,
0001
1000
0100
0010
0100
1000
0001
0010
0100
0001
0100
1000
0010
0100
1000
0100
,
0001
1000
0001
0010
0100
0010
0001
1000
0010
0100
0001
0010
0001
1000
0100
1000
,
0001
0100
0010
0100
1000
0001
0010
1000
0001
0010
0100
1000
0010
0001
1000
0100
,
0001
0000
0000
0000
1000
0000
0000
0000
0001
0000
0000
0000
0010
0000
0000
0000
0100
0000
0000
0000
1000
0000
0000
0000
0001
0000
0000
0000
0000
0000
1000
0000
0000
0001
0000
0000
0100
0000
0000
0000
0000
0000
1000
0000
0000
0001
0000
0000
,
0100
0000
1000
0001
0100
0000
1000
0001
0100
0100
0000
0000
1000
0000
1000
0000
,
0001
0000
0100
0001
0010
0000
0100
0001
0010
0000
0100
0001
0010
0000
0100
0001
,
0010
0000
0100
0001
0010
0000
0100
0001
0020
0000
0030
0020
0000
0030
0200
0000
,
4300
3000
0040
0030
4000
3000
0400
0300
0040
0030
0001
1000
0100
0000
0001
1000
,
0100
0000
0001
1000
0100
0000
0001
1000
0100
0100
0000
0000
0001
0000
0001
0000
,
1000
0000
0100
1000
0010
0000
0100
1000
0010
0000
0100
1000
0010
0000
0100
1000
,
0010
0100
0010
1000
0100
0010
0001
1000
0001
0010
0100
1000
0020
0000
2030
0000
,
3001
0100
0001
1000
0010
1000
0001
0100
0001
1000
0100
0010
0001
1000
0100
1000
0001
0100
0010
0100
0001
1000
0100
0010
0001
1000
0100
1000
0001
0010
0100
1000
,
0001
0100
0001
1000
0010
0100
0010
1000
0001
0010
0100
1000
0001
0100
0001
1000
0100
0010
0100
1000
0001
0100
0001
1000
0100
0010
0001
1000
0001
0100
0010
0100
,
0001
1000
0001
0010
0100
1000
0001
0100
0001
1000
0100
0010
0001
1000
0100
1000
0001
1000
0010
0100
0010
1000
0001
0100
0010
0100
0001
1000
0010
1000
0001
0100
,
0001
0010
0001
1000
0100
0010
0001
1000
0010
1000
0100
0010
0004
0000
0000
0000
,
1003
0100
1000
0001
1000
0010
0100
0010
1000
0001
0100
0001
1000
0001
0100
0010
0100
0001
1000
0001
0100
0010
0100
0001
1000
0100
0010
0001
1000
0100
1000
0001
,
0100
0001
1000
0100
0010
0100
1000
0001
0100
0010
0100
0001
1000
0100
0010
0001
1000
0100
1000
0010
0100
0001
1000
0001
,
0010
0100
1000
0001
0100
0010
0100
0001
1000
0100
0010
0001
1000
0010
1000
0100
,
0010
0001
0010
0001
0100
0010
0100
0010
1000
0001
1000
0001
0020
0000
0430
0300
,
1100
0000
1000
0000
0001
0010
0100
0000
1000
0100
0000
1000
0001
0000
0100
0010
,
0000
0100
0001
0000
0010
0100
0000
1000
0001
0100
0000
0000
0010
0000
0010
0000
,
1000
0000
0001
0000
0010
0100
1000
0000
0001
0100
0000
0001
0010
0000
0100
1000
,
0000
0001
1000
0000
0010
1000
0000
0001
1000
0000
0100
0010
0000
0100
0010
0000
,
0001
0000
1000
0000
0001
0100
0010
0000
1000
0100
0000
1000
0001
0000
0100
0001
,
0000
1000
0001
0000
0010
0100
0000
1000
0001
0100
0000
0000
0010
0000
0010
0000
,
1000
0000
0001
0000
1000
0100
0010
0000
0001
0100
0000
0001
1000
0000
0001
0100
,
0010
1000
0010
1000
0100
0010
0100
0010
0001
1000
0001
1000
0020
0000
0430
0300
,
0002
0003
0000
0000
;
