#TITLE:Stoned Henge;
#SUBTITLE:;
#ARTIST:1200 Mics;
#TITLETRANSLIT:;
#SUBTITLETRANSLIT:;
#ARTISTTRANSLIT:;
#CREDIT:;
#BANNER:StonedHenge.png;
#BACKGROUND:Stonedhenge.jpg;
#LYRICSPATH:;
#CDTITLE:CDtitletiger.png;
#MUSIC:stoned_henge.ogg;
#OFFSET:-3.200;
#SAMPLESTART:41.647;
#SAMPLELENGTH:12.000;
#SELECTABLE:YES;
#BPMS:0.000=144.000;
#STOPS:;
#BGCHANGES:;
// cache tags:
#FIRSTBEAT:0.000;
#LASTBEAT:609.000;
#SONGFILENAME:Songs/new cedric/Stoned Henge (Short)/Stoned Henge.sm;
#HASMUSIC:1;
#HASBANNER:1;
#MUSICLENGTH:278.639;
// end cache tags

//---------------dance-single - ----------------
#NOTES:
     dance-single:
     :
     Challenge:
     13:
     1.000,1.000,1.000,1.000,1.000,1962.000,537.000,332.000,0.000,87.000:
1100
0000
0001
0001
1100
0000
0110
0000
1000
0000
0111
0000
0101
0000
0101
0000
,
0011
0000
0000
0000
1000
0000
1000
0000
0110
0000
0000
0000
0011
0000
0000
0000
1100
0000
0000
0000
1000
0000
0000
0000
0001
0000
0001
0000
0000
0000
0001
0010
,
1100
0000
0001
0001
1100
0000
0110
0000
0011
0000
0011
0000
1100
0000
1100
0000
,
0110
0000
0000
0000
1000
0000
1000
0000
0110
0000
0000
0000
0011
0000
0000
0000
1100
0000
0000
0000
0000
0000
1100
0000
0000
0000
0000
0000
0001
0010
0100
1000
,
0011
0100
0010
0100
0011
0000
1100
0000
0011
0000
0101
0000
1100
0000
1010
0000
,
0110
0000
0000
0000
0001
0000
0001
0000
0110
0000
0000
0000
1100
0000
0000
0000
0101
0000
0000
0000
0101
0000
0000
0000
1010
0000
1010
0000
0000
0000
0001
0100
,
1010
0000
0001
0001
1100
0000
0110
0000
1001
0000
1001
0000
0110
0000
0110
0000
,
1100
0000
0000
0000
1000
0000
0010
0000
0101
0000
0000
0000
1100
0000
0000
0000
0011
0000
0000
0000
0000
0000
0011
0000
0000
0000
0000
0000
0001
1000
0001
1000
,
0110
0000
0001
0101
1010
0000
1010
0000
0011
1000
0011
0100
1001
0000
0001
0000
,
1100
0000
0000
0000
0001
0000
0011
0000
1100
0000
0000
0000
1010
0000
0000
0000
0110
0000
0001
0000
1100
0000
0011
0000
1100
0000
1100
0000
0000
0000
0010
0100
,
1001
0000
0001
0101
1010
0000
0110
0000
0001
0000
0001
0010
1100
0000
1000
0000
,
1100
0000
0000
0000
0001
0000
0011
0000
1100
0000
0000
0000
0001
0000
0000
0000
1100
0000
0000
0000
0000
0000
1100
0000
0001
0000
0000
0000
1000
0001
1000
0001
,
0110
0000
1000
1001
0110
0000
0001
0000
1000
0000
1010
0100
0001
0000
0001
0000
,
0110
0000
0000
0000
1000
0000
1010
0000
0101
0000
0000
0000
0001
0000
0000
0000
1100
0000
0000
0000
1000
0000
0010
0000
0101
0000
0001
0000
0000
0000
1000
0100
,
0011
0000
1000
1100
0011
0000
0101
0000
1100
0000
1000
0100
0011
0000
0001
0000
,
1100
0000
0000
0000
0001
0000
0101
0000
0010
0000
0010
0000
1000
0000
1000
0000
0011
0000
0000
0000
0000
0000
0011
0000
1000
0000
0000
0000
0001
0010
0001
0010
,
1101
0000
0001
0001
1110
0000
1000
0000
0111
0000
0011
0000
1110
0000
1100
0000
,
0111
0000
0000
0000
0100
0000
0100
0000
1011
0000
0000
0000
0011
0000
0000
0000
1110
0000
0000
0000
1100
0000
0000
0000
1011
0000
0001
0000
0000
0000
1000
0100
,
1011
0000
0010
0010
1101
0000
0101
0000
1110
0000
1010
0000
0111
0000
0110
0000
,
1101
0000
0000
0000
0100
0000
0100
0000
0011
0000
0010
0000
1000
0000
1000
0000
0111
0000
0000
0000
0000
0000
0101
0000
0010
0000
0000
0000
1000
0100
0010
0001
,
1110
0000
0100
0100
1011
0000
0110
0000
1101
0000
0101
0000
1011
0000
1010
0000
,
1101
0000
0000
0000
0001
0000
0001
0000
1110
0000
0000
0000
0011
0000
0000
0000
0111
0000
0000
0000
0011
0000
0000
0000
1110
0000
1000
0000
0000
0000
0010
0100
,
1011
0000
0001
0001
1010
0010
0100
0100
1101
0000
1100
0000
0111
0000
0011
0000
,
1111
0000
2000
0000
3001
0010
0200
0000
0311
1100
0000
0110
1002
0000
0000
0000
,
1103
0000
1010
1100
0011
0000
1010
0100
1001
0000
1010
0100
0011
0000
0101
0010
,
1100
0000
0000
0000
1010
0000
1100
0000
0011
0000
0000
0000
1010
0000
0100
0000
1001
0000
0000
0000
1010
0000
0100
0000
0011
0000
0010
0000
0100
0000
0001
0010
,
1100
0000
1001
0011
1100
0000
1001
0010
1100
0000
1100
0001
0110
0000
0110
0001
,
1100
0000
0000
0000
1001
0000
0101
0000
1010
0000
0000
0000
1010
0000
0100
0000
0011
0000
0000
0000
0100
0000
1001
0000
0010
0000
0000
0000
0001
1000
0001
1000
,
0110
0000
1001
0101
1010
0000
1010
0100
1001
0000
1001
0100
1010
0000
0110
1000
,
0101
0000
0000
0000
1010
0000
0110
0000
1001
0000
0000
0000
1001
0000
0100
0000
1001
0000
0000
0000
1001
0000
0010
0000
1100
0000
0100
0000
0000
0000
0001
1000
,
0110
0000
0001
0001
0101
0000
0101
0000
1010
0000
1010
0000
0110
0000
0110
0000
,
2100
0000
0000
0000
0000
0000
0000
0000
3001
0001
0001
0001
0000
0000
2100
0010
,
3101
0000
1000
0100
1001
0000
0010
0100
1001
0000
0001
0010
1100
0000
0010
0100
,
0011
0000
0000
0000
1000
0000
0100
0000
1010
0000
0000
0000
0001
0000
0010
0000
1100
0000
0000
0000
0010
0000
0100
0000
0011
0000
0001
0000
0000
0000
1000
0001
,
0110
0000
1000
0100
1010
0000
0001
0100
0011
0000
1000
0001
0110
0000
1000
0100
,
1011
0000
0000
0000
0100
0000
0001
0000
1100
0000
0000
0000
0010
0000
0100
0000
0011
0000
0000
0000
0000
0000
0011
0000
0000
0000
0000
0000
0001
0010
0100
1000
,
0011
0000
0010
0010
1100
0000
1000
1000
0101
0000
0001
0001
1010
0000
0100
0100
,
1001
0000
0000
0000
1000
0000
1000
0000
0101
0000
0000
0000
0010
0000
0010
0000
0101
0000
0000
0000
0001
0000
0001
0000
0110
0000
0000
0000
1000
0000
1000
0001
,
0110
0000
1000
1000
0011
0001
0110
1000
0101
0000
1000
1000
0011
0000
0100
0100
,
1012
0000
0003
0000
1000
0000
0000
0000
1000
0000
0000
0000
1000
0000
0000
0000
0012
0003
0012
0003
0000
0000
0012
0003
2110
0000
0000
0000
0000
0000
0000
0000
,
3012
0003
1000
1000
1000
0000
0100
0100
0012
0003
0100
0100
0100
0000
0001
0001
,
0120
0030
0100
0100
0100
0000
0010
0010
0201
0300
1000
1000
0210
0000
0000
0000
,
0312
0003
1000
1000
1000
0000
0100
0100
0012
0003
0100
0100
0100
0000
0001
0001
,
0120
0000
0030
0000
0100
0000
0100
0000
0100
0000
0000
0000
0010
0000
0010
0000
0201
0300
0200
0300
0000
0000
0200
0300
2010
0000
0000
0000
0000
0000
0000
0000
,
3012
0003
1000
1000
1000
0000
0100
0100
0012
0003
0100
0100
0100
0000
0001
0001
,
0120
0030
0100
0100
0100
0000
0010
0010
0201
0300
1000
1000
0210
0000
0000
0000
,
0312
0003
1000
1000
1000
0000
0100
0100
0012
0003
0100
0100
0100
0000
0001
0001
,
2120
0000
0030
0000
0100
0000
0100
0000
0100
0000
0000
0000
0010
0000
0010
0000
3201
0300
0201
0300
0001
0000
0201
0300
2010
0000
0000
0000
0000
0000
0000
0000
,
3012
0003
1000
1000
1000
0000
2100
3100
0012
0003
0100
0100
0100
0000
0001
0001
,
0120
0030
0100
0100
0100
0000
2010
3010
0201
0300
1000
1000
0210
0000
0000
0000
,
0312
0003
1000
1000
1000
0000
2100
3100
0012
0003
0100
0100
0100
0000
0001
0001
,
0120
0000
0030
0000
0100
0000
0100
0000
0100
0000
0000
0000
2010
0000
3010
0000
0201
0300
0200
0300
0000
0000
0200
0300
2010
0000
0000
0000
0000
0000
0000
0000
,
3012
0003
1000
1000
1000
0000
2100
3100
0012
0003
0100
0100
0100
0000
0001
0001
,
0120
0030
0100
0100
0100
0000
0010
0010
0201
0300
1000
1000
0210
0000
0000
0000
,
1301
0000
0000
0000
1000
0000
1000
0000
0000
0000
0000
0000
0200
0000
0000
0000
0000
0000
0310
0000
0000
0000
0000
0000
0001
0000
0001
1000
0002
0000
0000
0000
,
0003
0010
0000
0000
0010
0000
0000
0010
0000
0000
0010
0000
0000
0000
0010
0010
,
0120
0030
0001
0000
2010
3000
2000
3000
0001
0000
0100
0000
1020
0000
0000
0000
1000
0000
0130
0000
0002
0000
2003
3000
2000
3000
0100
0000
0012
0000
0003
0000
,
1120
0030
0001
0000
2010
3000
2000
3000
0001
0000
0100
0000
1020
0000
0000
0000
1000
0000
0230
0300
0002
0000
2003
3000
2000
3000
0100
0000
0012
0000
0003
0000
,
1120
0030
0001
0000
2010
3000
2000
3000
0001
0000
0100
0000
1020
0000
0000
0000
1000
0000
0230
0300
0002
0000
2003
3000
2000
3000
0100
0000
0012
0000
0003
0000
,
1120
0030
0001
0000
2010
3000
2000
3000
0001
0000
0100
0000
1020
0000
0000
0000
1000
0000
0230
0300
0002
0000
2003
3000
2002
3000
0000
0000
0000
0000
0000
0000
,
1123
0030
0001
0000
2010
3000
2000
3000
0001
0000
0100
0000
1020
0000
0000
0000
1000
0000
0230
0300
0002
0000
2003
3000
2000
3000
0100
0000
0012
0000
0003
0000
,
1120
0030
0001
0000
2010
3000
2000
3000
0001
0000
0100
0000
1020
0000
0000
0000
1000
0000
0230
0300
0002
0000
2003
3000
2000
3000
0100
0000
0012
0000
0003
0000
,
1120
0030
0001
0000
2010
3000
2000
3000
0001
0000
0100
0000
1020
0000
0000
0000
1000
0000
0230
0300
0002
0000
2003
3000
2000
3000
0100
0000
0012
0000
0003
0000
,
1120
0030
0001
0000
2010
3000
2000
3000
0001
0000
0100
0000
1020
0000
0000
0000
1000
0000
0230
0300
0002
0000
2003
3000
2002
3000
0000
0000
0003
0000
0000
0000
,
2120
3030
0001
0000
2010
3000
2000
3000
0001
0000
0100
0000
1020
0000
0000
0000
1000
0000
0230
0300
0002
0000
2003
3000
2000
3000
0100
0000
1012
0000
0003
0000
,
0120
0000
1030
0000
0102
0003
0002
0003
1000
0000
0010
0000
0102
0000
0000
0000
0000
0000
0203
0300
0001
0000
0120
0030
1020
0030
0000
0000
2100
0000
3000
0000
,
0112
0003
0010
0000
2000
3000
2000
3000
0100
0000
0010
0000
0201
0000
0000
0000
0000
0000
0320
0030
0000
0000
0020
0030
1020
0030
0100
0000
1012
0000
0003
0000
,
2100
0000
3010
0000
0102
0003
0002
0003
1000
0000
0001
0000
0120
0000
0000
0000
0001
0000
2030
3000
0002
0000
2003
3000
2010
3000
0100
0000
1002
0000
0003
0000
,
0120
0000
1030
0000
0102
0003
0002
0003
0010
0000
1000
0000
2001
0000
0000
0000
0010
0000
3200
0300
1000
0000
0002
0003
0002
0003
0010
0000
2101
0000
3000
0000
,
0121
0030
1000
0000
0012
0003
0002
0003
1000
0000
0100
0000
0012
0000
0000
0000
1000
0000
0013
0000
1000
0000
0200
0300
0200
0300
0000
0000
2011
0000
3000
0000
,
0101
0000
0010
0000
2001
3000
2000
3000
0010
0000
0100
0000
0012
0000
0000
0000
1000
0000
0123
0030
1000
0000
0020
0030
0021
0030
0100
0000
1002
0000
0003
0000
,
2100
0000
0000
0000
0000
0000
3200
0000
0302
0000
0000
0000
0000
0000
0000
0000
1003
0000
0100
0000
1000
0000
0010
0000
2100
0000
0000
0000
0000
3000
0000
0000
,
1011
0100
0010
0010
1000
0001
0001
1000
0001
0010
1000
1000
0010
0100
1001
0001
,
1010
0100
0001
0001
0010
0100
0100
0001
0010
0010
1000
0100
0010
0100
1001
1000
,
0001
0010
0100
0100
0000
0100
0100
0001
1000
0010
0100
0001
0001
0001
0101
0010
,
1001
1000
0100
0001
0001
0001
0010
1000
0010
0001
1000
0001
0001
0001
1001
0010
,
1000
0100
0010
0001
0001
1000
0010
0001
1000
1000
0010
0100
0100
0100
0101
1000
,
0001
0001
0001
0010
1000
0010
1000
0100
0001
0010
1000
0001
0001
0001
0101
1000
,
0010
0010
1000
0010
0010
0010
0010
1000
0100
0100
1000
0010
0010
0010
0110
0001
,
1100
0010
0100
0011
1100
0001
1100
0010
1001
0110
1100
0101
0001
1001
0011
1000
,
0101
0010
1000
0100
0001
0010
0100
1000
0001
0010
0001
1000
0100
1000
0010
0100
,
0010
1000
0100
0010
0001
0100
0010
0100
0001
0010
0100
1000
1000
1000
1100
0001
,
1010
0100
0001
0001
0100
0010
0010
1000
0100
1000
1000
0100
0001
0001
1001
0010
,
0100
0100
0000
0010
0010
0010
0010
0000
1000
1000
0000
0010
0010
0010
1010
0100
,
0001
0001
0000
1000
1000
1000
1000
0000
0010
0010
0000
0001
0001
0001
1001
0010
,
1000
0100
0010
0001
1000
0100
0010
0001
1000
0100
0010
0001
1000
0100
0010
0001
,
1000
0100
0010
0001
1000
0100
0010
0001
1000
0100
0010
0001
1000
0100
0010
0001
1000
0100
0010
0001
1000
0100
0010
0001
1000
0001
1000
0001
1000
0001
1000
0001
,
0110
1000
0020
0000
1030
0100
0020
0000
1031
0001
0200
0310
0012
0000
0000
0000
,
1103
0010
0001
0100
0010
0001
1000
0010
1100
0001
0010
0100
1000
0010
0100
0010
,
1001
0100
0010
0100
0001
0010
0001
0100
0011
1000
0100
0010
1002
0000
0000
0000
,
1103
0010
0100
0010
1000
0001
1000
0001
1010
0100
0010
0001
1000
0100
0010
0001
,
1100
0010
1000
0001
0010
0001
1000
0100
1001
0011
0100
1001
0012
0000
0000
0000
,
1203
1300
0000
0001
0001
0001
0001
0000
0210
0310
0000
1000
1002
1000
1000
0000
,
1023
1030
0000
0001
0001
0001
0001
0000
0120
0130
0000
1000
1020
1000
1000
0000
,
0231
0301
0000
0010
0210
0310
0010
0000
1002
1003
0000
0010
0010
0010
0010
0000
,
2100
3000
0001
0000
0100
0000
0010
0000
0100
0000
0001
0000
2000
0000
0000
0000
3101
0000
0100
0000
0000
0000
0001
0000
1002
0000
0003
0000
1000
0001
1000
0001
,
0120
0030
1000
0100
0011
0100
2010
0100
3002
0000
1003
0100
0010
0100
1001
1000
,
2000
0000
0000
0000
3010
0000
0100
0000
1001
0000
0100
0000
0010
0000
0001
0000
2100
0000
0000
0000
3001
0000
0001
0000
0120
0000
0000
0000
0030
0000
1000
0001
,
2100
3000
0100
0010
0101
1000
0020
0000
2130
0000
3001
0010
0001
1000
0001
0001
,
1002
0000
0000
0000
1003
0000
0100
0000
1000
0000
0010
0000
0100
0000
0001
0000
1100
0000
1100
0000
0000
0000
0101
0000
0102
0000
0000
0000
0000
0000
1003
0100
,
0021
0030
1000
0100
1001
0010
2000
0000
3002
0000
1003
0100
1000
0010
0100
0100
,
0012
0000
0003
0000
1000
0000
0100
0000
1010
0000
0001
0000
0100
0000
0100
0000
0012
0000
0003
0000
1000
0000
0100
0000
0012
0000
0000
0000
0003
0000
0010
0100
,
1002
0003
1000
0100
1001
0100
0020
0000
0230
0300
0001
1000
0101
0010
1100
1000
,
1002
0000
0003
0000
1000
0000
0100
0000
0010
0000
0001
0000
0100
0000
0100
0000
1010
0000
1010
0000
0000
0000
1010
0000
0102
0000
0000
0000
0000
0000
1003
0100
,
0011
0001
1000
0001
0100
0100
0010
0100
0001
0001
1000
0001
0010
0010
1000
0010
,
1000
1000
0001
1000
0010
0010
0100
0010
1000
1000
0010
1000
0001
0001
0100
0001
,
1000
1000
0010
1000
0100
0100
0010
0100
0001
0001
0010
0001
1000
1000
0010
1000
,
0001
0000
0001
0000
0100
0000
0001
0000
0010
0000
0010
0000
0100
0000
0010
0000
1000
0000
1000
0000
0001
0000
1000
0000
0010
0000
0010
0000
1000
0001
1000
0001
,
0110
1000
0001
0001
1100
0010
0101
0010
1100
0010
1100
0010
0101
1000
0101
0010
,
1100
0000
0010
0000
0001
0000
0001
0000
0110
0000
1000
0000
0101
0000
0010
0000
1100
0000
0001
0000
1010
0000
0100
0000
0001
0000
0001
0000
0000
0000
1000
0001
,
0110
1000
0001
0001
1100
0010
0101
1000
0011
0100
0011
0100
1010
0001
1100
0010
,
2001
0000
0000
0000
0000
0000
0000
0000
0000
0000
0000
0000
0000
0000
0000
0000
3101
0000
0001
0000
0001
0000
0101
0000
0000
0000
0000
0000
1000
0100
0010
0001
,
2100
3010
0001
0100
0001
0010
1100
0001
0100
0010
1000
0100
0010
0001
1100
0010
,
0001
1000
0100
0010
0001
0100
1001
0100
0010
0001
1000
0100
0012
0000
1100
0000
,
2013
3100
0010
0100
0001
1000
0110
0001
1000
0100
0010
0001
0100
0010
1100
0001
,
1000
0100
0010
0001
0100
0010
1100
0010
1000
0100
1000
0010
0100
0001
1100
0000
,
1002
0000
1003
1000
0010
0000
0001
0000
1000
0000
0100
0000
0010
0000
0001
0000
,
1100
0000
0000
0000
0010
0000
0010
0000
0100
0000
0000
0000
1000
0000
0000
0000
0001
0000
0000
0000
0021
0000
0000
0000
1000
0000
1000
0000
0000
0000
1000
0001
,
2130
3000
0010
0010
1000
0000
1000
0000
0001
0000
0001
0000
0100
0000
0100
0000
,
0011
0000
0000
0000
1000
0000
1000
0000
0010
0000
0000
0000
0100
0000
0000
0000
0001
0000
0000
0000
0000
0000
0001
0000
0000
0000
0000
0000
0001
1000
0001
1000
,
0110
0001
1000
1000
0010
0100
1001
0100
0010
1000
0001
0010
0100
1000
0011
0100
,
1001
0000
0100
0000
0001
0000
0001
0000
1000
0000
0100
0000
1001
0000
0010
0000
0100
0000
0010
0000
1000
0000
0001
0000
1100
0000
0010
0000
1000
0100
0010
0001
,
2100
0100
3010
0010
1000
0100
0001
0001
1000
0100
0010
0010
1000
0100
0010
0010
,
0001
1000
0100
0100
0001
1000
0100
0100
0010
0001
1000
1000
0010
0001
1000
1000
,
0101
0010
1000
1000
0001
0010
1000
1000
0001
0010
1000
1000
0001
0010
1000
1000
,
0101
0010
0001
0001
0100
0010
0001
0001
1000
0010
0102
0100
1000
0010
0103
0100
,
2010
0100
3001
0001
0010
0100
0001
0001
0010
0100
0001
0001
0010
0100
0001
0001
,
1000
0100
0010
0010
1000
0100
0010
0010
1000
0001
0100
0100
1000
0001
0100
0100
,
2001
0100
0010
0010
0001
0100
0010
0010
0001
0100
0010
0010
0001
0100
0010
0010
,
0001
0010
0100
0100
0001
0100
0010
0010
3102
0010
1000
1023
0100
0000
0032
0000
,
2003
0010
3201
1000
0321
1000
0100
1000
0031
0100
0010
0010
0001
0100
0010
0010
,
1001
0100
0010
0010
1000
0100
0010
0010
1000
0001
0100
0100
1000
0001
0110
0100
,
0120
0000
0000
0000
,
0000
0000
0032
0000
0000
0023
0000
0000
0032
0000
0000
0023
0000
0000
0032
0000
,
0000
0023
0000
0000
0032
0000
0000
0023
0000
0000
0032
0000
0000
0023
0000
0000
,
0000
0000
0000
0000
2030
0000
0000
0000
0000
0000
0000
0000
0000
0000
0000
0000
0000
0000
0000
0000
3000
0000
0000
0000
1000
0000
1000
0000
1000
0001
1000
0001
,
0110
0000
0000
0000
2000
3000
2000
3000
0010
0000
0100
0000
0002
0000
0000
0000
1000
0000
0203
0300
0010
0000
0201
0300
1200
0300
0010
0000
0101
0000
0000
0000
,
1010
0000
0001
0000
0200
0300
0200
0300
1000
0000
0100
0000
0002
0000
0000
0000
0010
0000
2103
3000
0010
0000
2001
3000
2010
3000
0100
0000
0011
0000
1000
0100
,
0011
0000
1000
0000
0120
0030
1020
0030
0100
0000
0001
0000
0200
0000
0000
0000
0010
0000
1302
0003
0100
0000
1002
0003
0102
0003
0000
0000
2110
3000
0000
0000
,
0110
0000
0000
0000
0002
0003
0002
0003
0000
0000
0000
0000
2000
0000
0000
0000
0000
0000
3020
0030
0000
0000
0020
0030
2020
0030
0000
0000
0201
0300
0000
0000
,
3111
0000
1000
0000
0002
0003
0002
0003
0010
0000
1000
0000
0201
0000
1300
0000
0010
0000
0102
0003
0010
0000
1200
0300
1200
0300
0010
0000
0101
0000
0010
0000
,
2001
0000
3100
0000
0002
0003
0002
0003
1000
0000
0010
0000
2100
0000
3001
0000
0010
0000
1200
0300
0001
0000
1200
0300
1200
0300
0010
0000
0102
0003
0010
0000
,
1101
0000
0010
0000
0200
0300
0200
0300
0010
0000
0001
0000
2000
0000
0100
0000
0010
0000
3002
0003
0100
0000
0002
0003
0002
0003
0100
0000
2001
3000
0010
0000
,
0101
0000
1000
0000
0020
0030
0020
0030
0100
0000
0001
0000
2000
0000
0000
0000
0000
0000
3200
0300
0000
0000
0200
0300
0200
0300
0000
0000
0002
1003
0001
1000
,
0110
0001
1000
1000
0010
0100
0001
0001
1000
0100
0010
0010
0001
0100
1010
1000
,
1001
0000
0010
0000
0100
0000
0100
0000
1000
0000
0010
0000
0100
0000
0100
0000
1000
0000
0001
0000
0100
0000
0100
0000
0010
0000
1000
0000
0011
0000
1000
0100
,
0011
0100
0010
0010
1000
0100
0001
0001
0010
1000
0100
0100
0001
0010
1100
1000
,
1010
0100
0001
0001
0100
0010
1000
1000
0001
0010
0100
0100
0002
0100
1010
0010
,
1113
0000
0001
0000
0200
0300
0200
0300
0001
0000
0010
0000
1002
0000
1000
0000
0100
0000
2013
3000
0001
0000
2001
3000
2010
3000
0100
0000
0011
0000
0010
0000
,
1110
0001
0100
0100
0001
1000
0100
0100
0001
1000
0010
0010
1000
0100
0001
0001
,
2110
0000
3000
0000
0002
0003
0002
0003
0000
0000
0000
0000
0200
0000
0000
0000
0000
0000
0320
0030
0000
0000
0020
0030
0020
0030
0000
0000
2001
0000
0000
0000
,
3111
0000
0000
0000
1000
0000
1000
0000
0001
0000
0001
0000
0100
0000
0100
0000
0001
0000
0000
0000
0000
0000
0001
0000
0000
0000
0000
0000
0001
0010
0100
1000
,
0202
0303
0000
0000
;

//---------------dance-single - Copied from----------------
#NOTES:
     dance-single:
     Copied from:
     Hard:
     12:
     1.000,1.000,1.000,1.000,1.000,1929.000,352.000,336.000,0.000,30.000:
0100
0000
0001
0001
0100
0000
0010
0000
1000
0000
0110
0000
0001
0000
0001
0000
,
0010
0000
0000
0000
1000
0000
1000
0000
0010
0000
0000
0000
0001
0000
0000
0000
1000
0000
0000
0000
1000
0000
0000
0000
0001
0000
0001
0000
0000
0000
0001
0010
,
1000
0000
0001
0001
0100
0000
0010
0000
0001
0000
0001
0000
1000
0000
1000
0000
,
0010
0000
0000
0000
1000
0000
1000
0000
0010
0000
0000
0000
0001
0000
0000
0000
1000
0000
0000
0000
0000
0000
1000
0000
0000
0000
0000
0000
0001
0010
0100
1000
,
0001
0000
1000
1000
0001
0000
0100
0000
0010
0000
0100
0000
0010
0000
0010
0000
,
1000
0000
0000
0000
0001
0000
0001
0000
0100
0000
0000
0000
1000
0000
0000
0000
0101
0000
0000
0000
0001
0000
0000
0000
1000
0000
1000
0000
0000
0000
0001
0100
,
1000
0000
0001
0001
0100
0000
0010
0000
0100
0000
0100
0000
0010
0000
0010
0000
,
1000
0000
0000
0000
1000
0000
0010
0000
0100
0000
0000
0000
0100
0000
0000
0000
0010
0000
0000
0000
0000
0000
0010
0000
0000
0000
0000
0000
0001
1000
0001
1000
,
0110
0000
0001
0100
1010
0000
0100
0000
0010
0000
0010
0100
1001
0000
0001
0000
,
1100
0000
0000
0000
0001
0000
0010
0000
1100
0000
0000
0000
0010
0000
0000
0000
0110
0000
0001
0000
0100
0000
0010
0000
1000
0000
1000
0000
0000
0000
0010
0100
,
1001
0000
0001
0100
1010
0000
0110
0000
0001
0000
0001
0010
1100
0000
1000
0000
,
1100
0000
0000
0000
0001
0000
0010
0000
1100
0000
0000
0000
0001
0000
0000
0000
0100
0000
0000
0000
0000
0000
0100
0000
0000
0000
0000
0000
1000
0001
1000
0001
,
0110
0000
1000
1000
0101
0000
0001
0000
1000
0000
1000
0100
0001
0000
0001
0000
,
0110
0000
0000
0000
1000
0000
0010
0000
0101
0000
0000
0000
0001
0000
0000
0000
1100
0000
0000
0000
1000
0000
0010
0000
0001
0000
0001
0000
0000
0000
1000
0100
,
0011
0000
1000
0100
0011
0000
0001
0000
1100
0000
1000
0100
0011
0000
0001
0000
,
1100
0000
0000
0000
0001
0000
1000
0000
0110
0000
0000
0000
0100
0000
0000
0000
0011
0000
0000
0000
0000
0000
0011
0000
0000
0000
0000
0000
0001
0010
0001
0010
,
1100
0000
0001
0001
0110
0000
1000
0000
0110
0000
0001
0000
1010
0000
1000
0000
,
0011
0000
0000
0000
0100
0000
0100
0000
1010
0000
0000
0000
0001
0000
0000
0000
0110
0000
0000
0000
1000
0000
0000
0000
1001
0000
0001
0000
0000
0000
1000
0100
,
0011
0000
0010
0010
0101
0000
0001
0000
1010
0000
1000
0000
0110
0000
0010
0000
,
0101
0000
0000
0000
0100
0000
0100
0000
0011
0000
0000
0000
0010
0000
0000
0000
1100
0000
0000
0000
0000
0000
1100
0000
0000
0000
0000
0000
1000
0100
0010
0001
,
1100
0000
0100
0100
1001
0000
1000
0000
0101
0000
0001
0000
1010
0000
0010
0000
,
1100
0000
0000
0000
0001
0000
0001
0000
0110
0000
0000
0000
0010
0000
0000
0000
1100
0000
0000
0000
0100
0000
0000
0000
1000
0000
1000
0000
0000
0000
0010
0100
,
1001
0000
0001
0001
1010
0000
1000
0000
0101
0000
1000
0000
0101
0000
0001
0000
,
0120
0030
2000
0000
3001
0010
0200
0000
0301
1000
0000
0010
1002
0000
0000
0000
,
1103
0000
1000
0100
0010
0000
0010
0100
1000
0000
0100
0001
0010
0000
0010
1000
,
0100
0000
0000
0000
0001
0000
1000
0000
0100
0000
0000
0000
0100
0000
0010
0000
1000
0000
0000
0000
0001
0000
0100
0000
0010
0000
0010
0000
0000
0000
0001
0010
,
1100
0000
1000
0100
1000
0000
1000
0010
1000
0000
1000
0001
0100
0000
0010
0001
,
1100
0000
0000
0000
1000
0000
0001
0000
1000
0000
0000
0000
1000
0000
0100
0000
0001
0000
0000
0000
0100
0000
0001
0000
0010
0000
0000
0000
0001
1000
0001
1000
,
0110
0000
1000
0100
1000
0000
0010
0100
0001
0000
1000
0100
1000
0000
0010
1000
,
0100
0000
0000
0000
1000
0000
0010
0000
0001
0000
0000
0000
0001
0000
0100
0000
0001
0000
0000
0000
1000
0000
0010
0000
0100
0000
0100
0000
0000
0000
0001
1000
,
0110
0000
0001
0001
0101
0000
0101
0000
1010
0000
1010
0000
0110
0000
0110
0000
,
2100
0000
0000
0000
0000
0000
0000
0000
3001
0001
0001
0001
0000
0000
2100
0010
,
3101
0000
1000
0100
1001
0000
0010
0100
1001
0000
0001
0010
1100
0000
0010
0100
,
0011
0000
0000
0000
1000
0000
0100
0000
1010
0000
0000
0000
0001
0000
0010
0000
1100
0000
0000
0000
0010
0000
0100
0000
0011
0000
0001
0000
0000
0000
1000
0001
,
0110
0000
1000
0100
1010
0000
0001
0100
0011
0000
1000
0001
0110
0000
1000
0100
,
1001
0000
0000
0000
0100
0000
0001
0000
1100
0000
0000
0000
0010
0000
0100
0000
0011
0000
0000
0000
0000
0000
0011
0000
0000
0000
0000
0000
0001
0010
0100
1000
,
0011
0000
0010
0010
1100
0000
1000
1000
0101
0000
0001
0001
1010
0000
0100
0100
,
1001
0000
0000
0000
1000
0000
1000
0000
0101
0000
0000
0000
0010
0000
0010
0000
0101
0000
0000
0000
0001
0000
0001
0000
0110
0000
0000
0000
1000
0000
1000
0001
,
0110
0000
1000
1000
0011
0001
0110
1000
0101
0000
1000
1000
0011
0000
0100
0100
,
1002
0000
0003
0000
1000
0000
0000
0000
1000
0000
0000
0000
1000
0000
0000
0000
0002
0003
0002
0003
0000
0000
0002
0003
2100
0000
0000
0000
0000
0000
0000
0000
,
3012
0003
1000
1000
1000
0000
0100
0100
0012
0003
0100
0100
0100
0000
0001
0001
,
0120
0030
0100
0100
0100
0000
0010
0010
0201
0300
1000
1000
0210
0000
0000
0000
,
0312
0003
1000
1000
1000
0000
0100
0100
0012
0003
0100
0100
0100
0000
0001
0001
,
0120
0000
0030
0000
0100
0000
0100
0000
0100
0000
0000
0000
0010
0000
0010
0000
0201
0300
0200
0300
0000
0000
0200
0300
2010
0000
0000
0000
0000
0000
0000
0000
,
3012
0003
1000
1000
1000
0000
0100
0100
0012
0003
0100
0100
0100
0000
0001
0001
,
0120
0030
0100
0100
0100
0000
0010
0010
0201
0300
1000
1000
0210
0000
0000
0000
,
0312
0003
1000
1000
1000
0000
0100
0100
0012
0003
0100
0100
0100
0000
0001
0001
,
2020
0000
0030
0000
0000
0000
0000
0000
0000
0000
0000
0000
0000
0000
0000
0000
3200
0300
0200
0300
0000
0000
0200
0300
2010
0000
0000
0000
0000
0000
0000
0000
,
3012
0003
1000
1000
1000
0000
2000
3100
0012
0003
0100
0100
0100
0000
0001
0001
,
0120
0030
0100
0100
0100
0000
2000
3010
0201
0300
1000
1000
0210
0000
0000
0000
,
0312
0003
1000
1000
1000
0000
2000
3100
0012
0003
0100
0100
0100
0000
0001
0001
,
0120
0000
0030
0000
0100
0000
0100
0000
0100
0000
0000
0000
2000
0000
3010
0000
0201
0300
0200
0300
0000
0000
0200
0300
2010
0000
0000
0000
0000
0000
0000
0000
,
3012
0003
1000
1000
1000
0000
2000
3100
0012
0003
0100
0100
0100
0000
0001
0001
,
0120
0030
0100
0100
0100
0000
0010
0010
0201
0300
1000
1000
0210
0000
0000
0000
,
1301
0000
0000
0000
1000
0000
1000
0000
0000
0000
0000
0000
0200
0000
0000
0000
0000
0000
0310
0000
0000
0000
0000
0000
0001
0000
0001
1000
0002
0000
0000
0000
,
0003
0010
0000
0000
0010
0000
0000
0010
0000
0000
0010
0000
0000
0000
0010
0010
,
0120
0030
0001
0000
2010
3000
2000
3000
0001
0000
0100
0000
1020
0000
0000
0000
0000
0000
0230
0300
0002
0000
2003
3000
2000
3000
0000
0000
0002
0000
0003
0000
,
1020
0030
0001
0000
2000
3000
2000
3000
0000
0000
0000
0000
1020
0000
0000
0000
0000
0000
0230
0300
0002
0000
2003
3000
2000
3000
0000
0000
0012
0000
0003
0000
,
1020
0030
0001
0000
2010
3000
2000
3000
0001
0000
0100
0000
1020
0000
0000
0000
1000
0000
0230
0300
0002
0000
2003
3000
2000
3000
0100
0000
0012
0000
0003
0000
,
1020
0030
0001
0000
2010
3000
2000
3000
0001
0000
0100
0000
1020
0000
0000
0000
1000
0000
0230
0300
0002
0000
0203
0300
2002
3000
0000
0000
0000
0000
0000
0000
,
0123
0030
0001
0000
2010
3000
2000
3000
0001
0000
0100
0000
1020
0000
0000
0000
0000
0000
0230
0300
0002
0000
2003
3000
2000
3000
0000
0000
0002
0000
0003
0000
,
1020
0030
0001
0000
2000
3000
2000
3000
0000
0000
0000
0000
1020
0000
0000
0000
0000
0000
0230
0300
0002
0000
2003
3000
2000
3000
0000
0000
0012
0000
0003
0000
,
1020
0030
0001
0000
2010
3000
2000
3000
0001
0000
0100
0000
1020
0000
0000
0000
1000
0000
0230
0300
0002
0000
2003
3000
2000
3000
0100
0000
0012
0000
0003
0000
,
1020
0030
0001
0000
2010
3000
2000
3000
0001
0000
0100
0000
1020
0000
0000
0000
1000
0000
0230
0300
0002
0000
0203
0300
2002
3000
0000
0000
0000
0000
0000
0000
,
2023
3030
0001
0000
2010
3000
2000
3000
0001
0000
0100
0000
1020
0000
0000
0000
0000
0000
0230
0300
0002
0000
2003
3000
2000
3000
0100
0000
1002
0000
0003
0000
,
0120
0000
0030
0000
0102
0003
0002
0003
1000
0000
0010
0000
0102
0000
0000
0000
0000
0000
0203
0300
0001
0000
0120
0030
1020
0030
0000
0000
2100
0000
3000
0000
,
0102
0003
0010
0000
2000
3000
2000
3000
0000
0000
0000
0000
0201
0000
0000
0000
0000
0000
0320
0030
0000
0000
0020
0030
1020
0030
0100
0000
0012
0000
0003
0000
,
2100
0000
3010
0000
0102
0003
0002
0003
1000
0000
0001
0000
0120
0000
0000
0000
0001
0000
2030
3000
0002
0000
2003
3000
2000
3000
0100
0000
1002
0000
0003
0000
,
0120
0000
0030
0000
0102
0003
0002
0003
0010
0000
0100
0000
2001
0000
0000
0000
0010
0000
3200
0300
1000
0000
0002
0003
0002
0003
0010
0000
2100
0000
3000
0000
,
0021
0030
1000
0000
0012
0003
0002
0003
1000
0000
0100
0000
0012
0000
0000
0000
1000
0000
0013
0000
1000
0000
0200
0300
0200
0300
0000
0000
2010
0000
3000
0000
,
0101
0000
0010
0000
2001
3000
2000
3000
0000
0000
0000
0000
0012
0000
0000
0000
1000
0000
0123
0030
1000
0000
0020
0030
0020
0030
0100
0000
1002
0000
0003
0000
,
2100
0000
0000
0000
0000
0000
3200
0000
0302
0000
0000
0000
0000
0000
0000
0000
1003
0000
0100
0000
1000
0000
0010
0000
2100
0000
0000
0000
0000
3000
0000
0000
,
1011
0100
0010
0010
1000
0001
0001
1000
0001
0010
1000
1000
0010
0100
1001
0001
,
1010
0100
0001
0001
0010
0100
0100
0001
0010
0010
1000
0100
0010
0100
1001
1000
,
0001
0010
0100
0100
0000
0100
0100
0001
1000
0010
0100
0001
0001
0001
0101
0010
,
1001
1000
0100
0001
0001
0001
0010
1000
0010
0001
1000
0010
0010
0010
1010
0001
,
1000
0100
0010
0001
0001
1000
0010
0001
1000
1000
0010
0100
0100
0100
0101
1000
,
0001
0001
0001
0010
1000
0010
1000
0100
0001
0010
1000
0001
0001
0001
0101
1000
,
0010
0010
1000
0010
0010
0010
0010
1000
0100
0100
1000
0010
0010
0010
0110
0001
,
2100
0000
0000
3200
0310
0000
0010
0000
0002
0023
2030
3201
0000
0320
1031
0000
,
1001
0010
1000
0100
0001
0010
0100
1000
0001
0010
0001
1000
0100
1000
0010
0100
,
0010
1000
0100
0010
0001
0100
0010
0100
0001
0010
0100
1000
1000
1000
1100
0001
,
1010
0100
0001
0001
0100
0010
0010
1000
0100
1000
1000
0100
0001
0001
1001
0010
,
0100
0100
0000
0010
0010
0010
0010
0000
1000
1000
0000
0010
0010
0010
1010
0100
,
0001
0001
0000
1000
1000
1000
1000
0000
0010
0010
0000
0001
0001
0001
1001
0010
,
1000
0100
0010
0001
1000
0100
0010
0001
1000
0100
0010
0001
1000
0100
0010
0001
,
1000
0100
0010
0001
1000
0100
0010
0001
1000
0100
0010
0001
1000
0100
0010
0001
1000
0100
0010
0001
1000
0100
0010
0001
1000
0001
1000
0001
1000
0001
1000
0001
,
0110
1000
0020
0000
1030
0100
0020
0000
1031
0001
0200
0310
0012
0000
0000
0000
,
1103
0010
0001
0100
0010
0001
1000
0010
1100
0001
0010
0100
1000
0010
0100
0010
,
1001
0100
0010
0100
0001
0010
0001
0100
0011
1000
0100
0010
1002
0000
0000
0000
,
1103
0010
0100
0010
1000
0001
1000
0001
1010
0100
0010
0001
1000
0100
0010
0001
,
1100
0010
1000
0001
0010
0001
1000
0100
1001
0011
0100
1001
0012
0000
0000
0000
,
1103
0000
0010
0000
0200
0300
0010
0000
1000
0000
0100
0000
0020
0030
0100
0000
1001
0000
0100
0000
0020
0030
0100
0000
1000
0000
0100
0000
0020
0030
0100
0000
,
1001
0000
0010
0000
0200
0300
0010
0000
0001
0000
0010
0000
0200
0300
0010
0000
1100
0000
0010
0000
0200
0300
0001
0000
1002
0000
0000
0000
0000
0000
0000
0000
,
1103
0000
0010
0000
0200
0300
0010
0000
1000
0000
0100
0000
0020
0030
0100
0000
1001
0000
0100
0000
0020
0030
0100
0000
1000
0000
0100
0000
0020
0030
0100
0000
,
2001
3000
0001
0000
0100
0000
0010
0000
0100
0000
0001
0000
2000
0000
0000
0000
3101
0000
0100
0000
0000
0000
0001
0000
1002
0000
0003
0000
1000
0001
1000
0001
,
0120
0030
1000
0100
0011
0100
2010
0100
3002
0000
1003
0100
0010
0100
1001
1000
,
2000
0000
0000
0000
3010
0000
0100
0000
1001
0000
0100
0000
0010
0000
0001
0000
2100
0000
0000
0000
3001
0000
0001
0000
0120
0000
0000
0000
0030
0000
1000
0001
,
2100
3000
0100
0010
0101
1000
0020
0000
2130
0000
3001
0010
0001
1000
0001
0001
,
1002
0000
0000
0000
1003
0000
0100
0000
1000
0000
0010
0000
0100
0000
0001
0000
1100
0000
1100
0000
0000
0000
0101
0000
0102
0000
0000
0000
0000
0000
1003
0100
,
0021
0030
1000
0100
1001
0010
2000
0000
3002
0000
1003
0100
1000
0010
0100
0100
,
0012
0000
0003
0000
1000
0000
0100
0000
1010
0000
0001
0000
0100
0000
0100
0000
0012
0000
0003
0000
1000
0000
0100
0000
0012
0000
0000
0000
0003
0000
0010
0100
,
1002
0003
1000
0100
1001
0100
0020
0000
0230
0300
0001
1000
0101
0010
1100
1000
,
1002
0000
0003
0000
1000
0000
0100
0000
0010
0000
0001
0000
0100
0000
0100
0000
1010
0000
1010
0000
0000
0000
1010
0000
0102
0000
0000
0000
0000
0000
1003
0100
,
0011
0001
1000
0001
0100
0100
0010
0100
0001
0001
1000
0001
0010
0010
1000
0010
,
1000
1000
0001
1000
0010
0010
0100
0010
1000
1000
0010
1000
0001
0001
0100
0001
,
1000
1000
0010
1000
0100
0100
0010
0100
0001
0001
0010
0001
1000
1000
0010
1000
,
0001
0000
0001
0000
0100
0000
0001
0000
0010
0000
0010
0000
0100
0000
0010
0000
1000
0000
1000
0000
0001
0000
1000
0000
0010
0000
0010
0000
1000
0001
1000
0001
,
0110
1000
0001
0001
1000
0010
0001
0010
1000
0010
0100
0010
0001
1000
0001
0010
,
1000
0000
0010
0000
0001
0000
0001
0000
0100
0000
1000
0000
0001
0000
0010
0000
1000
0000
0001
0000
0010
0000
0100
0000
0001
0000
0001
0000
0000
0000
1000
0001
,
0110
1000
0001
0001
0100
1000
0001
1000
0001
0100
0001
0100
1000
0001
1000
0010
,
2001
0000
0000
0000
0000
0000
0000
0000
0000
0000
0000
0000
0000
0000
0000
0000
3101
0000
0001
0000
0001
0000
0101
0000
0000
0000
0000
0000
1000
0100
0010
0001
,
2100
3010
0001
0100
0001
0010
1100
0001
0100
0010
1000
0100
0010
0001
1100
0010
,
0001
1000
0100
0010
0001
0100
1001
0100
0010
0001
1000
0100
0012
0000
1100
0000
,
2013
3100
0010
0100
0001
1000
0110
0001
1000
0100
0010
0001
0100
0010
1100
0001
,
1000
0100
0010
0001
0100
0010
1100
0010
1000
0100
1000
0010
0100
0001
1100
0000
,
1002
0000
1003
1000
0010
0000
0001
0000
1000
0000
0100
0000
0010
0000
0001
0000
,
1100
0000
0000
0000
0010
0000
0010
0000
0100
0000
0000
0000
1000
0000
0000
0000
0001
0000
0000
0000
0021
0000
0000
0000
1030
0000
1000
0000
0000
0000
1000
0001
,
2100
3000
0010
0010
1000
0000
1000
0000
0001
0000
0001
0000
0100
0000
0100
0000
,
0011
0000
0000
0000
1000
0000
1000
0000
0010
0000
0000
0000
0100
0000
0000
0000
0001
0000
0000
0000
0000
0000
0001
0000
0000
0000
0000
0000
0001
1000
0001
1000
,
0110
0001
1000
1000
0010
0100
1001
0100
0010
1000
0001
0010
0100
1000
0011
0100
,
1001
0000
0100
0000
0001
0000
0001
0000
1000
0000
0100
0000
1001
0000
0010
0000
0100
0000
0010
0000
1000
0000
0001
0000
1100
0000
0010
0000
1000
0100
0010
0001
,
2100
0100
3010
0010
1000
0100
0001
0001
1000
0100
0010
0010
1000
0100
0010
0010
,
0001
1000
0100
0100
0001
1000
0100
0100
0010
0001
1000
1000
0010
0001
1000
1000
,
0101
0010
1000
1000
0001
0010
1000
1000
0001
0010
1000
1000
0001
0010
1000
1000
,
0101
0010
0001
0001
0100
0010
0001
0001
1000
0010
0102
0100
1000
0010
0103
0100
,
2010
0100
3001
0001
0010
0100
0001
0001
0010
0100
0001
0001
0010
0100
0001
0001
,
1000
0100
0010
0010
1000
0100
0010
0010
1000
0001
0100
0100
1000
0001
0100
0100
,
1001
0100
0010
0010
0001
0100
0010
0010
1000
0100
0010
0010
0001
0100
0010
0010
,
1000
0010
0100
0100
1000
0100
0010
0010
0101
0010
1000
0110
1000
0100
0011
0100
,
1001
0010
0101
1000
0011
1000
0100
1000
0001
0100
0010
0010
0001
0100
0010
0010
,
1001
0100
0010
0010
1000
0100
0010
0010
1000
0001
0100
0100
1000
0001
0100
0100
,
0120
0000
0000
0000
,
0000
0000
0032
0000
0000
0023
0000
0000
0032
0000
0000
0023
0000
0000
0032
0000
,
0000
0023
0000
0000
0032
0000
0000
0023
0000
0000
0032
0000
0000
0023
0000
0000
,
0000
0000
0000
0000
2030
0000
0000
0000
0000
0000
0000
0000
0000
0000
0000
0000
0000
0000
0000
0000
3000
0000
0000
0000
0100
0000
0100
0000
1000
0001
1000
0001
,
0110
0000
0000
0000
2000
3000
2000
3000
0010
0000
0100
0000
0002
0000
0000
0000
1000
0000
0203
0300
0010
0000
0201
0300
0200
0300
0010
0000
0101
0000
0000
0000
,
1010
0000
0001
0000
0200
0300
0200
0300
1000
0000
0100
0000
0002
0000
0000
0000
0000
0000
2003
3000
0010
0000
2000
3000
2010
3000
0100
0000
0011
0000
1000
0100
,
0011
0000
1000
0000
0020
0030
0020
0030
0100
0000
0001
0000
0200
0000
0000
0000
0010
0000
0302
0003
0100
0000
0002
0003
0102
0003
0000
0000
2100
3000
0000
0000
,
0110
0000
0000
0000
0002
0003
0002
0003
0000
0000
0000
0000
2000
0000
0000
0000
0000
0000
3020
0030
0000
0000
0020
0030
2020
0030
0000
0000
0201
0300
0000
0000
,
3011
0000
1000
0000
0002
0003
0002
0003
0010
0000
1000
0000
0201
0000
1300
0000
0010
0000
0102
0003
0010
0000
0200
0300
1200
0300
0010
0000
0101
0000
0010
0000
,
2001
0000
3100
0000
0002
0003
0002
0003
1000
0000
0010
0000
2100
0000
3001
0000
0010
0000
1200
0300
0001
0000
0200
0300
1200
0300
0010
0000
0102
0003
0010
0000
,
1001
0000
0010
0000
0200
0300
0200
0300
0010
0000
0001
0000
2000
0000
0100
0000
0010
0000
3002
0003
0100
0000
0002
0003
0002
0003
0100
0000
2001
3000
0010
0000
,
0101
0000
1000
0000
0020
0030
0020
0030
0100
0000
0001
0000
2000
0000
0000
0000
0000
0000
3200
0300
0000
0000
0200
0300
0200
0300
0000
0000
0001
1000
0001
1000
,
0110
0001
1000
1000
0010
0100
0001
0001
1000
0100
0010
0010
0001
0100
1010
1000
,
1001
0000
0010
0000
0100
0000
0100
0000
1000
0000
0010
0000
0100
0000
0100
0000
1000
0000
0001
0000
0100
0000
0100
0000
0010
0000
1000
0000
0011
0000
1000
0100
,
0011
0100
0010
0010
1000
0100
0001
0001
0010
1000
0100
0100
0001
0010
1100
1000
,
1010
0100
0001
0001
0100
0010
1000
1000
0001
0010
0100
0100
0002
0100
1000
0010
,
1103
0000
0001
0000
0200
0300
0200
0300
0001
0000
0010
0000
1002
0000
1000
0000
0100
0000
2003
3000
0001
0000
2000
3000
2000
3000
0100
0000
0011
0000
0010
0000
,
1100
0001
0100
0100
0001
1000
0100
0100
0001
1000
0010
0010
1000
0100
0001
0001
,
2100
0000
3000
0000
0002
0003
0002
0003
0000
0000
0000
0000
0200
0000
0000
0000
0000
0000
0320
0030
0000
0000
0020
0030
0020
0030
0000
0000
2001
0000
0000
0000
,
3011
0000
0000
0000
1000
0000
1000
0000
0001
0000
0001
0000
0100
0000
0100
0000
0001
0000
0000
0000
0000
0000
0001
0000
0000
0000
0000
0000
0001
0010
0100
1000
,
0202
0303
0000
0000
;
