#TITLE:moon_child;
#SUBTITLE:;
#ARTIST:Shonen Radio;
#TITLETRANSLIT:;
#SUBTITLETRANSLIT:;
#ARTISTTRANSLIT:;
#CREDIT:B00mba;
#BANNER:../Zeppelin_bn.png;
#BACKGROUND:../bg_Zeppelin.png;
#LYRICSPATH:;
#CDTITLE:../cdtitle_ZAiA.png;
#MUSIC:Shonen Radio - moon_child.ogg;
#OFFSET:-0.110;
#SAMPLESTART:53.800;
#SAMPLELENGTH:24.110;
#SELECTABLE:YES;
#BPMS:0.000=148.000,22.000=156.000,38.000=160.000,291.000=156.000;
#STOPS:;
#BGCHANGES:;
// cache tags:
#FIRSTBEAT:6.000;
#LASTBEAT:311.000;
#SONGFILENAME:Songs/Cirque du Zeppelin/moon_child - [Zaia]/Moon Child.sm;
#HASMUSIC:1;
#HASBANNER:1;
#MUSICLENGTH:128.705;
// end cache tags

//---------------dance-single - 8/8/3----------------
#NOTES:
     dance-single:
     8/8/3:
     Challenge:
     12:
     1.000,1.000,0.023,0.668,1.000,836.000,3.000,86.000,2.000,0.000:
0000
0000
0000
0000
,
0000
0000
0000
0000
0001
1000
0100
0010
,
0001
0100
0000
0000
0010
0100
0001
0010
,
0001
1000
0000
0000
0100
1000
0001
0100
,
0010
0000
1000
0000
0000
0000
0000
0000
0100
0000
1000
0000
0001
0000
0100
0001
,
1000
0001
0010
0100
1000
0001
0100
0001
,
1000
0010
1000
0100
0010
0100
1000
0001
,
0100
0010
0100
0001
0010
0100
1000
0001
,
0100
0010
1000
0001
0010
0100
0010
0100
,
1000
0001
1000
0010
0100
0001
1000
0001
,
0010
0100
1000
0100
0010
0001
0100
0001
,
1000
0010
1000
0001
0010
0100
1000
0001
,
0100
0010
1000
0001
1000
0100
0010
0001
,
0100
0010
1000
0010
1000
0000
0000
0001
1000
0000
0100
0000
1000
0000
0010
0000
,
0100
0001
0100
0001
0010
0100
0010
0100
,
1000
0100
1000
0100
1000
0001
1000
0001
,
0100
0000
0010
0000
0100
0000
0010
0000
1000
0001
0100
0001
1000
0000
0001
0010
,
0100
1000
0001
0000
0100
0000
0010
1000
0100
0010
0001
1000
0001
0100
0001
0010
,
0100
1000
0001
1000
0010
1000
0010
0100
0001
1000
0001
0010
0100
0010
0001
1000
,
0001
0100
0010
1000
0001
0010
0001
0100
0010
1000
0001
0010
0100
1000
0001
1000
,
0010
0100
0001
1000
0100
1000
0001
0100
0001
0010
0001
1000
0100
0010
0100
1000
,
0001
0100
0001
0100
0010
1000
0001
0010
0100
1000
0010
1000
0001
0100
0001
0010
,
0100
1000
0001
1000
0010
0100
0001
1000
0001
0010
0100
0010
0001
1000
0001
0100
,
0010
0100
0001
1000
0100
1000
0001
0010
0100
1000
0010
0100
0001
1000
0100
1000
,
0001
0100
0001
0010
0100
0010
0001
0100
0010
1000
0001
1000
0100
0010
0001
1000
,
0010
0100
0002
0000
0000
0000
0000
0000
0000
0000
0000
0000
0000
0000
0000
0000
,
2MM0
0003
3010
0100
0001
0100
0010
0100
,
0010
1000
0100
0010
0100
1000
0001
0010
,
0001
0010
0100
1000
0001
1000
0001
0100
,
0010
1000
0100
1000
0001
1000
0001
0100
,
0001
1000
0100
0010
0100
1000
0010
1000
,
0001
0100
0001
0010
0100
1000
0100
1000
,
0001
0100
0010
0100
0001
1000
0001
0010
,
0100
1000
0001
0000
1001
0000
1001
0000
,
1001
0000
0001
0000
0100
0000
0010
0000
0010
0000
1000
0000
0001
1000
0001
0100
,
0010
1000
0100
1000
0001
0000
1000
0010
0100
0000
0001
0010
0100
0000
1000
0010
,
0100
0001
0010
0001
1000
0000
0100
0010
0001
0000
0100
0010
1000
0000
0100
1000
,
0010
1000
0001
0010
0100
0000
1000
0010
1000
0100
0010
0001
1000
0000
0010
0100
,
0001
0000
0000
0010
0000
0000
0001
0000
0000
1000
0000
0000
0100
0000
0000
0000
0000
0000
0000
0000
0000
0000
0000
0000
0000
0000
0000
0000
0000
0000
1000
0000
0010
0000
1000
0000
0002
0000
0000
0000
0000
0000
0023
0000
0000
0000
0000
0000
,
0230
0000
0000
0000
0000
0000
2300
0000
0000
0000
0000
0000
3020
0000
0000
0000
0000
0000
0000
0000
0000
0000
0000
0000
0130
0000
0000
0001
0000
0000
0010
0000
0000
0001
0000
0000
1000
0000
0000
0000
0000
0000
0001
0000
0100
0000
0001
0000
,
1000
0000
0000
0000
0000
0000
0100
0000
0000
0000
0000
0000
0010
0000
0000
0000
0000
0000
0100
0000
0000
0000
0000
0000
1000
0000
0000
0010
0000
0000
1000
0000
0000
0001
0000
0000
0100
0000
0000
0000
0000
0000
0010
0000
0100
0000
0010
0000
,
1000
0000
0001
0000
0010
0100
1000
0001
0100
0001
1000
0100
0010
0001
1000
0010
,
1000
0100
1000
0001
0200
0000
0320
0000
2030
0000
3002
0000
0000
2003
0000
0000
,
3000
0000
0000
0000
0001
1000
0001
0100
0001
1000
0001
0010
0001
1000
0010
0100
,
0010
1000
0001
0010
0001
0000
0100
0000
0001
0000
0010
0000
0100
0000
1000
0000
,
0010
0000
1000
0000
0100
1000
0010
0100
0010
1000
0100
0010
0100
1000
0001
1000
,
0010
0100
0010
1000
0001
0000
0010
0000
0001
0000
1000
0000
0100
0000
1000
0001
,
0100
0001
0100
0010
0100
0001
1000
0001
0010
0100
1000
0001
0100
0010
0100
0001
,
1000
0100
1000
0010
0100
0001
1000
0001
0010
0100
0010
0001
1000
0010
0100
0001
,
1000
0000
0000
0100
0000
0000
1000
0000
0000
0001
0000
0000
1000
0000
0000
0000
0010
0000
0000
0000
0100
0000
0000
0000
0001
0000
0000
0000
0010
0000
0000
0000
0100
0000
0000
0000
1000
0000
0000
0000
0010
0000
0000
0000
1000
0000
0000
0000
,
0001
0000
0000
0000
0010
0000
0000
0000
0001
0000
0000
0000
1000
0000
0000
0010
0000
0000
0100
0000
0000
0001
0000
0000
1000
0000
0000
0001
0000
0000
0010
0000
0000
0100
0000
0000
1000
0000
0000
0001
0000
0000
0100
0000
0000
0010
0000
0000
,
1000
0001
1000
0100
0010
0000
0001
0000
0010
0000
0001
0000
1000
0000
0001
0000
,
1000
0000
0001
0000
0100
0000
0010
0000
0100
0000
0100
0000
0010
1000
0010
0100
,
0001
0000
0000
0000
1000
0000
0000
0000
0001
0000
0000
0000
0000
0000
0000
0000
0020
0000
0000
0000
0000
0000
0000
0000
0000
0000
0000
0000
0000
0000
0000
0000
0230
0300
0000
0000
2000
3000
0000
0000
0002
0003
0000
0000
0200
0300
0000
0000
0020
0030
0000
0000
0000
0000
0000
0000
0200
0300
0000
0000
0000
0000
0000
0000
,
0002
0000
0000
0003
0000
0000
0000
0000
0000
0000
0000
0000
0000
0000
0000
0000
0000
0000
0000
0000
0000
0000
0000
0000
2000
0000
0000
3000
0000
0000
0000
0000
0000
0000
0000
0000
0000
0000
0000
0000
0000
0000
0000
0000
0000
0000
0000
0000
0200
0000
0000
0000
0000
0000
0000
0000
0000
0000
0000
0000
0000
0000
0000
0000
0000
0000
0000
0000
0000
0000
0000
0000
0000
0000
0000
0000
0000
0000
0000
0000
0000
0000
0000
0000
0000
0000
0000
0000
0000
0000
0000
0000
0000
0000
0000
0000
0320
0000
0000
0000
0030
0000
0000
0000
0000
0000
0000
0000
0002
0000
0000
0000
0003
0000
0000
0000
0000
0000
0000
0000
2000
0000
0000
0000
3000
0000
0000
0000
0000
0000
0000
0000
0002
0000
0000
0000
0003
0000
0000
0000
0000
0000
0000
0000
0200
0000
0000
0000
0300
0000
0000
0000
0000
0000
0000
0000
0000
0000
0000
0000
0000
0000
0000
0000
0000
0000
0000
0000
0020
0000
0000
0000
0030
0000
0000
0000
0000
0000
0000
0000
0000
0000
0000
0000
0000
0000
0000
0000
0000
0000
0000
0000
,
0200
0000
0000
0000
0300
0000
0000
0000
0000
0000
0000
0000
0000
0000
0000
0000
0000
0000
0000
0000
0000
0000
0000
0000
0002
0000
0000
0000
0003
0000
0000
0000
0000
0000
0000
0000
0000
0000
0000
0000
0000
0000
0000
0000
0000
0000
0000
0000
0020
0000
0000
0000
0000
0000
0000
0000
0000
0000
0000
0000
0000
0000
0000
0000
0000
0000
0000
0000
0000
0000
0000
0000
0000
0000
0000
0000
0000
0000
0000
0000
0000
0000
0000
0000
0000
0000
0000
0000
0000
0000
0000
0000
0000
0000
0000
0000
0230
0000
0000
0000
0000
0000
0300
0000
0000
0000
0000
0000
2000
0000
0000
0000
0000
0000
3000
0000
0000
0000
0000
0000
0002
0000
0000
0000
0000
0000
0003
0000
0000
0000
0000
0000
2000
0000
0000
0000
0000
0000
3000
0000
0000
0000
0000
0000
0020
0000
0000
0000
0000
0000
0030
0000
0000
0000
0000
0000
0000
0000
0000
0000
0000
0000
0000
0000
0000
0000
0000
0000
0200
0000
0000
0000
0000
0000
0300
0000
0000
0000
0000
0000
0000
0000
0000
0000
0000
0000
0000
0000
0000
0000
0000
0000
,
0002
0003
0000
0000
0020
0030
0000
0000
0002
0003
0000
0000
0100
0000
0000
0000
0010
0000
0000
0000
1000
0000
0000
0000
0001
0000
0000
0000
0010
0000
0000
0000
,
0100
0000
0000
0000
1000
0000
0000
0000
0002
0000
0000
0000
0000
0000
0000
0000
0203
0300
0020
0030
2000
3000
0002
0003
0020
0030
0000
0000
0200
0300
0000
0000
,
2000
0000
0000
0000
0000
0000
3000
0000
0000
0000
0000
0000
0000
0000
0000
0000
0000
0000
0000
0000
0000
0000
0000
0000
0002
0000
0000
0000
0000
0000
0003
0000
0000
0000
0000
0000
0000
0000
0000
0000
0000
0000
0000
0000
0000
0000
0000
0000
0200
0000
0000
0000
0000
0000
0000
0000
0000
0000
0000
0000
0000
0000
0000
0000
0000
0000
0000
0000
0000
0000
0000
0000
0000
0000
0000
0000
0000
0000
0000
0000
0000
0000
0000
0000
0000
0000
0000
0000
0000
0000
0000
0000
0000
0000
0000
0000
0320
0000
0000
0000
0000
0000
0000
0000
0030
0000
0000
0000
2000
0000
0000
0000
0000
0000
0000
0000
3000
0000
0000
0000
0002
0000
0000
0000
0000
0000
0000
0000
0003
0000
0000
0000
2000
0000
0000
0000
0000
0000
0000
0000
3000
0000
0000
0000
0200
0000
0000
0000
0000
0000
0000
0000
0300
0000
0000
0000
0000
0000
0000
0000
0000
0000
0000
0000
0000
0000
0000
0000
0020
0000
0000
0000
0000
0000
0000
0000
0030
0000
0000
0000
0000
0000
0000
0000
0000
0000
0000
0000
0000
0000
0000
0000
,
0200
0000
0300
0000
0000
0000
2000
0000
3000
0000
0000
0000
0020
0000
0000
0000
0000
0000
0000
0000
0000
0000
0000
0000
0230
0000
0000
0302
0000
0000
0023
0000
0000
0230
0000
0000
2300
0000
0000
3000
0000
0000
0020
0000
0000
0030
0000
0000
,
2000
3000
0002
0003
0200
0300
0002
0023
0230
0300
2000
3000
0020
0030
0200
0302
,
2003
3000
0010
1000
0001
0010
0001
0100
0010
1000
0001
1000
0100
1000
0010
0100
,
0001
1000
0001
0010
0100
1000
0001
0100
0001
0010
0100
1000
0001
0100
0010
1000
,
0100
1000
0001
0100
0010
1000
0100
1000
0010
0100
0001
1000
0001
0010
0001
0100
,
0010
1000
0001
1000
0100
0010
0001
1000
0010
1000
0100
0010
0001
1000
0010
0100
,
0001
0010
0100
1000
0001
0100
0010
1000
0001
1000
0100
0010
0001
1000
0001
0100
,
0010
0100
0001
1000
0100
0010
0100
1000
0001
0010
0001
0100
0010
1000
0010
0100
,
0001
1000
0001
0010
0100
1000
0010
0100
0001
0010
0100
0010
0001
1000
0010
1000
,
0001
0000
0000
0100
0000
0000
0001
0000
0000
1000
0000
0000
0200
0000
0000
0000
0000
0000
0000
0000
0000
0000
0000
0000
0000
0000
0000
0000
0000
0000
0310
0000
0001
0000
1000
0000
0001
0000
0000
0100
0000
0000
0010
0000
0000
0100
0000
0000
,
0001
1000
0100
0010
0002
0000
1003
0010
0200
0000
0301
0010
0200
0000
1300
0001
,
0020
0000
0000
0000
0000
0000
0031
0000
1000
0000
0010
0000
1000
0000
0000
0001
0000
0000
0100
0000
0000
0001
0000
0000
0010
0000
0000
0100
0000
0000
1000
0000
0000
0001
0000
0000
0100
0000
0000
0010
0000
0000
1000
0000
0000
0100
0000
0000
,
1000
0001
0010
0001
0100
0010
1000
0001
0010
0100
1000
0001
0100
0010
0100
0001
,
0010
0001
1000
0100
1000
0010
0100
0001
1000
0001
0010
0100
1000
0000
0001
0000
,
1000
0001
0200
0310
0100
0010
0100
0010
,
0100
0010
2000
3010
1000
0010
1000
0010
,
1000
0010
0200
0301
0100
0001
0100
0001
,
0100
0001
2000
3100
1000
0100
1000
0100
,
1000
0100
0020
0000
0000
0000
0030
0000
;

//---------------dance-single - 4----------------
#NOTES:
     dance-single:
     4:
     Hard:
     11:
     0.902,1.000,0.070,0.684,0.571,716.000,9.000,88.000,2.000,0.000:
0000
0000
0000
0000
,
0000
0000
0000
0000
0001
1000
0100
0010
,
0001
0100
0000
0000
0010
0100
0001
0010
,
0001
1000
0000
0000
0100
1000
0001
0100
,
0010
0000
1000
0000
0000
0000
0000
0000
0100
0000
1000
0000
0001
0000
0100
0001
,
1000
0001
0010
0100
1000
0001
0100
0001
,
1000
0010
1000
0100
0010
0100
1000
0001
,
0100
0010
0100
0001
0010
0100
1000
0001
,
0100
0010
1000
0001
0010
0100
0010
0100
,
1000
0001
1000
0010
0100
0001
1000
0001
,
0010
0100
1000
0100
0010
0001
0100
0001
,
1000
0010
1000
0001
0010
0100
1000
0001
,
0100
0010
1000
0001
1000
0100
0010
0001
,
0100
0010
1000
0010
1000
0000
0000
0001
1000
0000
0100
0000
1000
0000
0010
0000
,
0100
0001
0100
0001
0010
0100
0010
0100
,
1000
0100
1000
0100
1000
0001
1000
0001
,
0100
0000
0010
0000
0100
0000
0010
0000
1000
0001
0100
0001
1000
0000
0001
0010
,
0100
1000
0001
0000
0100
0000
0010
1000
0100
0000
1000
0000
0010
0000
0100
0000
,
0001
0010
0100
1000
0010
0100
0010
1000
,
0001
0010
0100
1000
0001
0100
0010
1000
,
0100
0010
0001
0100
0010
1000
0010
0100
,
0001
0010
0100
1000
0001
0100
0001
1000
,
0100
0010
0100
1000
0010
1000
0001
0010
,
0100
0010
0001
1000
0010
0100
0001
1000
,
0001
0010
0001
0100
0001
1000
0010
1000
,
0100
1000
0002
0000
0000
0000
0000
0000
0000
0000
0000
0000
0000
0000
0000
0000
,
2MM0
0003
3010
0100
0001
0100
0010
0100
,
0010
1000
0100
0010
0100
1000
0001
0010
,
0001
0010
0100
1000
0001
1000
0001
0100
,
0010
1000
0100
1000
0001
1000
0001
0100
,
0001
1000
0100
0010
0100
1000
0010
1000
,
0001
0100
0001
0010
0100
1000
0100
1000
,
0001
0100
0010
0100
0001
1000
0001
0010
,
0100
1000
0001
0000
1001
0000
1001
0000
,
1001
0000
0001
0000
0100
0000
0010
0000
0010
0000
1000
0000
0001
1000
0001
0100
,
0010
1000
0100
1000
0001
0000
1000
0010
0100
0000
0001
0010
0100
0000
1000
0010
,
0100
0001
0010
0001
1000
0000
0100
0010
0001
0000
0100
0010
1000
0000
0100
1000
,
0010
1000
0001
0010
0100
0000
1000
0010
1000
0100
0010
0001
1000
0000
0010
0100
,
0001
0010
0001
1000
0100
0000
0000
0000
0000
0000
0010
0001
2000
0000
3020
0000
,
0230
0000
0302
0000
0023
0000
0000
0000
0130
1000
0010
1000
0001
0000
0100
0010
,
1000
0000
0100
0000
0010
0000
0100
0000
1000
0010
1000
0001
0100
0000
0010
1000
,
0001
0000
1000
0000
0100
0010
0001
1000
0010
1000
0001
0010
0100
1000
0001
0100
,
0001
0010
0001
1000
0020
0000
0230
0000
0302
0000
2003
0000
0000
3002
0000
0000
,
0003
0000
1010
1000
0001
0011
0010
0001
,
1001
1000
0001
0100
0001
0010
0100
1000
,
0010
1000
1100
0100
0010
0011
0001
0100
,
0110
0000
0010
0000
1000
0000
0001
0000
1000
0000
0001
0000
0100
0000
0001
1000
,
0010
1000
0010
0100
0010
1000
0001
1000
0100
0010
0002
0000
0000
0000
0013
0100
,
1000
0010
1000
0100
0010
0001
1000
0001
0100
0010
0200
0000
0000
0000
0310
1000
,
0001
0000
0000
0010
0000
0000
0001
0000
0000
1000
0000
0000
0001
0000
0000
0000
0100
0000
0000
0000
0010
0000
0000
0000
1000
0000
0000
0000
0100
0000
0000
0000
0010
0000
0000
0000
0001
0000
0000
0000
0100
0000
0000
0000
0001
0000
0000
0000
,
1000
0000
0000
0000
0100
0000
0000
0000
1000
0000
0000
0000
0001
0000
0000
0100
0000
0000
0010
0000
0000
1000
0000
0000
0001
0000
0000
1000
0000
0000
0100
0000
0000
0010
0000
0000
0001
0000
0000
1000
0000
0000
0010
0000
0000
0100
0000
0000
,
0001
1000
0001
0010
0100
0000
1000
0000
0100
0000
1000
0000
0001
0000
1000
0000
,
0001
0000
1000
0000
0010
0000
0100
0000
0010
0000
0010
0000
0100
0001
0100
0010
,
1000
0000
0000
0000
0001
0000
0000
0000
1000
0000
0000
0000
0000
0000
0000
0000
0200
0000
0000
0000
0000
0000
0000
0000
0000
0000
0000
0000
0000
0000
0000
0000
0320
0030
0000
0000
0002
0003
0000
0000
2000
3000
0000
0000
0020
0030
0000
0000
0200
0300
0000
0000
0000
0000
0000
0000
0020
0030
0000
0000
0000
0000
0000
0000
,
2000
0000
0000
3000
0000
0000
0000
0000
0000
0000
0000
0000
0000
0000
0000
0000
0000
0000
0000
0000
0000
0000
0000
0000
0002
0000
0000
0003
0000
0000
0000
0000
0000
0000
0000
0000
0000
0000
0000
0000
0000
0000
0000
0000
0000
0000
0000
0000
0020
0000
0000
0000
0000
0000
0000
0000
0000
0000
0000
0000
0000
0000
0000
0000
0000
0000
0000
0000
0000
0000
0000
0000
0000
0000
0000
0000
0000
0000
0000
0000
0000
0000
0000
0000
0000
0000
0000
0000
0000
0000
0000
0000
0000
0000
0000
0000
0230
0000
0000
0000
0300
0000
0000
0000
0000
0000
0000
0000
2000
0000
0000
0000
3000
0000
0000
0000
0000
0000
0000
0000
0002
0000
0000
0000
0003
0000
0000
0000
0000
0000
0000
0000
2000
0000
0000
0000
3000
0000
0000
0000
0000
0000
0000
0000
0020
0000
0000
0000
0030
0000
0000
0000
0000
0000
0000
0000
0000
0000
0000
0000
0000
0000
0000
0000
0000
0000
0000
0000
0200
0000
0000
0000
0300
0000
0000
0000
0000
0000
0000
0000
0000
0000
0000
0000
0000
0000
0000
0000
0000
0000
0000
0000
,
0020
0000
0000
0000
0030
0000
0000
0000
0000
0000
0000
0000
0000
0000
0000
0000
0000
0000
0000
0000
0000
0000
0000
0000
2000
0000
0000
0000
3000
0000
0000
0000
0000
0000
0000
0000
0000
0000
0000
0000
0000
0000
0000
0000
0000
0000
0000
0000
0200
0000
0000
0000
0000
0000
0000
0000
0000
0000
0000
0000
0000
0000
0000
0000
0000
0000
0000
0000
0000
0000
0000
0000
0000
0000
0000
0000
0000
0000
0000
0000
0000
0000
0000
0000
0000
0000
0000
0000
0000
0000
0000
0000
0000
0000
0000
0000
0320
0000
0000
0000
0000
0000
0030
0000
0000
0000
0000
0000
0002
0000
0000
0000
0000
0000
0003
0000
0000
0000
0000
0000
2000
0000
0000
0000
0000
0000
3000
0000
0000
0000
0000
0000
0002
0000
0000
0000
0000
0000
0003
0000
0000
0000
0000
0000
0200
0000
0000
0000
0000
0000
0300
0000
0000
0000
0000
0000
0000
0000
0000
0000
0000
0000
0000
0000
0000
0000
0000
0000
0020
0000
0000
0000
0000
0000
0030
0000
0000
0000
0000
0000
0000
0000
0000
0000
0000
0000
0000
0000
0000
0000
0000
0000
,
2000
3000
0000
0000
0200
0300
0000
0000
2000
3000
0000
0000
0010
0000
0000
0000
0100
0000
0000
0000
0001
0000
0000
0000
1000
0000
0000
0000
0100
0000
0000
0000
,
0010
0000
0000
0000
0001
0000
0000
0000
2000
0000
0000
0000
0000
0000
0000
0000
3020
0030
0200
0300
0002
0003
2000
3000
0200
0300
0000
0000
0020
0030
0000
0000
,
0002
0000
0000
0000
0000
0000
0003
0000
0000
0000
0000
0000
0000
0000
0000
0000
0000
0000
0000
0000
0000
0000
0000
0000
2000
0000
0000
0000
0000
0000
3000
0000
0000
0000
0000
0000
0000
0000
0000
0000
0000
0000
0000
0000
0000
0000
0000
0000
0020
0000
0000
0000
0000
0000
0000
0000
0000
0000
0000
0000
0000
0000
0000
0000
0000
0000
0000
0000
0000
0000
0000
0000
0000
0000
0000
0000
0000
0000
0000
0000
0000
0000
0000
0000
0000
0000
0000
0000
0000
0000
0000
0000
0000
0000
0000
0000
0230
0000
0000
0000
0000
0000
0000
0000
0300
0000
0000
0000
0002
0000
0000
0000
0000
0000
0000
0000
0003
0000
0000
0000
2000
0000
0000
0000
0000
0000
0000
0000
3000
0000
0000
0000
0002
0000
0000
0000
0000
0000
0000
0000
0003
0000
0000
0000
0020
0000
0000
0000
0000
0000
0000
0000
0030
0000
0000
0000
0000
0000
0000
0000
0000
0000
0000
0000
0000
0000
0000
0000
0200
0000
0000
0000
0000
0000
0000
0000
0300
0000
0000
0000
0000
0000
0000
0000
0000
0000
0000
0000
0000
0000
0000
0000
,
0020
0000
0030
0000
0000
0000
0002
0000
0003
0000
0000
0000
0200
0000
0000
0000
0000
0000
0000
0000
0000
0000
0000
0000
0320
0000
0000
2030
0000
0000
3200
0000
0000
0320
0000
0000
0032
0000
0000
0003
0000
0000
0200
0000
0000
0300
0000
0000
,
0002
0003
2000
3000
0020
0030
2000
3200
0320
0030
0002
0003
0200
0300
0020
2030
,
3002
0003
0100
0001
1000
0100
1000
0010
0100
0001
1000
0001
0010
0001
0100
0010
,
1000
0001
1000
0100
0010
0001
1000
0010
1000
0100
0010
0001
1000
0010
0100
0001
,
0010
0001
1000
0010
0100
0001
0010
0001
0100
0010
1000
0001
1000
0100
1000
0010
,
0100
0001
1000
0001
0010
0100
1000
0001
0100
0001
0010
0100
1000
0001
0100
0010
,
1000
0100
0010
0001
1000
0000
0010
0000
1000
0000
0100
0000
1000
0000
0001
0000
,
0010
0001
0100
0001
1000
0010
0100
0010
,
1000
0001
0010
0100
0010
0001
0100
0010
,
1000
0000
0100
0000
0020
0000
0000
0000
0000
0000
0130
1000
0001
0100
0010
0100
,
0001
1000
0100
0010
0002
0000
1003
0010
0200
0000
0301
0010
0200
0000
1300
0001
,
0200
0000
0301
1000
0001
1000
0010
1000
0100
0010
0001
1000
0010
0100
0001
0010
,
0001
1000
0100
1000
0010
0000
0100
0001
1000
0000
0010
1000
0001
0000
0010
0100
,
0010
0001
0100
0010
1000
0100
1000
0001
,
1000
0001
0200
0310
0100
0010
0100
0010
,
0100
0010
2000
3010
1000
0010
1000
0010
,
1000
0010
0200
0301
0100
0001
0100
0001
,
0100
0001
2000
3100
1000
0100
1000
0100
,
1000
0100
0020
0000
0000
0000
0030
0000
;

//---------------dance-single - ----------------
#NOTES:
     dance-single:
     :
     Medium:
     9:
     0.760,1.000,0.101,0.715,0.085,580.000,13.000,92.000,2.000,1.000:
0000
0000
0000
0000
,
0000
0000
0000
0000
0001
1000
0100
0010
,
0001
0100
0000
0000
0010
0100
0001
0010
,
0001
1000
0000
0000
0100
1000
0001
0100
,
0010
0000
1000
0000
0000
0000
0000
0000
0100
0000
1000
0000
0001
0000
0100
0001
,
1000
0001
0010
0100
1000
0001
0100
0001
,
1000
0010
1000
0100
0010
0100
1000
0001
,
0100
0010
0100
0001
0010
0100
1000
0001
,
0100
0010
1000
0001
0010
0100
0010
0100
,
1000
0001
1000
0010
0100
0001
1000
0001
,
0010
0100
1000
0100
0010
0001
0100
0001
,
1000
0010
1000
0001
0010
0100
1000
0001
,
0100
0010
1000
0001
1000
0100
0010
0001
,
0100
0000
0010
0000
1000
0000
0000
0001
1000
0000
0100
0000
1000
0000
0010
0000
,
0100
0001
0100
0001
0010
0100
0010
0100
,
1000
0100
1000
0100
1000
0001
1000
0001
,
0100
0010
0100
0010
1000
1000
0001
0100
,
0100
0000
0010
0000
1000
0000
0100
0010
0100
0000
1000
0000
0010
0000
0100
0000
,
0001
0010
0100
1000
0010
0100
0010
1000
,
0001
0010
0100
1000
0001
0100
0010
1000
,
0100
0010
0001
0100
0010
1000
0010
0100
,
0001
0010
0100
1000
0001
0100
0001
1000
,
0100
0010
0100
1000
0010
1000
0001
0010
,
0100
0010
0001
1000
0010
0100
0001
1000
,
0001
0010
0001
0100
0001
1000
0010
1000
,
0100
1000
0002
0000
0000
0000
0000
0000
0000
0000
0000
0000
0000
0000
0000
0000
,
2MM0
0003
3010
0100
0001
0100
0010
0100
,
0010
1000
0100
0010
0100
1000
0001
0010
,
0001
0010
0100
1000
0001
1000
0001
0100
,
0010
1000
0100
1000
0001
1000
0001
0100
,
0001
1000
0100
0010
0100
1000
0010
1000
,
0001
0100
0001
0010
0100
1000
0100
1000
,
0001
0100
0010
0100
0001
1000
0001
0010
,
0100
1000
0001
0000
1001
0000
1001
0000
,
1001
0001
0100
0010
0010
1000
0001
0010
,
0100
1000
0010
0100
0001
0010
0100
1000
,
0010
0100
0010
1000
0100
0010
0001
0100
,
0010
1000
0100
0010
0100
1000
0010
0100
,
0001
0000
0010
0000
0100
0000
0000
0000
0000
0000
0010
0001
2000
0000
3020
0000
,
0230
0000
0302
0000
0023
0000
0000
0000
0130
0000
0010
0000
0001
0000
0100
0010
,
1000
0000
0100
0000
0010
0000
0100
0000
1000
0000
0010
0000
0100
0000
0010
1000
,
0001
1000
0100
0010
0001
0100
0010
1000
,
0100
0000
1000
0000
0020
0000
0230
0000
0302
0000
2003
0000
0000
3002
0000
0000
,
0003
0000
1010
1000
0000
0101
0001
0000
,
1001
1000
0000
0000
0001
0010
0100
1000
,
0010
1000
1001
0001
0000
0011
0010
0000
,
1100
1000
0001
0000
1000
0001
0100
0001
,
1000
0010
0100
0001
1000
0002
0000
0013
,
0100
1000
0010
1000
0001
0200
0000
0310
,
1000
0001
0020
0000
0230
0000
2300
0000
,
3002
0113
1010
1001
,
0011
0000
0001
1000
0100
1000
0001
1000
,
0001
1000
0010
0100
0010
0010
0100
0001
,
1000
0000
0000
0000
0000
0000
0000
0000
0001
0000
0000
0000
0000
0000
0000
0000
0200
0000
0000
0000
0000
0000
0000
0000
0000
0000
0000
0000
0000
0000
0000
0000
0302
0003
0000
0000
2000
3000
0000
0000
0002
0003
0000
0000
2000
3000
0000
0000
0002
0003
0000
0000
0000
0000
0000
0000
0200
0300
0000
0000
0000
0000
0000
0000
,
0002
0000
0000
0003
0000
0000
0000
0000
0000
0000
0000
0000
0000
0000
0000
0000
0000
0000
0000
0000
0000
0000
0000
0000
2000
0000
0000
3000
0000
0000
0000
0000
0000
0000
0000
0000
0000
0000
0000
0000
0000
0000
0000
0000
0000
0000
0000
0000
0200
0000
0000
0000
0000
0000
0000
0000
0000
0000
0000
0000
0000
0000
0000
0000
0000
0000
0000
0000
0000
0000
0000
0000
0000
0000
0000
0000
0000
0000
0000
0000
0000
0000
0000
0000
0000
0000
0000
0000
0000
0000
0000
0000
0000
0000
0000
0000
0320
0000
0000
0000
0030
0000
0000
0000
0000
0000
0000
0000
0002
0000
0000
0000
0003
0000
0000
0000
0000
0000
0000
0000
0020
0000
0000
0000
0030
0000
0000
0000
0000
0000
0000
0000
0002
0000
0000
0000
0003
0000
0000
0000
0000
0000
0000
0000
0020
0000
0000
0000
0030
0000
0000
0000
0000
0000
0000
0000
0000
0000
0000
0000
0000
0000
0000
0000
0000
0000
0000
0000
0200
0000
0000
0000
0300
0000
0000
0000
0000
0000
0000
0000
0000
0000
0000
0000
0000
0000
0000
0000
0000
0000
0000
0000
,
2000
0000
0000
0000
3000
0000
0000
0000
0000
0000
0000
0000
0000
0000
0000
0000
0000
0000
0000
0000
0000
0000
0000
0000
0002
0000
0000
0000
0003
0000
0000
0000
0000
0000
0000
0000
0000
0000
0000
0000
0000
0000
0000
0000
0000
0000
0000
0000
0020
0000
0000
0000
0000
0000
0000
0000
0000
0000
0000
0000
0000
0000
0000
0000
0000
0000
0000
0000
0000
0000
0000
0000
0000
0000
0000
0000
0000
0000
0000
0000
0000
0000
0000
0000
0000
0000
0000
0000
0000
0000
0000
0000
0000
0000
0000
0000
0230
0000
0000
0000
0000
0000
0300
0000
0000
0000
0000
0000
2000
0000
0000
0000
0000
0000
3000
0000
0000
0000
0000
0000
0200
0000
0000
0000
0000
0000
0300
0000
0000
0000
0000
0000
2000
0000
0000
0000
0000
0000
3000
0000
0000
0000
0000
0000
0200
0000
0000
0000
0000
0000
0300
0000
0000
0000
0000
0000
0000
0000
0000
0000
0000
0000
0000
0000
0000
0000
0000
0000
2000
0000
0000
0000
0000
0000
3000
0000
0000
0000
0000
0000
0000
0000
0000
0000
0000
0000
0000
0000
0000
0000
0000
0000
,
0002
0003
0000
0000
0020
0030
0000
0000
0002
0003
0000
0000
0100
0000
0000
0000
0010
0000
0000
0000
1000
0000
0000
0000
0001
0000
0000
0000
0010
0000
0000
0000
,
0100
0000
0000
0000
1000
0000
0000
0000
0002
0000
0000
0000
0000
0000
0000
0000
2003
3000
0020
0030
2000
3000
0020
0030
2000
3000
0000
0000
0002
0003
0000
0000
,
2000
0000
0000
0000
0000
0000
3000
0000
0000
0000
0000
0000
0000
0000
0000
0000
0000
0000
0000
0000
0000
0000
0000
0000
0002
0000
0000
0000
0000
0000
0003
0000
0000
0000
0000
0000
0000
0000
0000
0000
0000
0000
0000
0000
0000
0000
0000
0000
0200
0000
0000
0000
0000
0000
0000
0000
0000
0000
0000
0000
0000
0000
0000
0000
0000
0000
0000
0000
0000
0000
0000
0000
0000
0000
0000
0000
0000
0000
0000
0000
0000
0000
0000
0000
0000
0000
0000
0000
0000
0000
0000
0000
0000
0000
0000
0000
0302
0000
0000
0000
0000
0000
0000
0000
0003
0000
0000
0000
2000
0000
0000
0000
0000
0000
0000
0000
3000
0000
0000
0000
0002
0000
0000
0000
0000
0000
0000
0000
0003
0000
0000
0000
2000
0000
0000
0000
0000
0000
0000
0000
3000
0000
0000
0000
0002
0000
0000
0000
0000
0000
0000
0000
0003
0000
0000
0000
0000
0000
0000
0000
0000
0000
0000
0000
0000
0000
0000
0000
0020
0000
0000
0000
0000
0000
0000
0000
0030
0000
0000
0000
0000
0000
0000
0000
0000
0000
0000
0000
0000
0000
0000
0000
,
0200
0000
0300
0000
0000
0000
2000
0000
3000
0000
0000
0000
0020
0000
0000
0000
0000
0000
0000
0000
0000
0000
0000
0000
0230
0000
0000
0302
0000
0000
0203
0000
0000
0302
0000
0000
0203
0000
0000
0300
0000
0000
0002
0000
0000
0003
0000
0000
,
2000
3000
0002
0003
0200
0300
0002
0023
0032
0003
2000
3000
0020
0030
0200
0302
,
2003
3000
0010
0000
0100
0000
0001
0000
0010
0000
0100
0000
1000
0000
0010
0000
,
0100
0010
1000
0001
0010
0001
0100
0010
,
1000
0100
0010
0100
1000
0001
0100
0010
,
0100
0001
1000
0100
0010
0001
1000
0010
,
0100
0001
1000
0010
1000
0100
1000
0001
,
0010
0001
0100
0001
1000
0010
0100
0010
,
1000
0001
0010
0100
0010
0001
0100
0010
,
1000
0100
0020
0000
0000
0130
1000
0001
,
0100
0010
2000
3001
0020
0130
2000
3010
,
0200
0301
1000
0100
0010
0001
1000
0010
,
0100
0010
1000
0100
1000
0010
0100
0001
,
0010
0100
1000
0010
0100
0001
1000
0001
,
1000
0001
0020
0130
0010
0100
0010
0100
,
0010
0100
2000
3100
1000
0100
1000
0100
,
1000
0100
0020
0031
0010
0001
0010
0001
,
0010
0001
2000
3010
1000
0010
1000
0010
,
1000
0010
0200
0000
0000
0000
0300
0000
;
