#TITLE:Event Horizon;
#SUBTITLE:;
#ARTIST:wa.;
#TITLETRANSLIT:;
#SUBTITLETRANSLIT:;
#ARTISTTRANSLIT:;
#CREDIT:;
#BANNER:../Zeppelin_bn.png;
#BACKGROUND:../bg_Zeppelin.png;
#LYRICSPATH:;
#CDTITLE:../cdtitle_ZAiA.png;
#MUSIC:wa. - Event Horizon.ogg;
#OFFSET:-0.075;
#SAMPLESTART:46.940;
#SAMPLELENGTH:22.820;
#SELECTABLE:YES;
#BPMS:0.000=169.000;
#STOPS:;
#BGCHANGES:;
// cache tags:
#FIRSTBEAT:4.000;
#LASTBEAT:304.000;
#SONGFILENAME:Songs/Cirque du Zeppelin/Event Horizon - [Zaia]/Event Horizon.sm;
#HASMUSIC:1;
#HASBANNER:1;
#MUSICLENGTH:116.506;
// end cache tags

//---------------dance-single - 7/4/16/13/2----------------
#NOTES:
     dance-single:
     7/4/16/13/2:
     Challenge:
     14:
     1.000,1.000,0.094,0.112,1.000,910.000,11.000,13.000,0.000,0.000:
0000
0000
0000
0000
,
1000
0010
0100
0001
0100
0010
1000
0100
0010
0001
1000
0001
0010
0100
0010
0001
,
0100
0010
1000
0100
0010
0001
0010
0100
1000
0010
0100
0001
0010
0001
1000
0001
,
0100
0010
1000
0100
1000
0001
0010
0100
1000
0100
0010
0001
0100
0010
0100
0001
,
1000
0100
1000
0001
0100
0010
1000
0010
0100
0001
0010
0100
1000
0001
0100
0010
,
0100
0001
0010
0001
1000
0100
1000
0010
0100
0001
0010
0100
0010
0001
1000
0010
,
0100
0010
1000
0100
1000
0001
0010
0001
0100
0010
1000
0100
1000
0001
0010
0100
,
1000
0001
0100
0010
1000
0001
0010
0001
1000
0100
0010
0001
0100
0001
1000
0010
,
0200
0000
0000
0300
,
1001
0000
0000
0001
0010
0001
0100
0010
,
1000
0100
0010
0100
1000
0001
1000
0010
,
0000
0100
0001
0010
0100
1000
0010
1000
,
0001
0000
0000
0000
0000
0000
0000
0000
0000
1000
0100
1000
0001
0000
0000
0000
0000
0000
0100
0000
0000
0000
0000
0000
,
0120
0000
2030
3002
,
0023
0000
0000
0000
0230
0000
0000
0000
2300
3000
0000
0000
0002
0000
0000
0000
,
0203
0000
0320
0000
,
2030
0000
3002
0000
,
1003
0010
0100
0001
0100
0010
1000
0001
,
0010
0100
1000
0100
0010
0001
0100
0001
,
1000
0100
1000
0010
0100
0001
0010
0001
,
1000
0010
0100
0001
1000
0001
0010
0100
,
1000
0001
0010
0001
1000
0100
1000
0001
0100
0010
1000
0001
1000
0010
0100
0001
,
0010
0100
1000
0001
0100
0001
1000
0100
0010
0001
1000
0001
0010
0100
1000
0010
,
0100
0001
1000
0001
0010
0100
0010
0001
0100
0010
1000
0001
1000
0010
0100
0001
,
0010
0100
1000
0001
1000
0100
0010
0100
1000
0001
0100
0010
1000
0001
0010
0001
,
1000
0000
0010
0000
1000
0000
0010
0100
0001
0000
0001
0000
1000
0000
0100
0000
,
0010
0000
0001
0000
1000
0000
0001
0010
0100
0000
0100
0000
1000
0000
0010
0000
,
0100
0000
0001
0000
1000
0000
0100
0010
0001
1000
0001
1000
0010
0000
0010
0000
,
0100
0000
0001
0000
0010
0000
0100
0000
1000
0001
0100
0001
0010
0100
1000
0001
,
0100
0010
1000
0001
,
0010
0100
1000
0001
,
1001
1001
1001
1001
,
1000
0000
0010
0000
1000
0000
0001
0000
0100
0000
0001
0000
0010
0100
1000
0001
,
1000
0010
0100
0010
1000
0001
0100
0001
0010
0001
1000
0100
1000
0010
0100
0001
,
1000
0100
0010
0100
1000
0001
0010
0001
0100
0001
1000
0010
1000
0100
0010
0001
,
1000
0001
0100
0010
0100
0001
1000
0010
1000
0100
1000
0001
1000
0010
0100
0010
,
1000
0001
0010
0100
0010
0001
1000
0100
1000
0010
1000
0001
0100
0001
0010
0100
,
1000
0100
0010
0001
0100
0001
1000
0010
1000
0100
1000
0001
0010
0100
1000
0001
,
0100
0010
0100
0001
0010
0001
1000
0100
1000
0010
1000
0001
0100
0010
0100
0001
,
1000
0001
0010
0100
1000
0010
1000
0001
0100
0001
0010
0001
1000
0100
0010
0001
,
1000
0010
0100
0010
1000
0100
1000
0001
0010
0001
0100
0001
1000
0010
0100
0001
,
1000
0100
0010
0001
1000
0001
0100
0001
1000
0010
1000
0100
1000
0001
0010
0100
,
0010
0001
1000
0001
0100
0010
1000
0001
0010
0001
0100
0010
0100
0001
1000
0001
,
0010
0100
1000
0001
1000
0010
0100
0001
0010
0001
1000
0100
0010
0100
1000
0010
,
0100
0001
0100
0010
0100
0001
1000
0100
1000
0010
0100
0001
1000
0001
0010
0100
,
1000
0010
0100
0001
1000
0001
0010
0001
1000
0100
1000
0010
1000
0001
0100
0010
,
0100
0001
1000
0001
0010
0100
1000
0001
0100
0001
0010
0100
0010
0001
1000
0001
,
0100
0010
1000
0001
1000
0100
0010
0001
0100
0001
1000
0010
0100
0010
1000
0100
,
0010
0001
0010
0100
0010
0001
1000
0010
1000
0100
0010
0001
1000
0001
0100
0010
,
1000
0000
1001
0000
,
0011
0000
0000
0010
0000
0000
0100
0000
1100
0000
0000
0000
0000
0000
0000
0000
,
1000
0000
0101
0000
,
0100
0000
0000
0010
0000
0000
1000
0000
1010
0000
0010
0000
0100
0000
0001
0000
,
1000
0100
0010
0001
1000
0010
1000
0001
,
0100
0000
0000
0000
0000
0000
0001
0000
0000
0000
0000
0000
0010
0000
0000
0000
0000
0000
0100
0000
0000
0000
0000
0000
1000
0000
0000
0000
0000
0000
0001
0000
0100
0000
0001
0000
0100
0000
0000
0010
0000
0000
0100
0000
0000
0001
0000
0000
,
1000
0000
0000
0001
0010
0001
0010
0000
0000
0100
1000
0100
1000
0000
0000
0001
0100
0001
0100
0000
0000
0010
1000
0010
,
1000
0000
0000
0001
0000
0000
1000
0000
0010
0000
0100
0000
0001
0000
0000
1000
0000
0000
0001
0000
0010
0000
0100
0000
1000
0000
0000
0001
0000
0000
1000
0000
0010
0000
0100
0000
0001
0000
0000
1000
0000
0000
0001
0000
0010
0000
0100
0000
,
1000
0001
0100
0010
0100
0001
1000
0100
0010
0100
1000
0001
0010
0100
1000
0010
,
0100
0001
1000
0001
0010
0001
0100
0010
1000
0100
1000
0001
0010
0001
1000
0010
,
0100
0001
1000
0010
1000
0100
1000
0001
0100
0001
0010
0100
1000
0010
1000
0001
,
0100
0010
1000
0001
0010
0100
1000
0001
0010
0001
0100
0010
1000
0100
0010
0100
,
1000
0010
1000
0001
0100
0010
1000
0001
0010
0100
0010
0001
1000
0100
0010
0001
,
0100
0010
1000
0001
1000
0100
1000
0010
0100
0001
0010
0001
1000
0100
1000
0001
,
0100
0010
1000
0001
0100
0001
0010
0001
1000
0010
1000
0100
0010
0001
0100
0001
,
1000
0010
0100
0001
1000
0100
0010
0001
1000
0100
1000
0010
0100
0001
0010
0100
,
1000
0001
0010
0100
0010
0001
1000
0010
0100
0010
1000
0001
0100
0010
1000
0100
,
0010
0001
1000
0001
0100
0001
0010
0100
1000
0010
1000
0001
0100
0001
1000
0100
,
0010
0001
1000
0100
1000
0010
1000
0001
0010
0001
0100
0010
1000
0100
1000
0001
,
0010
0100
1000
0001
0100
0010
1000
0001
0100
0001
0010
0100
1000
0010
0100
0010
,
1000
0001
0100
0001
1000
0100
1000
0001
,
0010
0000
0000
0000
0000
0000
0001
0000
0000
0000
0000
0000
0100
0000
0000
0000
0000
0000
0010
0000
0000
0000
0000
0000
1000
0000
0000
0000
0000
0000
0001
0000
0010
0000
0001
0000
0010
0000
0000
0100
0000
0000
0010
0000
0000
0001
0000
0000
,
1000
0000
0000
0001
0100
0001
0100
0000
0000
0010
1000
0010
1000
0000
0000
0001
0010
0001
0010
0000
0000
0100
1000
0100
,
1000
0000
0000
0001
0000
0000
1000
0000
0100
0000
0010
0000
0001
0000
0000
1000
0000
0000
0001
0000
0100
0000
0010
0000
1000
0000
0000
0001
0000
0000
1000
0000
0100
0000
0010
0000
0001
0000
0000
1000
0000
0000
0001
0000
0100
0000
0010
0000
,
1000
0001
0010
0100
0010
0001
1000
0010
0100
0010
1000
0001
0100
0010
1000
0100
,
0010
0001
1000
0100
1000
0010
0100
0001
,
2000
0000
0000
0000
,
3000
0000
0000
0000
;

//---------------dance-single - 4/16----------------
#NOTES:
     dance-single:
     4/16:
     Hard:
     12:
     0.937,1.000,0.094,0.112,0.914,740.000,11.000,13.000,0.000,0.000:
0000
0000
0000
0000
,
1000
0001
0100
0001
0010
0100
1000
0010
,
1000
0001
0010
0001
0100
0010
1000
0100
,
0010
0100
1000
0010
0100
0001
0010
0100
,
0010
0001
1000
0010
1000
0100
1000
0001
,
0100
0001
0010
0001
1000
0010
1000
0001
,
0010
0100
1000
0001
0100
0010
1000
0001
,
0100
0001
1000
0100
0010
0100
1000
0001
,
0200
0000
0000
0300
,
1001
0000
0000
0001
0010
0001
0100
0010
,
1000
0100
0010
0100
1000
0001
1000
0010
,
0000
0100
0001
0010
0100
1000
0010
1000
,
0001
0000
0000
0000
0000
0000
0000
0000
0000
1000
0100
1000
0001
0000
0000
0000
0000
0000
0100
0000
0000
0000
0000
0000
,
0120
0000
2030
3002
,
0023
0000
0000
0000
0230
0000
0000
0000
2300
3000
0000
0000
0002
0000
0000
0000
,
0203
0000
0320
0000
,
2030
0000
3002
0000
,
1003
0010
0100
0001
0100
0010
1000
0001
,
0010
0100
1000
0100
0010
0001
0100
0001
,
1000
0100
1000
0010
0100
0001
0010
0001
,
1000
0010
0100
0001
1000
0001
0010
0100
,
1000
0001
0010
0001
1000
0100
1000
0001
0100
0010
1000
0001
1000
0010
0100
0001
,
0010
0100
1000
0001
0100
0001
1000
0100
0010
0001
1000
0001
0010
0100
1000
0010
,
0100
0001
1000
0001
0010
0100
0010
0001
0100
0010
1000
0001
1000
0010
0100
0001
,
0010
0100
1000
0001
1000
0100
0010
0100
1000
0001
0100
0010
1000
0001
0010
0001
,
1000
0000
0010
0000
1000
0000
0010
0100
0001
0000
0001
0000
1000
0000
0100
0000
,
0010
0000
0001
0000
1000
0000
0001
0010
0100
0000
0100
0000
1000
0000
0010
0000
,
0100
0000
0001
0000
1000
0000
0100
0010
0001
1000
0001
1000
0010
0000
0010
0000
,
0100
0000
0001
0000
0010
0000
0100
0000
1000
0001
0100
0001
0010
0100
1000
0001
,
0100
0010
1000
0001
,
0010
0100
1000
0001
,
1001
1001
1001
1001
,
1000
0000
0010
0000
1000
0000
0001
0000
0100
0000
0001
0000
0010
0100
1000
0001
,
1000
0010
0100
0010
1000
0001
0100
0001
0010
0001
1000
0100
1000
0010
0100
0001
,
1000
0100
0010
0100
1000
0001
0010
0001
0100
0001
1000
0010
1000
0100
0010
0001
,
1000
0001
0100
0010
0100
0001
1000
0010
1000
0100
1000
0001
1000
0010
0100
0010
,
1000
0001
0010
0100
0010
0001
1000
0100
1000
0010
1000
0001
0100
0001
0010
0100
,
1000
0100
0010
0001
0100
0001
1000
0010
1000
0100
1000
0001
0010
0100
1000
0001
,
0100
0010
0100
0001
0010
0001
1000
0100
1000
0010
1000
0001
0100
0010
0100
0001
,
1000
0001
0010
0100
1000
0010
1000
0001
0100
0001
0010
0001
1000
0100
0010
0001
,
1000
0010
0100
0010
1000
0100
1000
0001
0010
0001
0100
0001
1000
0010
0100
0001
,
1000
0100
0010
0001
1000
0001
0100
0001
1000
0010
1000
0100
1000
0001
0010
0100
,
0010
0001
1000
0001
0100
0010
1000
0001
0010
0001
0100
0010
0100
0001
1000
0001
,
0010
0100
1000
0001
1000
0010
0100
0001
0010
0001
1000
0100
0010
0100
1000
0010
,
0100
0001
0100
0010
0100
0001
1000
0100
1000
0010
0100
0001
1000
0001
0010
0100
,
1000
0010
0100
0001
1000
0001
0010
0001
1000
0100
1000
0010
1000
0001
0100
0010
,
0100
0001
1000
0001
0010
0100
1000
0001
0100
0001
0010
0100
0010
0001
1000
0001
,
0100
0010
1000
0001
1000
0100
0010
0001
0100
0001
1000
0010
0100
0010
1000
0100
,
0010
0001
0010
0100
0010
0001
1000
0010
1000
0100
0010
0001
1000
0001
0100
0010
,
1000
0000
1001
0000
,
0011
0000
0000
0010
0000
0000
0100
0000
1100
0000
0000
0000
0000
0000
0000
0000
,
1000
0000
0101
0000
,
0100
0000
0000
0010
0000
0000
1000
0000
1010
0000
0010
0000
0100
0000
0001
0000
,
1000
0100
0010
0001
1000
0010
1000
0001
,
0100
0000
0001
0000
0010
0000
0100
0000
1000
0000
0001
0100
0001
0010
0100
1000
,
0001
0000
1000
0100
1000
0000
0001
0100
0001
0000
1000
0010
1000
0000
0001
0010
,
0001
0100
0010
1000
0100
0010
0001
0100
0010
1000
0100
0010
0001
0100
0010
1000
,
0100
0010
0100
1000
0001
0100
0010
1000
,
0100
1000
0001
0010
0001
0100
0001
1000
,
0100
0010
0001
1000
0010
0100
0001
0010
,
0100
0010
0001
1000
0010
0100
0010
1000
,
0100
1000
0001
0100
0001
1000
0100
0010
,
0100
0010
0001
1000
0010
0100
0010
1000
,
0001
0010
0100
1000
0001
0100
0001
1000
,
0100
0010
0100
1000
0001
0100
0010
0100
,
0010
1000
0100
1000
0001
0010
0100
1000
,
0010
1000
0001
0100
0001
0010
0001
1000
,
0010
0100
0001
1000
0100
0010
0001
0100
,
0001
0010
0100
1000
0100
0010
0100
1000
,
0001
0010
0100
1000
0001
0100
0001
1000
,
0010
0000
1000
0000
0100
0000
0010
0000
0001
0000
1000
0010
1000
0100
0010
0001
,
1000
0000
0001
0010
0001
0000
1000
0010
1000
0000
0001
0100
0001
0000
1000
0100
,
1000
0010
0100
0001
0010
0100
1000
0010
0100
0001
0010
0100
1000
0010
0100
0001
,
1000
0001
0010
0100
0010
0001
1000
0010
0100
0010
1000
0001
0100
0010
1000
0100
,
0010
0001
1000
0100
1000
0010
0100
0001
,
2000
0000
0000
0000
,
3000
0000
0000
0000
;

//---------------dance-single - ----------------
#NOTES:
     dance-single:
     :
     Medium:
     10:
     0.708,0.783,0.094,0.112,0.112,553.000,11.000,13.000,0.000,0.000:
0000
0000
0000
0000
,
1000
0001
0100
0001
0010
0100
1000
0010
,
1000
0001
0010
0001
0100
0010
1000
0100
,
0010
0100
1000
0010
0100
0001
0010
0100
,
0010
0001
1000
0010
1000
0100
1000
0001
,
0100
0001
0010
0001
1000
0010
1000
0001
,
0010
0100
1000
0001
0100
0010
1000
0001
,
0100
0001
1000
0100
0010
0100
1000
0001
,
0200
0000
0000
0300
,
1001
0000
0000
0001
0010
0001
0100
0010
,
1000
0100
0010
0100
1000
0001
1000
0010
,
0000
0100
0001
0010
0100
1000
0010
1000
,
0001
0000
0000
0000
0000
0000
1000
0001
1000
0000
0000
0000
0010
0000
0000
0000
,
0210
0000
0302
2003
,
3200
0000
0000
0000
0320
0000
0000
0000
0032
0003
0000
0000
2000
0000
0000
0000
,
3020
0000
0230
0000
,
0302
0000
2003
0000
,
3001
0100
0010
1000
0010
0100
0001
1000
,
0100
0010
0001
0010
0100
1000
0010
1000
,
0001
0010
0001
0100
0010
1000
0100
1000
,
0001
0100
0010
1000
0001
1000
0100
0010
,
0001
0100
0001
0100
0010
1000
0100
1000
,
0010
1000
0001
0010
0001
0100
0010
1000
,
0100
0010
0100
1000
0010
0100
0010
1000
,
0001
0010
0100
1000
0001
0100
0010
0100
,
0001
0000
0100
0000
0001
0000
0100
0010
0100
0000
0001
0000
1000
0000
0010
0000
,
0100
0000
0001
0000
1000
0000
0001
0100
0001
0000
0010
0000
0001
0000
0100
0000
,
0010
0000
1000
0000
0001
0000
0010
0100
1000
0001
1000
0001
0100
0000
0010
0000
,
0100
0000
0001
0000
0010
0000
0100
0000
1000
0001
0100
0001
0010
0100
1000
0001
,
0100
0010
1000
0001
,
0010
0100
1000
0001
,
1001
1001
1001
1001
,
1000
0010
1000
0001
0100
0001
0010
0100
,
1000
0010
1000
0100
0010
0001
0100
0001
,
0010
0001
1000
0100
1000
0010
1000
0001
,
0100
0010
1000
0100
1000
0001
0010
0001
,
0100
0010
0100
0001
0010
0100
1000
0010
,
0100
0001
0010
0001
0100
0010
1000
0100
,
1000
0010
1000
0001
0100
0001
0010
0001
,
1000
0100
0010
0001
0100
0001
1000
0010
,
1000
0100
0010
0100
1000
0010
0100
0001
,
0010
0100
1000
0010
0100
0001
0010
0001
,
0100
0001
1000
0010
1000
0100
1000
0001
,
0010
0100
1000
0010
1000
0001
0100
0001
,
0010
0100
0010
0001
0100
0010
1000
0100
,
0010
0001
0100
0001
0010
0100
1000
0010
,
1000
0100
1000
0001
0010
0001
0100
0001
,
1000
0010
0100
0001
0010
0001
1000
0100
,
1000
0010
0100
0010
1000
0100
0010
0001
,
0100
0000
1001
0000
,
0011
0000
0000
0010
0000
0000
0100
0000
1100
0000
0000
0000
0000
0000
0000
0000
,
1000
0000
0101
0000
,
0100
0000
0000
0010
0000
0000
1000
0000
1010
0000
0010
0000
0100
0000
0001
0000
,
1000
0100
0010
0001
1000
0010
1000
0001
,
0100
0000
0001
0000
0010
0000
0100
0000
1000
0000
0001
0100
0001
0010
0100
1000
,
0001
0000
1000
0100
1000
0000
0001
0100
0001
0000
1000
0010
1000
0000
0001
0010
,
0001
0100
0010
1000
0100
0010
0001
0100
,
0010
1000
0100
1000
0001
0100
0010
1000
,
0100
1000
0001
0010
0001
0100
0001
1000
,
0100
0010
0001
1000
0010
0100
0001
0010
,
0100
0010
0001
1000
0010
0100
0010
1000
,
0100
1000
0001
0100
0001
1000
0100
0010
,
0100
0010
0001
1000
0010
0100
0010
1000
,
0001
0010
0100
1000
0001
0100
0001
1000
,
0100
0010
0100
1000
0001
0100
0010
0100
,
0010
1000
0100
1000
0001
0010
0100
1000
,
0010
1000
0001
0100
0001
0010
0001
1000
,
0010
0100
0001
1000
0100
0010
0001
0100
,
0001
0010
0100
1000
0100
0010
0100
1000
,
0001
0010
0100
1000
0001
0100
0001
1000
,
0010
0000
1000
0000
0100
0000
0010
0000
0001
0000
1000
0010
1000
0100
0010
0001
,
1000
0000
0001
0010
0001
0000
1000
0010
1000
0000
0001
0100
0001
0000
1000
0100
,
1000
0010
0100
0001
0010
0100
1000
0010
,
0100
0010
1000
0001
1000
0100
0010
0001
,
0100
0001
1000
0100
1000
0010
0100
0001
,
2000
0000
0000
0000
,
3000
0000
0000
0000
;
