#TITLE:TRIGGER★HAPPY;
#SUBTITLE:(Extended Version);
#ARTIST:P*Light;
#TITLETRANSLIT:;
#SUBTITLETRANSLIT:;
#ARTISTTRANSLIT:;
#CREDIT:owenviau1;
#BANNER:BN.png;
#BACKGROUND:BG.PNG;
#LYRICSPATH:;
#CDTITLE:../CDTitleOV1.png;
#MUSIC:P_Light - TRIGGER_HAPPY (Extended Version).mp3;
#OFFSET:-2.384;
#SAMPLESTART:54.256;
#SAMPLELENGTH:29.999;
#SELECTABLE:YES;
#DISPLAYBPM:185.000;
#BPMS:0.000=185.000,186.000=370.000,187.000=185.000,311.000=370.000,313.000=185.000,333.000=370.000,335.000=185.000,337.000=370.000,338.000=185.000,340.000=370.000,341.000=185.000,345.000=370.000,348.000=185.000,350.000=370.000,353.000=185.000,355.000=370.000,357.000=185.000,389.000=370.000,395.250=185.000,395.750=370.000,396.000=185.000,396.500=370.000,396.750=185.000,545.000=370.000,548.500=185.000,612.000=370.000,613.000=185.000,673.000=370.000,674.000=185.000;
#STOPS:64.500=0.162
,65.500=0.162
,67.500=0.162
,71.000=0.162
,72.000=0.162
,78.000=0.162
,79.000=0.162
,81.000=0.162
,84.500=0.162
,85.500=0.162
,186.000=0.027
,186.167=0.027
,186.333=0.027
,186.500=0.027
,186.667=0.027
,186.833=0.027
,311.000=0.081
,311.500=0.081
,312.000=0.081
,312.500=0.081
,333.000=0.041
,333.250=0.041
,333.500=0.041
,333.750=0.041
,334.000=0.162
,337.000=0.081
,337.500=0.081
,340.000=0.041
,340.250=0.041
,340.500=0.041
,340.750=0.041
,345.000=0.041
,345.250=0.041
,345.500=0.041
,345.750=0.041
,350.000=0.041
,350.250=0.041
,350.500=0.041
,350.750=0.041
,355.000=0.081
,355.500=0.081
,356.000=0.081
,356.500=0.081
,389.000=0.081
,389.500=0.121
,390.250=0.121
,391.000=0.121
,391.750=0.121
,392.500=0.041
,392.750=0.121
,393.500=0.121
,394.250=0.121
,395.000=0.041
,395.750=0.041
,396.500=0.041
,545.000=0.081
,545.500=0.162
,546.500=0.081
,547.000=0.081
,547.500=0.081
,548.000=0.081
,612.000=0.027
,612.167=0.027
,612.333=0.027
,612.500=0.027
,612.667=0.027
,612.833=0.027
,673.000=0.162
,675.000=0.162
,675.500=0.162
,676.000=1.622
;
#BGCHANGES:;
// cache tags:
#FIRSTBEAT:0.000;
#LASTBEAT:752.000;
#SONGFILENAME:Songs/owenviau1 Simfiles 7/TRIGGER HAPPY - [owenviau1] v1.0.4/TRIGGER_HAPPY.sm;
#HASMUSIC:1;
#HASBANNER:1;
#MUSICLENGTH:253.056;
// end cache tags

//---------------dance-single - 14.97 (15-) (owenvia----------------
#NOTES:
     dance-single:
     14.97 (15-) (owenvia:
     Challenge:
     15:
     1.000,1.000,0.221,0.328,1.000,2330.000,56.000,83.000,25.000,2.000:

1000
0100
0010
0001
0100
0010
1000
0001
,
0200
0000
0301
0000
1000
0000
0200
0000
0310
0000
0001
0000
2000
3000
0020
0230
,
0301
1000
0010
0100
0010
1000
0001
0010
,
0002
0000
0103
0000
0010
0000
2000
0000
3004
0000
0103
0000
0040
0000
1030
0001
,
0100
0010
1000
0100
1000
0001
0010
0001
,
0200
0000
0310
0000
1000
0000
0200
0000
0310
0000
0001
0000
2000
3000
0002
0203
,
0310
1000
0100
0010
0001
1000
0010
1000
,
0001
0100
0010
1000
0010
0100
0001
1000
0200
0320
0032
2003
3020
0000
0000
0000
,
1030
0100
0010
0001
0100
0010
1000
0010
0100
0001
0010
0001
1000
0100
0010
0001
,
0100
0010
1000
0010
0100
0001
1000
0001
0100
0010
1000
0100
0010
0001
1000
0010
,
1000
0001
0010
0001
0100
0010
1000
0100
0010
0001
1000
0010
1000
0100
0010
0001
,
0100
0010
1000
0001
0010
0001
0100
0010
1000
0100
1000
0001
0100
0010
1000
0001
,
0010
0001
0100
0010
1000
0100
0010
0001
1000
0001
0100
0010
0100
0001
1000
0001
,
0100
0010
1000
0001
0010
0100
1000
0001
1000
0100
0010
0001
0100
0010
1000
0001
,
0100
0001
1000
0010
1000
0100
0010
0001
0100
0010
1000
0001
0010
0001
0100
0010
,
2000
0000
3002
0000
0203
0000
0320
0000
1030
0001
1000
0000
0020
0000
0030
0000
,
1001
0000
1000
0000
1010
0000
0010
0000
0100
0000
0001
1000
0001
0000
0100
0000
,
1010
0000
1000
0000
0001
0000
0100
0010
1000
0001
1000
0000
0010
0000
1001
0000
,
1000
0000
0010
0000
0100
0001
1000
0000
0010
0000
0100
0000
0101
0000
0001
0000
,
1000
0000
0100
0010
0001
1000
0001
0000
0100
0000
1001
0000
0001
0000
0100
0000
,
0010
1000
0001
0000
0100
0000
1010
0000
0010
0000
0100
0000
0001
0010
0100
1000
,
0001
0000
0100
0000
1010
0000
0010
0000
1000
0000
0010
0100
0001
0000
1000
0000
,
0010
0000
0000
0101
0000
0000
0001
0000
0000
1000
0000
0000
0010
0100
0001
1000
0010
1000
0001
0000
0000
0100
0000
0000
,
0010
0000
1010
0000
1000
0000
0100
0000
0010
0000
0001
0100
0001
0000
1000
0000
,
0010
0000
0110
0000
0100
0000
0001
0000
1000
0100
0010
0001
1000
0000
0010
0000
,
1000
0000
1001
0000
0001
0000
0100
0000
0010
0000
1000
0001
1000
0000
0100
0000
,
0010
0000
0000
0011
0000
0000
0001
0000
0000
1000
0000
0000
0010
0100
0001
1000
0010
1000
0001
0000
0000
0100
0000
0000
,
0010
0000
1000
0000
0100
0000
1000
0000
0001
0000
0100
0010
1000
0000
0001
0000
,
0010
0000
0100
1000
0010
0000
0100
0000
0001
0000
0010
0000
0100
0000
1000
0000
,
0010
0000
0000
0000
0000
0000
0100
0000
0000
0000
0000
0000
0001
0000
0000
0010
0000
0000
0100
0000
0000
1000
0000
0000
0010
0000
0100
0000
0001
0000
1000
0000
0100
0000
0010
0000
0001
0000
0000
0100
0000
0000
0010
0000
0000
0000
0000
0000
,
1000
0010
0100
0000
0002
0000
0000
0000
2003
0000
0000
0000
3010
0100
0001
1000
,
0100
0010
0001
0100
0010
1000
0001
0100
0001
0010
0100
1000
0010
0100
0001
1000
,
0100
0010
0001
1000
0010
1000
0001
0100
0010
1000
0100
0010
0001
0100
0010
1000
,
0001
0010
0100
1000
0010
0100
0010
1000
0001
0100
0001
1000
0010
0100
0001
1000
,
0100
0010
0001
0100
0010
1000
0010
0100
0001
0000
0010
0000
0100
1000
0001
0100
,
0010
1000
0001
0010
0001
0100
0010
1000
0100
1000
0001
0100
0010
1000
0100
0010
,
0001
0100
0010
1000
0001
0010
0001
1000
0100
0010
0001
0100
0010
1000
0001
0100
,
0010
1000
0100
0010
0001
0100
0001
1000
0010
0100
0001
1000
0100
0000
0010
0001
,
0100
0000
0000
0000
0000
0000
0010
0000
0000
0000
0000
0000
1000
0000
0000
0001
0000
0000
0100
0000
0000
0000
0000
0000
0010
0000
0000
0000
1000
0000
0001
0000
0000
0000
0100
0000
0010
0000
0000
1000
0000
0000
0001
0000
0000
0100
0000
0000
,
0010
1000
0001
0010
0001
1000
0100
0010
0001
0100
0010
1000
0001
0100
0001
1000
,
0010
1000
0001
0010
0001
0100
0010
1000
0100
0010
0001
0100
0010
1000
0010
0100
,
0001
1000
0001
0100
0010
0100
0001
1000
0001
0100
0010
1000
0100
0010
0001
1000
,
0100
1000
0010
0100
0001
1000
0100
0010
0001
0000
0100
0000
0010
1000
0001
0010
,
0001
0100
0010
1000
0100
0010
0001
1000
0010
1000
0001
0100
0001
1000
0100
0010
,
0001
0100
0010
1000
0001
0010
0001
1000
0100
1000
0001
0100
0010
1000
0010
0100
,
0001
1000
0100
0010
0001
0100
0010
1000
0010
0100
0001
1000
0001
0000
0100
0010
,
1000
0000
0000
0000
0000
0000
0001
0000
0000
0000
0000
0000
0200
0000
0000
0000
0000
0000
0000
0000
0000
0000
0000
0000
0310
0000
1000
0000
0010
0000
0100
0000
0001
0000
1000
0000
0010
0000
0000
0100
0000
0000
0001
0000
0000
0010
0000
0000
,
0001
1000
0100
1000
0010
0100
0001
1000
0100
0010
0001
0100
0010
1000
0001
0010
,
0001
1000
0100
0010
0001
0100
0010
1000
0010
0100
0001
1000
0001
0100
0010
1000
,
0100
0010
0001
1000
0010
1000
0001
0010
0001
0100
0010
1000
0100
0010
0001
1000
,
0010
1000
0100
0010
0001
0100
0010
1000
0001
0000
0010
0000
0100
1000
0001
0100
,
0010
1000
0010
0100
0001
0010
0001
1000
0100
0010
0001
0100
0010
1000
0001
0010
,
0001
0100
0010
1000
0100
0010
0001
1000
0010
1000
0001
0100
0001
1000
0100
0010
,
0001
0100
0010
1000
0001
0010
0001
0100
0010
0100
0001
1000
0001
0100
0010
1000
,
0100
0010
0001
0100
0010
0000
1000
0000
0001
0000
0100
0000
0001
1000
0010
1000
,
0100
0010
0001
0100
0010
1000
0001
0100
0001
0010
0100
1000
0010
0100
0001
1000
,
0100
0010
0001
1000
0010
1000
0001
0100
0010
1000
0100
0010
0001
0100
0010
1000
,
0001
0010
0100
1000
0010
0100
0010
1000
0001
0100
0001
1000
0010
0100
0001
1000
,
0100
0010
0001
0100
0010
1000
0010
0100
0001
0000
0010
0000
0100
1000
0001
0100
,
0010
1000
0001
0010
0001
0100
0010
1000
0100
1000
0001
0100
0010
0000
1000
0001
,
0200
0000
0000
0000
0000
0000
0310
0000
0000
1000
0000
0000
0001
0000
0000
0000
0000
0000
0100
0000
0000
0000
0000
0000
0010
0000
1000
0000
0001
0000
0100
0000
0001
0000
1000
0000
0010
0000
0000
0000
0000
0000
0100
0000
0000
0000
0000
0000
,
0001
0000
0000
1000
0000
0000
0010
0000
0000
0100
0000
0000
0010
0000
0000
1000
0000
0000
0001
0000
0000
0100
0000
0000
0001
0000
0010
0000
0100
0000
1000
0000
0010
0000
0100
0000
0002
0000
0000
0000
0000
0000
2003
0000
0000
0000
0000
0000
,
3020
0230
0302
0000
1000
0003
1100
0000
,
0110
0011
0000
1001
0000
2020
0000
0000
,
0000
0000
0000
0000
0000
0202
0000
0000
3030
0000
0000
0000
1303
0000
0010
0000
,
0100
0001
1000
0010
1000
0001
0010
0001
0200
0000
0000
0000
0320
0000
0030
0000
,
2000
0000
3000
0000
0002
0000
0000
0003
2010
0000
3000
0000
0001
1000
0010
0100
,
0001
0100
0010
1000
0100
0010
0001
1000
0010
1000
0001
0100
0001
1000
0100
0010
,
0001
0100
0010
1000
0001
0010
0001
1000
0100
1000
0001
0100
0010
1000
0010
0100
,
0001
0000
0000
1000
0000
0000
0100
0000
0000
0010
0000
0000
0001
0000
0000
0100
0000
0000
0010
0000
0000
1000
0000
0000
0010
0000
0000
0100
0000
0000
0001
0000
0000
1000
0000
0000
0001
0000
0000
0010
0000
0000
0100
0000
1000
0000
0001
0000
,
0100
0000
0000
0010
0000
0000
1000
0000
0001
0000
0010
0000
0100
0000
0000
1000
0000
0000
0001
0000
0000
0000
0000
0000
0200
0000
0000
0000
0000
0000
0000
0000
0000
0000
0000
0000
0310
0000
0000
1000
0000
0000
0001
0000
0000
0010
0000
0000
,
0001
1000
0100
1000
0010
0100
0001
1000
0100
0010
0001
0100
0010
1000
0001
0010
,
0001
1000
0100
0010
0001
0100
0010
1000
0010
0100
0001
1000
0001
0100
0010
1000
,
0100
0010
0001
1000
0010
1000
0001
0010
0001
0100
0010
1000
0100
0000
0010
0000
,
0001
0000
0100
0000
0010
0000
1000
0000
0002
0000
0003
0000
1000
0001
0100
0010
,
1000
0010
0100
0001
0010
0001
1000
0100
0010
0001
0100
0010
1000
0001
0010
0001
,
0100
0010
1000
0100
0010
0001
1000
0010
1000
0001
0100
0001
1000
0100
0010
0001
,
0100
0010
1000
0001
0010
0001
0100
0010
1000
0001
0100
0000
1001
0000
1001
0000
,
0110
0000
0000
0000
0000
0000
0000
0000
0000
0000
0000
0000
0000
0000
0000
0000
0000
0000
0000
0000
0000
0000
0000
0000
0110
0000
0000
0000
0000
0000
0000
0000
0000
0000
0000
0000
0000
0000
0000
0000
0000
0000
0000
0000
0000
0000
0000
0000
0201
0000
0000
0000
0000
0000
0000
0000
0000
0000
0000
0000
0000
0000
0000
0000
0000
0000
0000
0000
0000
0000
0000
0000
0000
0000
0000
0000
0000
0000
0300
0000
0000
0000
0000
0000
0000
0000
0000
0000
0000
0000
0000
0000
0000
0000
0000
0000
1002
0000
0000
0000
0000
0000
0000
0000
0000
0000
0000
0000
0000
0000
0000
0000
0000
0000
0000
0000
0000
0000
0000
0000
0000
0000
0000
0000
0000
0000
0000
0000
0000
0000
0000
0000
0000
0000
0000
0000
0000
0000
0000
0000
0000
0000
0000
0000
1003
0000
0000
0000
0000
0000
0000
0000
0000
0000
0000
0000
0000
0000
0000
0000
0000
0000
0000
0000
0000
0000
0000
0000
0000
0000
0000
0000
0000
0000
0000
0000
1000
0000
0000
0000
0000
0000
0000
0000
0000
0000
0000
0000
0000
0000
0000
0000
,
0100
0000
0100
0010
0000
0010
0001
1000
0010
0100
0001
1000
,
0100
0000
0100
0010
0000
0010
0001
0100
0010
1000
0000
1000
,
0010
0000
0010
0100
0000
0100
0001
0010
0100
1000
0010
0100
,
0001
0000
0000
0000
0001
0000
1000
0000
0000
0000
1000
0000
0010
0000
0100
0000
0001
0000
1000
0000
0000
0010
0000
0000
,
0100
0000
0001
0000
1000
0100
0010
0001
0400
0000
0000
0000
0320
0000
1030
0000
,
0002
0103
0020
2030
3002
0023
0130
1000
,
0001
0100
0010
1000
0001
0010
0100
1000
0010
0100
0001
1000
0200
0000
0310
0000
,
0004
0000
0103
0000
0010
1000
0010
0100
0004
0000
0000
0000
0000
0000
0000
0000
,
1003
0000
0100
0010
0000
0010
0001
0000
1000
0010
1000
0001
0400
0000
0000
0000
,
0000
0000
0320
2030
3200
2300
3004
0000
,
0000
0000
0000
0000
1003
0000
0010
0000
0100
0001
1000
0100
0020
0000
0031
0000
,
0100
0010
1000
0001
0200
0000
0320
0000
2030
0000
3002
0000
0013
0100
1000
0001
,
0200
0000
0000
0000
0310
1000
0100
0010
0001
0100
0010
1000
0001
0010
0001
0100
,
0010
1000
0100
0010
0001
1000
0010
1000
0001
0100
0010
1000
0100
0010
0001
1000
,
0100
1000
0010
0100
0001
0100
0010
1000
0100
0010
0001
1000
0100
1000
0010
0100
,
0001
1000
0100
0010
0001
0100
0010
1000
0001
0010
0001
1000
0100
0010
0001
0100
,
0010
1000
0010
0100
0001
1000
0001
0100
0010
1000
0100
0010
0001
0100
0010
1000
,
0001
0010
0001
1000
0100
0010
0001
0100
0010
1000
0001
0010
0001
0100
0010
1000
,
0001
1000
0010
0100
0001
0000
1100
0000
0000
0110
0000
0000
0011
0000
0000
0101
,
0000
0000
1000
0010
0000
0000
0101
0000
0000
1010
0000
0000
0002
0103
0010
2000
,
3100
0010
0002
1003
0M10
0000
0000
0000
0000
0000
0000
0000
0000
0000
0000
0000
,
M000
0000
0000
0000
0M00
0000
0000
0000
00M0
0000
000M
0000
1000
0100
0010
0000
,
0002
0000
0000
0000
1003
0000
0100
0000
0010
0000
0001
0000
1000
0000
0001
0100
,
0000
0001
0100
0000
0010
0000
1000
0100
1000
0000
0001
0000
0100
0000
0010
1000
,
0001
0000
0100
0010
1000
0000
0001
0000
0100
0000
0010
0000
1000
0000
0001
0100
,
0000
0001
0100
0000
0010
0000
1000
0000
0100
0000
0010
0000
0001
0000
1000
0010
,
0100
0000
0001
1000
0001
0000
0100
0000
0010
0000
1000
0000
0100
0000
1000
0001
,
0000
1000
0001
0000
0100
0000
0010
1000
0001
0000
0100
0000
0010
0000
0100
0001
,
1000
0000
0010
0100
0010
0000
1000
0000
0001
0000
0010
0000
0100
0000
1000
0001
,
0000
1000
0001
0000
0100
0000
0010
0000
1000
0000
0100
0000
1000
0000
0001
0100
,
0001
0000
1000
0010
1000
0000
0001
0000
0100
0000
0010
0000
1000
0000
0001
0100
,
0000
0001
0100
0000
0010
0000
1000
0100
1000
0000
0001
0000
0100
0000
0010
1000
,
0001
0000
0100
0010
1000
0000
0001
0000
0100
0000
0010
0000
1000
0000
0001
0100
,
0000
0001
0100
0000
0010
0000
1000
0000
0100
0000
0010
0000
0001
0000
1000
0010
,
0100
0000
0001
1000
0001
0000
0100
0000
0010
0000
1000
0000
0100
0000
1000
0001
,
0000
1000
0001
0000
0100
0000
0010
1000
0001
0000
0100
0000
0010
0000
0100
0001
,
1000
0000
0010
0100
0010
0000
1000
0000
0001
0000
0010
0000
0100
0000
1000
0001
,
0000
1000
0001
0000
0100
0000
0010
0000
1000
0000
0100
0000
1000
0000
0001
0100
,
0001
0000
1000
0001
1000
0000
0100
0000
0010
0000
0011
0000
0001
0000
0100
0000
,
0010
0000
1000
0001
1000
0000
0010
0000
0100
0000
0101
0000
0001
1000
0100
0000
,
0010
0001
1000
0000
0010
0000
0100
0000
0010
0000
1010
0000
1000
0000
0001
0000
,
0100
0000
0001
1000
0001
0100
0010
0000
1000
0001
1000
0000
0010
0000
0100
0001
,
0100
0000
0010
1000
0001
0000
0010
0000
0100
0000
1100
0000
1000
0000
0001
0000
,
0100
0000
0010
1000
0010
0000
0100
0000
0001
0000
1001
0000
1000
0100
0010
0000
,
0001
0010
0100
0000
1000
0000
0001
0000
0010
0000
0110
0000
0100
0000
1000
0000
,
0001
0000
1000
0010
0100
0001
0100
0000
0010
1000
0100
0000
0010
0000
0001
1000
,
0001
0010
0100
1000
0010
0110
0100
0001
,
1000
0000
0001
1000
0001
0000
0100
0000
0010
0000
1010
0000
1000
0100
0010
0000
,
0001
0100
0010
0000
1000
0000
0100
0000
0010
0000
0011
0000
0001
0000
0100
0000
,
0010
0000
1000
0100
0010
0001
0100
0000
0010
1000
0100
0000
0010
0000
0001
0100
,
0010
0000
1000
0001
1000
0000
0100
0000
0010
0000
0001
0000
0011
0000
0010
0000
,
0100
1000
1010
0010
0100
0001
0101
0100
,
0010
0000
1000
0000
0001
0000
0100
0000
0001
0000
0010
0000
0100
1000
0001
0100
,
0010
1000
0010
0100
0002
0000
0103
0000
0020
0000
2030
0000
3002
0000
0203
0000
,
0320
0000
0000
0000
1030
0100
0010
0001
0100
0010
1000
0001
0100
0010
1000
0100
,
0010
0001
1000
0010
1000
0100
0010
0001
0100
0010
0100
0001
1000
0010
1000
0001
,
0010
0000
0000
0100
0000
0000
1000
0000
0000
0010
0000
0000
1000
0000
0000
0100
0000
0000
0010
0000
0000
0001
0000
0000
0100
0000
0000
0001
0000
0000
1000
0000
0000
0010
0000
0000
1000
0000
0000
0000
0000
0000
0001
0000
0010
0000
0100
0000
,
1000
0000
0000
0010
0100
0001
1000
0000
0000
1010
0000
0000
0000
0000
0000
0101
0000
0000
1001
0000
0000
0010
0000
0000
,
0200
0000
0000
0000
0301
0010
0100
1000
0010
0100
0001
0100
0010
1000
0001
0100
,
0001
0010
0100
1000
0010
0100
0001
1000
0100
0010
0001
1000
0010
1000
0001
0100
,
0010
1000
0100
0010
0001
0100
0010
1000
0001
0010
0100
1000
0010
0100
0010
1000
,
0001
0100
0001
1000
0010
0100
0001
1000
0100
0010
0001
0100
0010
1000
0010
0100
,
0001
0000
0010
0000
0100
1000
0001
0100
0010
1000
0001
0010
0001
0100
0010
1000
,
0100
1000
0001
0100
0010
1000
0100
0010
0001
0100
0010
1000
0001
0010
0001
1000
,
0100
0010
0001
0100
0010
1000
0001
0100
0010
1000
0100
0010
0001
0100
0001
1000
,
0010
0100
0001
1000
0100
0000
0010
0001
0100
0000
0010
0000
1000
0001
0100
0000
,
0010
0000
0000
0000
1000
0000
0001
0000
0000
0000
0100
0000
0010
0000
0000
1000
0000
0000
0001
0000
0000
0100
0000
0000
0010
0000
0000
1000
0000
0000
0001
0000
0000
0010
0000
0000
0001
0000
0000
1000
0000
0000
0100
0000
0000
0010
0000
0000
,
0001
0100
0010
1000
0001
0100
0001
1000
0010
1000
0001
0010
0001
0100
0010
1000
,
0100
0010
0001
0100
0010
1000
0010
0100
0001
1000
0001
0100
0010
0100
0001
1000
,
0001
0100
0010
1000
0100
0010
0001
1000
0100
1000
0010
0100
0001
1000
0100
0010
,
0001
0000
0100
0000
0010
1000
0001
0010
0001
0100
0010
1000
0100
0010
0001
1000
,
0010
1000
0001
0100
0001
1000
0100
0010
0001
0100
0010
1000
0001
0010
0001
1000
,
0100
1000
0001
0100
0010
1000
0010
0100
0001
1000
0100
0010
0001
0100
0010
1000
,
0010
0100
0001
1000
0001
0000
0100
0010
1000
0000
0001
0000
0200
0000
0000
0000
,
0310
0000
1000
0000
0010
0000
0100
0000
0001
0000
1000
0000
0010
0000
0000
0100
0000
0000
0001
0000
0000
0010
0000
0000
0001
0000
0000
1000
0000
0000
0100
0000
0000
1000
0000
0000
0010
0000
0000
0100
0000
0000
0001
0000
0000
1000
0000
0000
,
0100
0010
0001
0100
0010
1000
0001
0010
0001
1000
0100
0010
0001
0100
0010
1000
,
0010
0100
0001
1000
0001
0100
0010
1000
0100
0010
0001
1000
0010
1000
0001
0010
,
0001
0100
0010
1000
0100
0010
0001
1000
0010
1000
0100
0010
0001
0100
0010
1000
,
0001
0000
0010
0000
0100
1000
0001
0100
0010
1000
0010
0100
0001
0010
0001
1000
,
0100
0010
0001
0100
0010
1000
0001
0010
0001
0100
0010
1000
0100
0010
0001
1000
,
0010
1000
0001
0100
0001
1000
0100
0010
0001
0100
0010
1000
0001
0010
0001
0100
,
0010
0100
0001
1000
0001
0100
0010
1000
0100
0010
0001
0100
0010
0000
1000
0000
,
0001
0000
0100
0000
0001
1000
0010
1000
0100
0010
0001
0100
0010
1000
0001
0100
,
0001
0010
0100
1000
0010
0100
0001
1000
0100
0010
0001
0100
0010
1000
0001
0100
,
0010
1000
0100
0010
0001
0100
0010
1000
0001
0010
0100
1000
0010
0100
0010
1000
,
0001
0100
0001
1000
0010
0100
0001
1000
0100
0010
0001
0100
0010
1000
0010
0100
,
0001
0000
0010
0000
0100
1000
0001
0100
0010
1000
0001
0010
0001
0100
0010
1000
,
0100
1000
0001
0100
0010
0000
1000
0001
0200
0000
0310
1000
0001
0000
0100
0000
,
0010
0000
1000
0000
0001
0000
0100
0000
0001
0000
1000
0000
0010
0000
0000
0000
0000
0000
0100
0000
0000
0000
0000
0000
0001
0000
0000
1000
0000
0000
0010
0000
0000
0100
0000
0000
0010
0000
0000
1000
0000
0000
0001
0000
0000
0100
0000
0000
,
0001
0010
0100
1000
0010
0100
0001
0000
0000
0000
0000
0000
1020
0000
0000
2030
0000
0000
3002
0000
0000
0103
0000
0000
,
2000
0000
0000
0000
3001
0100
0010
0000
2000
0000
3000
0000
0001
0010
0100
1000
,
0010
0100
0001
1000
0010
1000
0001
0100
0001
0010
0100
1000
0010
0100
0001
1000
,
0100
0010
0001
1000
0010
1000
0001
0100
0010
1000
0100
0010
0001
0100
0010
1000
,
0001
0010
0100
1000
0010
0100
0010
1000
0001
0100
0001
1000
0010
0100
0001
1000
,
0100
0010
0001
0100
0010
1000
0010
0100
0001
0010
0100
1000
0010
0100
0001
1000
,
0010
1000
0001
0100
0001
0010
0100
1000
0010
0100
0001
1000
0100
0010
0001
1000
,
0010
1000
0001
0100
0010
1000
0100
0010
0001
0100
0010
1000
0001
0010
0100
1000
,
0010
0100
0010
1000
0001
0100
0001
1000
0010
0100
0001
1000
0100
0010
0001
0100
,
0010
1000
0010
0100
0001
0010
0100
1000
0010
0100
0001
1000
0010
1000
0001
0100
,
0001
0010
0100
1000
0010
0100
0001
1000
0100
0010
0001
1000
0010
1000
0001
0100
,
0010
1000
0100
0010
0001
0100
0010
1000
0001
0010
0100
1000
0010
0100
0010
1000
,
0001
0100
0001
1000
0010
0100
0001
1000
0100
0010
0001
0100
0010
1000
0010
0100
,
0001
1000
0010
0100
0001
1000
0100
0010
0001
0010
0100
1000
0010
0100
0001
1000
,
0010
1000
0001
0100
0001
0010
0100
1000
0010
0100
0001
1000
0100
0010
0001
1000
,
0010
1000
0001
0100
0010
1000
0100
0010
0001
0100
0010
1000
0001
0010
0100
1000
,
0010
0100
0010
1000
0001
0100
0001
1000
0010
0100
0001
1000
0200
0000
0300
0000
,
0010
0001
2000
0000
3010
0000
2002
0000
,
0000
0000
0000
0000
,
0000
0000
0M00
0000
0000
0000
00M0
0000
0000
0000
0000
0000
0000
0000
0000
0000
0000
0000
0000
0000
0000
0000
0000
0000
3MM3
0MM0
0MM0
0MM0
0MM0
0MM0
0MM0
0MM0
,
0MM0
0000
0000
0000
;
