#TITLE:Safe And Sound;
#SUBTITLE:Sexuality Violation;
#ARTIST:Capital Cities;
#TITLETRANSLIT:;
#SUBTITLETRANSLIT:;
#ARTISTTRANSLIT:;
#CREDIT:;
#BANNER:safe and sound bn.png;
#BACKGROUND:safe and sound bg.png;
#LYRICSPATH:;
#CDTITLE:;
#MUSIC:Safe And Sound.ogg;
#OFFSET:-1.135;
#SAMPLESTART:58.103;
#SAMPLELENGTH:16.273;
#SELECTABLE:YES;
#DISPLAYBPM:236.000;
#BPMS:0.000=236.000;
#STOPS:;
#BGCHANGES:;
// cache tags:
#FIRSTBEAT:0.000;
#LASTBEAT:740.000;
#SONGFILENAME:Songs/Sexuality Violation 2/Safe And Sound - [Tyler]/safe and sound.sm;
#HASMUSIC:1;
#HASBANNER:1;
#MUSICLENGTH:191.334;
// end cache tags

//---------------dance-single - T. Moore----------------
#NOTES:
     dance-single:
     T. Moore:
     Challenge:
     18:
     1.000,1.000,0.240,0.120,1.000,1764.000,46.000,23.000,0.000,0.000:
1000
0100
0011
1000
,
0001
0100
1010
0001
,
0010
0100
1001
1000
,
0010
0100
0101
0001
,
1000
0100
0011
0001
,
1000
0010
0101
1000
,
0100
0010
0011
0001
,
1000
1010
0011
1000
,
0100
0010
1001
0001
,
1000
0010
0101
1000
,
0100
0010
1001
0001
,
0100
0010
1010
1000
,
0001
0010
1100
1000
,
0001
0100
1010
0001
,
0010
0100
1100
1000
,
0001
0010
1100
0000
,
1001
0001
0011
0010
,
0100
1000
1010
0010
,
0100
0001
0011
0010
,
0100
1000
1010
0010
,
0110
0100
0101
0001
,
1001
1000
1100
0100
,
0110
0010
0011
0001
,
1001
1010
1100
0100
,
0010
0001
0101
0100
,
0010
1000
1100
0100
,
0010
0001
1001
1000
,
0010
0100
0101
0001
,
0100
0010
1010
1000
,
0001
0010
1100
1000
,
0001
0100
0110
0010
,
1000
0001
0010
0000
,
2100
3000
0002
0003
,
0200
0320
2030
3200
,
0300
0020
0030
0020
,
0032
0203
0320
0030
,
2000
3000
0200
0300
,
2000
3002
0203
0320
,
0030
0000
0000
0000
2000
0000
0000
0000
3000
0000
0000
0000
1000
0000
0000
1000
,
0001
1000
0001
0000
0100
0000
0000
0000
,
0001
1000
0001
0100
0010
1000
0001
1000
0100
0010
0100
1000
,
0001
0010
0001
1000
0001
1000
0010
0100
0001
1000
0001
0100
,
0010
1000
0001
1000
0100
1000
0001
0010
0001
1000
0001
0100
,
0010
1000
0001
0010
0100
0010
0001
1000
0001
0010
0100
1000
,
0001
0100
0001
1000
0010
0100
0001
0100
0010
1000
0001
1000
,
0001
0010
0100
1000
0100
0010
0001
1000
0001
0100
0010
1000
,
0010
0100
0001
1000
0100
1000
0001
0010
0001
1000
0001
1000
,
0010
0100
0001
1000
0010
1000
0100
0010
0001
1000
0001
0010
,
0100
1000
0001
0010
0001
1000
0001
0100
0010
1000
0010
0100
,
0001
1000
0010
1000
0001
1000
0100
0010
0100
1000
0001
0010
,
0001
1000
0001
0100
0010
1000
0001
1000
0010
0100
0001
1000
,
0100
1000
0001
0010
0001
1000
0010
0100
0001
1000
0001
0100
,
0010
1000
0001
1000
0100
1000
0001
0010
0001
1000
0100
1000
,
0001
0010
0001
0100
0010
1000
0001
1000
0010
0100
0001
1000
,
0010
1000
0001
1000
0100
0010
0001
1000
0001
0010
0100
1000
,
0001
0100
0001
1000
0010
1000
0100
0010
0001
1000
0001
1000
,
0001
0100
0010
1000
0001
1000
0010
0100
0001
1000
0010
1000
0001
1000
0100
0010
,
0001
1000
0100
1000
0001
0010
0100
1000
0001
0010
0001
1000
0100
0010
0001
1000
,
0001
0100
0010
1000
0001
1000
0010
0100
0001
0100
0001
1000
0100
0010
0100
1000
,
0001
0010
0001
1000
0001
0100
0010
1000
0100
0010
0001
1000
0001
0100
0010
1000
,
0001
0010
0100
1000
0001
1000
0100
0010
0001
1000
0100
1000
0001
1000
0010
0100
,
0001
1000
0010
1000
0001
0100
0010
1000
0001
0100
0001
1000
0010
0100
0001
1000
,
0001
0010
0100
1000
0001
1000
0100
0010
0001
1000
0001
1000
0010
0100
0010
1000
,
0100
0010
0001
1000
0001
0010
0100
1000
0010
0100
0001
1000
0001
0010
0100
1000
,
0001
0100
0010
1000
0001
1000
0010
0100
0001
1000
0010
1000
0001
1000
0100
0010
,
0001
1000
0100
1000
0001
0010
0100
1000
0001
0010
0001
1000
0100
0010
0001
1000
,
0001
0100
0010
1000
0001
1000
0010
0100
0001
0100
0001
1000
0100
0010
0100
1000
,
0001
0010
0001
1000
0001
0100
0010
1000
0100
0010
0001
1000
0001
0100
0010
1000
,
0001
0010
0100
1000
0001
1000
0100
0010
0001
1000
0100
1000
0001
1000
0010
0100
,
0001
1000
0010
1000
0001
0100
0010
1000
0001
0100
0001
1000
0010
0100
0001
1000
,
0001
0010
0100
1000
0001
1000
0100
0010
0001
1000
0001
1000
0010
0100
0010
1000
,
0200
0000
0000
0300
0000
0000
0020
0000
0000
0030
0000
0000
0002
0000
0000
0000
0000
0000
0003
0000
0000
0000
0001
0000
,
1000
0010
0100
0001
,
0100
0000
0000
0010
0000
0000
1000
0000
0000
1000
0000
0001
,
1000
0100
0010
0100
,
1000
0000
0000
0001
0000
0000
0100
0000
0000
0100
0000
0001
,
0100
0010
1000
0001
,
0001
0000
0000
0010
0000
0000
0010
0000
0000
0100
0000
1000
,
0100
0010
0010
0001
,
0001
0000
0000
0100
0000
0000
0010
0000
0000
1000
0000
1000
,
0001
0010
0100
1000
,
0100
0000
0000
0010
0000
0000
0001
0000
0000
0001
0000
1000
,
0010
0100
0001
0100
,
0010
0000
0000
1000
0000
0000
0100
0000
0000
0100
0000
0010
,
0100
1000
0001
0100
,
0010
0000
0000
1000
0000
0000
1000
0000
0000
0001
0000
1000
,
0001
0000
0000
0000
0100
0000
0000
0000
0010
0000
0000
0000
1000
0000
0000
1000
,
0001
1000
0100
0000
0010
0000
0000
0000
,
1001
1000
0010
0100
0010
0010
0001
0010
,
0100
1000
0010
0100
0010
0010
0001
0010
,
0100
1000
0010
0100
0010
0010
0001
0010
,
0100
1000
0010
0100
0010
0010
0001
0010
,
0100
1000
0010
0100
0010
0010
0001
0010
,
0100
1000
0010
0100
0010
0010
0001
0010
,
0100
1000
0010
0100
0001
1000
0010
1000
,
0100
0011
1010
0000
,
1001
0001
0100
0010
0100
0100
1000
0100
,
0010
0001
0100
0010
0100
0100
1000
0100
,
0010
0001
0100
0010
0100
0100
1000
0100
,
0010
0001
0100
0010
0100
0100
1000
0100
,
0010
0001
0100
0010
0100
0100
1000
0100
,
0010
0001
0100
0010
0100
0100
1000
0100
,
0010
0001
0100
0010
1000
0001
0100
0001
,
0010
1100
0101
0000
,
0001
0100
0010
1000
0001
1000
0010
0100
0001
1000
0010
1000
0001
1000
0100
0010
,
0001
1000
0100
1000
0001
0010
0100
1000
0001
0010
0001
1000
0100
0010
0001
1000
,
0001
0100
0010
1000
0001
1000
0010
0100
0001
0100
0001
1000
0100
0010
0100
1000
,
0001
0010
0001
1000
0001
0100
0010
1000
0100
0010
0001
1000
0001
0100
0010
1000
,
0001
0010
0100
1000
0001
1000
0100
0010
0001
1000
0100
1000
0001
1000
0010
0100
,
0001
1000
0010
1000
0001
0100
0010
1000
0001
0100
0001
1000
0010
0100
0001
1000
,
0001
0010
0100
1000
0001
1000
0100
0010
0001
1000
0001
1000
0010
0100
0010
1000
,
0100
0010
0001
1000
0001
0010
0100
1000
0010
0100
0001
1000
0001
0010
0100
1000
,
0001
0100
0010
1000
0001
1000
0010
0100
0001
1000
0010
1000
0001
1000
0100
0010
,
0001
1000
0100
1000
0001
0010
0100
1000
0001
0010
0001
1000
0100
0010
0001
1000
,
0001
0100
0010
1000
0001
1000
0010
0100
0001
0100
0001
1000
0100
0010
0100
1000
,
0001
0010
0001
1000
0001
0100
0010
1000
0100
0010
0001
1000
0001
0100
0010
1000
,
0001
0010
0100
1000
0001
1000
0100
0010
0001
1000
0100
1000
0001
1000
0010
0100
,
0001
1000
0010
1000
0001
0100
0010
1000
0001
0100
0001
1000
0010
0100
0001
1000
,
0001
0010
0100
1000
0001
1000
0100
0010
0001
1000
0001
1000
0010
0100
0010
1000
,
0001
1000
0100
1000
0001
0010
0001
1000
0010
0100
0001
1000
0100
1000
0001
0010
,
0100
0000
1000
0100
,
2000
0000
0010
3010
,
0100
0000
0100
0000
,
0100
0000
0001
0001
,
0001
0100
0010
1000
,
0001
1000
0100
0010
,
0010
0001
1000
0001
,
0100
0010
1000
0001
,
1000
0000
0100
1000
,
0100
0000
0010
0010
,
0001
0000
0001
0000
,
0001
0000
1000
0001
,
1000
0100
0010
0001
,
1000
0010
0100
0001
,
1001
0000
0000
0000
,
0000
0000
0000
0000
,
1000
0001
1000
0010
0100
0001
1000
0001
0010
0100
0010
0001
,
1000
0100
1000
0001
1000
0001
0100
0010
1000
0001
1000
0010
,
0100
0001
1000
0001
0010
0001
1000
0100
1000
0001
1000
0010
,
0100
0001
1000
0100
0010
0100
1000
0001
1000
0100
0010
0001
,
1000
0010
1000
0001
0100
0010
1000
0010
0100
0001
1000
0001
,
1000
0100
0010
0001
0010
0100
1000
0001
1000
0010
0100
0001
,
0100
0010
1000
0001
0010
0001
1000
0100
1000
0001
1000
0001
,
0100
0010
1000
0001
0100
0001
0010
0100
1000
0001
1000
0100
,
0010
0001
1000
0100
1000
0001
1000
0010
0100
0001
0100
0010
,
1000
0001
0100
0001
1000
0001
0010
0100
0010
0001
1000
0100
,
1000
0001
1000
0010
0100
0001
1000
0001
0100
0010
1000
0001
,
0010
0001
1000
0100
1000
0001
0100
0010
1000
0001
1000
0010
,
0100
0001
1000
0001
0010
0001
1000
0100
1000
0001
0010
0001
,
1000
0100
1000
0010
0100
0001
1000
0001
0100
0010
1000
0001
,
0100
0001
1000
0001
0010
0100
1000
0001
1000
0100
0010
0001
,
1000
0010
1000
0001
0100
0001
0010
0100
1000
0001
1000
0001
,
1000
0010
0100
0001
1000
0001
0100
0010
1000
0001
0100
0001
1000
0001
0010
0100
,
1000
0001
0010
0001
1000
0100
0010
0001
1000
0100
1000
0001
0010
0100
1000
0001
,
1000
0010
0100
0001
1000
0001
0100
0010
1000
0010
1000
0001
0010
0100
0010
0001
,
1000
0100
1000
0001
1000
0010
0100
0001
0010
0100
1000
0001
1000
0010
0100
0001
,
1000
0100
0010
0001
1000
0001
0010
0100
1000
0001
0010
0001
1000
0001
0100
0010
,
1000
0001
0100
0001
1000
0010
0100
0001
1000
0010
1000
0001
0100
0010
1000
0001
,
1000
0100
0010
0001
1000
0001
0010
0100
1000
0001
1000
0001
0100
0010
0100
0001
,
0010
0100
1000
0001
1000
0100
0010
0001
0100
0010
1000
0001
1000
0100
0010
0001
,
1000
0010
0100
0001
1000
0001
0100
0010
1000
0001
0100
0001
1000
0001
0010
0100
,
1000
0001
0010
0001
1000
0100
0010
0001
1000
0100
1000
0001
0010
0100
1000
0001
,
1000
0010
0100
0001
1000
0001
0100
0010
1000
0010
1000
0001
0010
0100
0010
0001
,
1000
0100
1000
0001
1000
0010
0100
0001
0010
0100
1000
0001
1000
0010
0100
0001
,
1000
0100
0010
0001
1000
0001
0010
0100
1000
0001
0010
0001
1000
0001
0100
0010
,
1000
0001
0100
0001
1000
0010
0100
0001
1000
0010
1000
0001
0100
0010
1000
0001
,
1000
0100
0010
0001
1000
0001
0010
0100
1000
0001
1000
0001
0100
0010
0100
0001
,
0010
0100
1000
0000
0001
0000
0000
0000
,
0001
0100
0010
1000
0001
1000
0010
0100
0001
1000
0010
1000
0001
1000
0100
0010
,
0001
1000
0100
1000
0001
0010
0100
1000
0001
0010
0001
1000
0100
0010
0001
1000
,
0001
0100
0010
1000
0001
1000
0010
0100
0001
0100
0001
1000
0100
0010
0100
1000
,
0001
0010
0001
1000
0001
0100
0010
1000
0100
0010
0001
1000
0001
0100
0010
1000
,
0001
0010
0100
1000
0001
1000
0100
0010
0001
1000
0100
1000
0001
1000
0010
0100
,
0001
1000
0010
1000
0001
0100
0010
1000
0001
0100
0001
1000
0010
0100
0001
1000
,
0001
0010
0100
1000
0001
1000
0100
0010
0001
1000
0001
1000
0010
0100
0010
1000
,
0100
0010
0001
1000
0001
0010
0100
1000
0010
0100
0001
1000
0001
0010
0100
1000
,
0001
0100
0010
1000
0001
1000
0010
0100
0001
1000
0010
1000
0001
1000
0100
0010
,
0001
1000
0100
1000
0001
0010
0100
1000
0001
0010
0001
1000
0100
0010
0001
1000
,
0001
0100
0010
1000
0001
1000
0010
0100
0001
0100
0001
1000
0100
0010
0100
1000
,
0001
0010
0001
1000
0001
0100
0010
1000
0100
0010
0001
1000
0001
0100
0010
1000
,
0001
0010
0100
1000
0001
1000
0100
0010
0001
1000
0100
1000
0001
1000
0010
0100
,
0001
1000
0010
1000
0001
0100
0010
1000
0001
0100
0001
1000
0010
0100
0001
1000
,
0001
0010
0100
1000
0001
1000
0100
0010
0001
1000
0001
1000
0010
0100
0010
1000
,
0100
0010
0100
1000
0001
0100
0001
1000
0200
0000
0000
0000
0000
0000
0000
0000
,
0300
0000
0000
0000
;

//---------------dance-single - T. Moore----------------
#NOTES:
     dance-single:
     T. Moore:
     Hard:
     17:
     1.000,1.000,0.246,0.120,1.000,1640.000,47.000,23.000,0.000,0.000:
1000
0100
0011
1000
,
0001
0100
1010
0001
,
0010
0100
1001
1000
,
0010
0100
0101
0001
,
1000
0100
0011
0001
,
1000
0010
0101
1000
,
0100
0010
0011
0001
,
1000
1010
0011
1000
,
0100
0010
1001
0001
,
1000
0010
0101
1000
,
0100
0010
1001
0001
,
0100
0010
1010
1000
,
0001
0010
1100
1000
,
0001
0100
1010
0001
,
0010
0100
1100
1000
,
0001
0010
1100
0000
,
1001
0001
0011
0010
,
0100
1000
1010
0010
,
0100
0001
0011
0010
,
0100
1000
1010
0010
,
0110
0100
0101
0001
,
1001
1000
1100
0100
,
0110
0010
0011
0001
,
1001
1010
1100
0100
,
0010
0001
0101
0100
,
0010
1000
1100
0100
,
0010
0001
1001
1000
,
0010
0100
0101
0001
,
0100
0010
1010
1000
,
0001
0010
1100
1000
,
0001
0100
0110
0010
,
1000
0001
0011
0000
,
2100
3000
0002
0003
,
0200
0320
2030
3200
,
0300
0020
0030
0020
,
0032
0203
0320
0030
,
2000
3000
0200
0300
,
2000
3002
0203
0320
,
0030
0000
0000
0000
2000
0000
0000
0000
3000
0000
0000
0000
1000
0000
0000
1000
,
0001
1000
0001
0000
0100
0000
0000
0000
,
0001
1000
0001
0100
0010
1000
0001
1000
0100
0010
0100
1000
,
0001
0010
0001
1000
0001
1000
0010
0100
0001
1000
0001
0100
,
0010
1000
0001
1000
0100
1000
0001
0010
0001
1000
0001
0100
,
0010
1000
0001
0010
0100
0010
0001
1000
0001
0010
0100
1000
,
0001
0100
0001
1000
0010
0100
0001
0100
0010
1000
0001
1000
,
0001
0010
0100
1000
0100
0010
0001
1000
0001
0100
0010
1000
,
0010
0100
0001
1000
0100
1000
0001
0010
0001
1000
0001
1000
,
0010
0100
0001
1000
0010
1000
0100
0010
0001
1000
0001
0010
,
0100
1000
0001
0010
0001
1000
0001
0100
0010
1000
0010
0100
,
0001
1000
0010
1000
0001
1000
0100
0010
0100
1000
0001
0010
,
0001
1000
0001
0100
0010
1000
0001
1000
0010
0100
0001
1000
,
0100
1000
0001
0010
0001
1000
0010
0100
0001
1000
0001
0100
,
0010
1000
0001
1000
0100
1000
0001
0010
0001
1000
0100
1000
,
0001
0010
0001
0100
0010
1000
0001
1000
0010
0100
0001
1000
,
0010
1000
0001
1000
0100
0010
0001
1000
0001
0010
0100
1000
,
0001
0100
0001
1000
0010
1000
0100
0010
0001
1000
0001
1000
,
0001
0100
0010
1000
0001
1000
0010
0100
0001
1000
0010
1000
0001
1000
0100
0010
,
0001
1000
0100
1000
0001
0010
0100
1000
0001
0010
0001
1000
0100
0010
0001
1000
,
0001
0100
0010
1000
0001
1000
0010
0100
0001
0100
0001
1000
0100
0010
0100
1000
,
0001
0010
0001
1000
0001
0100
0010
1000
0100
0010
0001
1000
0001
0100
0010
1000
,
0001
0010
0100
1000
0001
1000
0100
0010
0001
1000
0100
1000
0001
1000
0010
0100
,
0001
1000
0010
1000
0001
0100
0010
1000
0001
0100
0001
1000
0010
0100
0001
1000
,
0001
0010
0100
1000
0001
1000
0100
0010
0001
1000
0001
1000
0010
0100
0010
1000
,
0100
0010
0001
1000
0001
0010
0100
1000
0010
0100
0001
1000
0001
0010
0100
1000
,
0001
0100
0010
1000
0001
1000
0010
0100
0001
1000
0010
1000
0001
1000
0100
0010
,
0001
1000
0100
1000
0001
0010
0100
1000
0001
0010
0001
1000
0100
0010
0001
1000
,
0001
0100
0010
1000
0001
1000
0010
0100
0001
0100
0001
1000
0100
0010
0100
1000
,
0001
0010
0001
1000
0001
0100
0010
1000
0100
0010
0001
1000
0001
0100
0010
1000
,
0001
0010
0100
1000
0001
1000
0100
0010
0001
1000
0100
1000
0001
1000
0010
0100
,
0001
1000
0010
1000
0001
0100
0010
1000
0001
0100
0001
1000
0010
0100
0001
1000
,
0001
0010
0100
1000
0001
1000
0100
0010
0001
1000
0001
1000
0010
0100
0010
1000
,
0200
0000
0000
0300
0000
0000
0020
0000
0000
0030
0000
0000
0002
0000
0000
0000
0000
0000
0003
0000
0000
0000
0001
0000
,
1000
0010
0100
0001
,
0100
0000
0000
0010
0000
0000
1000
0000
0000
1000
0000
0001
,
1000
0100
0010
0100
,
1000
0000
0000
0001
0000
0000
0100
0000
0000
0100
0000
0001
,
0100
0010
1000
0001
,
0001
0000
0000
0010
0000
0000
0010
0000
0000
0100
0000
1000
,
0100
0010
0010
0001
,
0001
0000
0000
0100
0000
0000
0010
0000
0000
1000
0000
1000
,
0001
0010
0100
1000
,
0100
0000
0000
0010
0000
0000
0001
0000
0000
0001
0000
1000
,
0010
0100
0001
0100
,
0010
0000
0000
1000
0000
0000
0100
0000
0000
0100
0000
0010
,
0100
1000
0001
0100
,
0010
0000
0000
1000
0000
0000
1000
0000
0000
0001
0000
1000
,
0001
0000
0000
0000
0100
0000
0000
0000
0010
0000
0000
0000
1000
0000
0000
1000
,
0001
1000
0100
0000
0010
0000
0000
0000
,
1001
1000
0010
0100
0010
0010
0001
0010
,
0100
1000
0010
0100
0010
0010
0001
0010
,
0100
1000
0010
0100
0010
0010
0001
0010
,
0100
1000
0010
0100
0010
0010
0001
0010
,
0100
1000
0010
0100
0010
0010
0001
0010
,
0100
1000
0010
0100
0010
0010
0001
0010
,
0100
1000
0010
0100
0001
1000
0010
1000
,
0100
0011
1010
0000
,
1001
0001
0100
0010
0100
0100
1000
0100
,
0010
0001
0100
0010
0100
0100
1000
0100
,
0010
0001
0100
0010
0100
0100
1000
0100
,
0010
0001
0100
0010
0100
0100
1000
0100
,
0010
0001
0100
0010
0100
0100
1000
0100
,
0010
0001
0100
0010
0100
0100
1000
0100
,
0010
0001
0100
0010
1000
0001
0100
0001
,
0010
1100
0101
0000
,
0001
1000
0001
0100
0010
1000
0001
1000
0100
0010
0100
1000
,
0001
0010
0001
1000
0001
1000
0010
0100
0001
1000
0001
0100
,
0010
1000
0001
1000
0100
1000
0001
0010
0001
1000
0001
0100
,
0010
1000
0001
0010
0100
0010
0001
1000
0001
0010
0100
1000
,
0001
0100
0001
1000
0010
0100
0001
0100
0010
1000
0001
1000
,
0001
0010
0100
1000
0100
0010
0001
1000
0001
0100
0010
1000
,
0010
0100
0001
1000
0100
1000
0001
0010
0001
1000
0001
1000
,
0010
0100
0001
0010
0100
1000
0010
0100
0001
1000
0001
1000
,
0100
0010
0001
1000
0001
0010
0001
1000
0010
0100
0001
1000
,
0001
0100
0010
1000
0001
1000
0100
0010
0100
1000
0001
0010
,
0001
1000
0001
0100
0010
1000
0001
1000
0010
0100
0001
1000
,
0100
1000
0001
0010
0001
1000
0010
0100
0001
1000
0001
0100
,
0010
1000
0001
1000
0100
1000
0001
0010
0001
1000
0100
1000
,
0001
0010
0001
0100
0010
1000
0001
1000
0010
0100
0001
1000
,
0010
1000
0001
1000
0100
0010
0001
1000
0001
0010
0100
1000
,
0001
0100
0001
1000
0010
1000
0100
0010
0001
1000
0001
1000
,
0100
0000
0001
0100
,
0002
0000
0010
0013
,
0100
0000
0100
0000
,
0100
0000
1000
1000
,
1000
0010
0100
0001
,
1000
0001
0010
0100
,
0100
1000
0001
1000
,
0010
0100
0001
1000
,
0001
0000
0010
0001
,
0010
0000
0100
0100
,
1000
0000
1000
0000
,
1000
0000
0001
1000
,
0001
0010
0100
1000
,
0001
0100
0010
1000
,
1001
0000
0000
0000
,
0000
0000
0000
0000
,
0001
1000
0001
0100
0010
1000
0001
1000
0100
0010
0100
1000
,
0001
0010
0001
1000
0001
1000
0010
0100
0001
1000
0001
0100
,
0010
1000
0001
1000
0100
1000
0001
0010
0001
1000
0001
0100
,
0010
1000
0001
0010
0100
0010
0001
1000
0001
0010
0100
1000
,
0001
0100
0001
1000
0010
0100
0001
0100
0010
1000
0001
1000
,
0001
0010
0100
1000
0100
0010
0001
1000
0001
0100
0010
1000
,
0010
0100
0001
1000
0100
1000
0001
0010
0001
1000
0001
1000
,
0010
0100
0001
1000
0010
1000
0100
0010
0001
1000
0001
0010
,
0100
1000
0001
0010
0001
1000
0001
0100
0010
1000
0010
0100
,
0001
1000
0010
1000
0001
1000
0100
0010
0100
1000
0001
0010
,
0001
1000
0001
0100
0010
1000
0001
1000
0010
0100
0001
1000
,
0100
1000
0001
0010
0001
1000
0010
0100
0001
1000
0001
0100
,
0010
1000
0001
1000
0100
1000
0001
0010
0001
1000
0100
1000
,
0001
0010
0001
0100
0010
1000
0001
1000
0010
0100
0001
1000
,
0010
1000
0001
1000
0100
0010
0001
1000
0001
0010
0100
1000
,
0001
0100
0001
1000
0010
1000
0100
0010
0001
1000
0001
1000
,
0001
0010
0001
1000
0010
1000
0100
0010
0001
1000
0001
0010
,
0100
1000
0001
0100
0001
1000
0010
0100
0001
0010
0001
1000
,
0010
0100
0001
1000
0100
1000
0001
0010
0001
1000
0001
0100
,
0010
1000
0001
0010
0100
0010
0001
1000
0001
0010
0100
1000
,
0001
0100
0001
1000
0010
0100
0001
0100
0010
1000
0001
1000
,
0001
0010
0100
1000
0100
0010
0001
1000
0001
0100
0010
1000
,
0010
0100
0001
1000
0100
1000
0001
0010
0001
1000
0001
1000
,
0010
0100
0001
0010
0100
1000
0010
0100
0001
1000
0001
1000
,
0100
0010
0001
1000
0001
1000
0010
0100
0001
1000
0001
0100
,
0010
1000
0001
1000
0100
0010
0001
1000
0100
1000
0001
0010
,
0001
1000
0001
0100
0010
1000
0001
1000
0010
0100
0001
1000
,
0100
1000
0001
0010
0001
1000
0010
0100
0001
1000
0001
0100
,
0010
1000
0001
1000
0100
1000
0001
0010
0001
1000
0100
1000
,
0001
0010
0001
0100
0010
1000
0001
1000
0010
0100
0001
1000
,
0010
1000
0001
1000
0100
0010
0001
1000
0001
0010
0100
1000
,
0001
0100
0001
0000
1000
0000
0000
0000
,
0001
0100
0010
1000
0001
1000
0010
0100
0001
1000
0010
1000
0001
1000
0100
0010
,
0001
1000
0100
1000
0001
0010
0100
1000
0001
0010
0001
1000
0100
0010
0001
1000
,
0001
0100
0010
1000
0001
1000
0010
0100
0001
0100
0001
1000
0100
0010
0100
1000
,
0001
0010
0001
1000
0001
0100
0010
1000
0100
0010
0001
1000
0001
0100
0010
1000
,
0001
0010
0100
1000
0001
1000
0100
0010
0001
1000
0100
1000
0001
1000
0010
0100
,
0001
1000
0010
1000
0001
0100
0010
1000
0001
0100
0001
1000
0010
0100
0001
1000
,
0001
0010
0100
1000
0001
1000
0100
0010
0001
1000
0001
1000
0010
0100
0010
1000
,
0100
0010
0001
1000
0001
0010
0100
1000
0010
0100
0001
1000
0001
0010
0100
1000
,
0001
0100
0010
1000
0001
1000
0010
0100
0001
1000
0010
1000
0001
1000
0100
0010
,
0001
1000
0100
1000
0001
0010
0100
1000
0001
0010
0001
1000
0100
0010
0001
1000
,
0001
0100
0010
1000
0001
1000
0010
0100
0001
0100
0001
1000
0100
0010
0100
1000
,
0001
0010
0001
1000
0001
0100
0010
1000
0100
0010
0001
1000
0001
0100
0010
1000
,
0001
0010
0100
1000
0001
1000
0100
0010
0001
1000
0100
1000
0001
1000
0010
0100
,
0001
1000
0010
1000
0001
0100
0010
1000
0001
0100
0001
1000
0010
0100
0001
1000
,
0001
0010
0100
1000
0001
1000
0100
0010
0001
1000
0001
1000
0010
0100
0010
1000
,
0100
0010
0100
1000
0001
0100
0001
1000
0200
0000
0000
0000
0000
0000
0000
0000
,
0000
0000
0000
0000
,
0300
0000
0000
0000
;

//---------------dance-single - T. Moore----------------
#NOTES:
     dance-single:
     T. Moore:
     Medium:
     13:
     1.000,1.000,0.246,0.105,0.977,1327.000,47.000,20.000,0.000,0.000:

1000
0100
0011
1000
,
0001
0100
1010
0001
,
0010
0100
1001
1000
,
0010
0100
0101
0001
,
1000
0100
0011
0001
,
1000
0010
0101
1000
,
0100
0010
0011
0001
,
1000
1010
0011
1000
,
0100
0010
1001
0001
,
1000
0010
0101
1000
,
0100
0010
1001
0001
,
0100
0010
1010
1000
,
0001
0010
1100
1000
,
0001
0100
1010
0001
,
0010
0100
1100
1000
,
0001
0010
1100
0000
,
1001
0001
0011
0010
,
0100
1000
1010
0010
,
0100
0001
0011
0010
,
0100
1000
1010
0010
,
0110
0100
0101
0001
,
1001
1000
1100
0100
,
0110
0010
0011
0001
,
1001
1010
1100
0100
,
0010
0001
0101
0100
,
0010
1000
1100
0100
,
0010
0001
1001
1000
,
0010
0100
0101
0001
,
0100
0010
1010
1000
,
0001
0010
1100
1000
,
0001
0100
0110
0010
,
1000
0001
0011
0000
,
2100
3000
0002
0003
,
0200
0320
2030
3200
,
0300
0020
0030
0020
,
0032
0203
0320
0030
,
2000
3000
0200
0300
,
2000
3002
0203
0320
,
0030
0000
0000
0000
2000
0000
0000
0000
3000
0000
0000
0000
1000
0000
0000
1000
,
0001
1000
0001
0000
0100
0000
0000
0000
,
0001
0010
0100
1000
0010
1000
0100
0010
,
0001
0010
0100
1000
0010
0100
0010
1000
,
0001
0100
0010
1000
0100
1000
0010
0100
,
0001
1000
0100
0010
0100
1000
0100
0010
,
0100
1000
0001
0100
0001
1000
0100
0010
,
0100
1000
0001
0010
0001
1000
0010
0100
,
0010
1000
0001
0010
0001
1000
0010
0100
,
0010
1000
0100
0010
0100
1000
0001
0010
,
0001
0100
0010
1000
0100
1000
0010
0100
,
0001
0100
0010
1000
0100
0010
0100
1000
,
0001
0010
0100
1000
0010
1000
0100
0010
,
0001
1000
0010
0100
0010
1000
0010
0100
,
0010
1000
0001
0010
0001
1000
0010
0100
,
0010
1000
0001
0100
0001
1000
0100
0010
,
0100
1000
0001
0100
0001
1000
0100
0010
,
0100
1000
0010
0100
0010
1000
0001
0100
,
0001
0010
0001
1000
0010
1000
0100
0010
0001
1000
0001
0010
,
0100
1000
0001
0100
0001
1000
0010
0100
0001
0010
0001
1000
,
0010
0100
0001
1000
0100
1000
0001
0010
0001
1000
0001
0100
,
0010
1000
0001
0010
0100
0010
0001
1000
0001
0010
0100
1000
,
0001
0100
0001
1000
0010
0100
0001
0100
0010
1000
0001
1000
,
0001
0010
0100
1000
0100
0010
0001
1000
0001
0100
0010
1000
,
0010
0100
0001
1000
0100
1000
0001
0010
0001
1000
0001
1000
,
0010
0100
0001
0010
0100
1000
0010
0100
0001
1000
0001
1000
,
0100
0010
0001
1000
0001
1000
0010
0100
0001
1000
0001
0100
,
0010
1000
0001
1000
0100
0010
0001
1000
0100
1000
0001
0010
,
0001
1000
0001
0100
0010
1000
0001
1000
0010
0100
0001
1000
,
0100
1000
0001
0010
0001
1000
0010
0100
0001
1000
0001
0100
,
0010
1000
0001
1000
0100
1000
0001
0010
0001
1000
0100
1000
,
0001
0010
0001
0100
0010
1000
0001
1000
0010
0100
0001
1000
,
0010
1000
0001
1000
0100
0010
0001
1000
0001
0010
0100
1000
,
0001
0000
0000
0100
0000
0000
0001
0000
0000
0000
0000
0000
1000
0000
0000
0000
0000
0000
0000
0000
0000
0000
0001
0000
,
1000
0010
0100
0001
,
0100
0000
0000
0010
0000
0000
1000
0000
0000
1000
0000
0001
,
1000
0100
0010
0100
,
1000
0000
0000
0001
0000
0000
0100
0000
0000
0100
0000
0001
,
0100
0010
1000
0001
,
0001
0000
0000
0010
0000
0000
0010
0000
0000
0100
0000
1000
,
0100
0010
0010
0001
,
0001
0000
0000
0100
0000
0000
0010
0000
0000
1000
0000
1000
,
0001
0010
0100
1000
,
0100
0000
0000
0010
0000
0000
0001
0000
0000
0001
0000
1000
,
0010
0100
0001
0100
,
0010
0000
0000
1000
0000
0000
0100
0000
0000
0100
0000
0010
,
0100
1000
0001
0100
,
0010
0000
0000
1000
0000
0000
1000
0000
0000
0001
0000
1000
,
0001
0000
0000
0000
0100
0000
0000
0000
0010
0000
0000
0000
1000
0000
0000
1000
,
0001
1000
0100
0000
0010
0000
0000
0000
,
1001
1000
0010
0100
0010
0010
0001
0010
,
0100
1000
0010
0100
0010
0010
0001
0010
,
0100
1000
0010
0100
0010
0010
0001
0010
,
0100
1000
0010
0100
0010
0010
0001
0010
,
0100
1000
0010
0100
0010
0010
0001
0010
,
0100
1000
0010
0100
0010
0010
0001
0010
,
0100
1000
0010
0100
0001
1000
0010
1000
,
0100
0011
1010
0000
,
1001
0001
0100
0010
0100
0100
1000
0100
,
0010
0001
0100
0010
0100
0100
1000
0100
,
0010
0001
0100
0010
0100
0100
1000
0100
,
0010
0001
0100
0010
0100
0100
1000
0100
,
0010
0001
0100
0010
0100
0100
1000
0100
,
0010
0001
0100
0010
0100
0100
1000
0100
,
0010
0001
0100
0010
1000
0001
0100
0001
,
0010
1100
0101
0000
,
0001
0010
0100
1000
0010
1000
0100
0010
,
0001
0100
0010
1000
0100
0010
0100
1000
,
0001
0100
0010
1000
0100
1000
0010
0100
,
0001
0010
0100
1000
0010
1000
0100
0010
,
0001
0100
0010
1000
0100
1000
0010
0100
,
0001
0010
0100
1000
0010
1000
0100
0010
,
0001
1000
0010
0100
0001
0100
0010
1000
,
0010
0100
0001
0010
0001
0100
0010
1000
,
0001
0010
0100
1000
0010
1000
0100
0010
,
0001
0100
0010
1000
0100
0010
0100
1000
,
0001
0100
0010
1000
0100
1000
0010
0100
,
0001
0010
0100
1000
0010
1000
0100
0010
,
0001
0100
0010
1000
0100
1000
0010
0100
,
0001
0010
0100
1000
0010
1000
0100
0010
,
0001
1000
0010
0100
0001
0100
0010
1000
,
0010
0100
0001
0010
0001
0100
0010
1000
,
0001
0000
1000
0100
,
2000
0000
0010
3010
,
0100
0000
0100
0000
,
0100
0000
0001
0001
,
0001
0100
0010
1000
,
0001
1000
0100
0010
,
0010
0001
1000
0001
,
0100
0010
1000
0001
,
1000
0000
0100
1000
,
0100
0000
0010
0010
,
0001
0000
0001
0000
,
0001
0000
1000
0001
,
1000
0100
0010
0001
,
1000
0010
0100
0001
,
1001
0000
0000
0000
,
0000
0000
0000
0000
,
1000
0100
0010
0001
0100
0001
0010
0100
,
1000
0010
0100
0001
0010
0100
0010
0001
,
1000
0010
0100
0001
0010
0001
0100
0010
,
1000
0100
0010
0001
0100
0001
0010
0100
,
1000
0010
0100
0001
0010
0001
0100
0010
,
1000
0100
0010
0001
0100
0001
0010
0100
,
0010
0001
1000
0010
1000
0001
0010
0100
,
0010
0001
0100
0010
1000
0010
0100
0001
,
1000
0100
0010
0001
0100
0001
0010
0100
,
1000
0010
0100
0001
0010
0100
0010
0001
,
1000
0010
0100
0001
0010
0001
0100
0010
,
1000
0100
0010
0001
0100
0001
0010
0100
,
1000
0010
0100
0001
0010
0001
0100
0010
,
1000
0100
0010
0001
0100
0001
0010
0100
,
0010
0001
1000
0010
1000
0001
0010
0100
,
0010
0001
0100
0010
1000
0010
0100
0001
,
1000
0100
1000
0001
0100
0001
0010
0100
1000
0001
1000
0100
,
0010
0001
1000
0010
1000
0001
0100
0010
1000
0100
1000
0001
,
0100
0010
1000
0001
0010
0001
1000
0100
1000
0001
1000
0010
,
0100
0001
1000
0100
0010
0100
1000
0001
1000
0100
0010
0001
,
1000
0010
1000
0001
0100
0010
1000
0010
0100
0001
1000
0001
,
1000
0100
0010
0001
0010
0100
1000
0001
1000
0010
0100
0001
,
0100
0010
1000
0001
0010
0001
1000
0100
1000
0001
1000
0001
,
0100
0010
1000
0100
0010
0001
0100
0010
1000
0001
1000
0001
,
0010
0100
1000
0001
1000
0001
0100
0010
1000
0001
1000
0010
,
0100
0001
1000
0001
0010
0100
1000
0001
0010
0001
1000
0100
,
1000
0001
1000
0010
0100
0001
1000
0001
0100
0010
1000
0001
,
0010
0001
1000
0100
1000
0001
0100
0010
1000
0001
1000
0010
,
0100
0001
1000
0001
0010
0001
1000
0100
1000
0001
0010
0001
,
1000
0100
1000
0010
0100
0001
1000
0001
0100
0010
1000
0001
,
0100
0001
1000
0001
0010
0100
1000
0001
1000
0100
0010
0001
,
1000
0010
1000
0000
0001
0000
0000
0000
,
1000
0100
1000
0001
0100
0001
0010
0100
1000
0001
1000
0100
,
0010
0001
1000
0010
1000
0001
0100
0010
1000
0100
1000
0001
,
0100
0010
1000
0001
0010
0001
1000
0100
1000
0001
1000
0010
,
0100
0001
1000
0100
0010
0100
1000
0001
1000
0100
0010
0001
,
1000
0010
1000
0001
0100
0010
1000
0010
0100
0001
1000
0001
,
1000
0100
0010
0001
0010
0100
1000
0001
1000
0010
0100
0001
,
0100
0010
1000
0001
0010
0001
1000
0100
1000
0001
1000
0001
,
0100
0010
1000
0100
0010
0001
0100
0010
1000
0001
1000
0001
,
0010
0100
1000
0001
1000
0001
0100
0010
1000
0001
1000
0010
,
0100
0001
1000
0001
0010
0100
1000
0001
0010
0001
1000
0100
,
1000
0001
1000
0010
0100
0001
1000
0001
0100
0010
1000
0001
,
0010
0001
1000
0100
1000
0001
0100
0010
1000
0001
1000
0010
,
0100
0001
1000
0001
0010
0001
1000
0100
1000
0001
0010
0001
,
1000
0100
1000
0010
0100
0001
1000
0001
0100
0010
1000
0001
,
0100
0001
1000
0001
0010
0100
1000
0001
1000
0100
0010
0001
,
0100
0010
1000
0100
0010
0001
2000
0000
0000
0000
0000
0000
,
0000
0000
0000
0000
,
3000
0000
0000
0000
;
