#TITLE:What Do They Know;
#SUBTITLE:;
#ARTIST:Mindless Self Indulgence;
#TITLETRANSLIT:;
#SUBTITLETRANSLIT:;
#ARTISTTRANSLIT:;
#CREDIT:;
#BANNER:!BN.png;
#BACKGROUND:!BG.png;
#LYRICSPATH:;
#CDTITLE:!NemCDT.png;
#MUSIC:What Do They Know.mp3;
#OFFSET:-0.272;
#SAMPLESTART:102.586;
#SAMPLELENGTH:18.764;
#SELECTABLE:YES;
#DISPLAYBPM:77.000:154.000;
#BPMS:0.000=77.000,24.000=154.000,64.000=77.000,65.000=308.000,71.000=154.000,79.000=77.000,80.000=308.000,86.000=154.000,98.000=77.000,124.000=154.000,164.000=77.000,165.000=308.000,171.000=154.000,179.000=77.000,180.000=308.000,186.000=154.000,198.000=77.000,208.000=154.000,276.000=77.000,282.000=154.000,314.000=77.000,319.000=308.000,325.000=154.000,333.000=77.000,334.000=308.000,340.000=154.000,352.000=77.000;
#STOPS:65.000=0.195
,66.000=0.195
,67.000=0.195
,68.000=0.195
,69.000=0.195
,70.000=0.195
,80.000=0.195
,81.000=0.195
,82.000=0.195
,83.000=0.195
,84.000=0.195
,85.000=0.195
,165.000=0.195
,166.000=0.195
,167.000=0.195
,168.000=0.195
,169.000=0.195
,170.000=0.195
,180.000=0.195
,181.000=0.195
,182.000=0.195
,183.000=0.195
,184.000=0.195
,185.000=0.195
,319.000=0.195
,320.000=0.195
,321.000=0.195
,322.000=0.195
,323.000=0.195
,324.000=0.195
,334.000=0.195
,335.000=0.195
,336.000=0.195
,337.000=0.195
,338.000=0.195
,339.000=0.195
;
#BGCHANGES:;
// cache tags:
#FIRSTBEAT:0.000;
#LASTBEAT:371.750;
#SONGFILENAME:Songs/longs versions/What Do They Know/What Do They Know.sm;
#HASMUSIC:1;
#HASBANNER:1;
#MUSICLENGTH:188.682;
// end cache tags

//---------------dance-single - HARD----------------
#NOTES:
     dance-single:
     HARD:
     Hard:
     11:
     0.819,0.887,1.000,0.556,0.488,746.000,231.000,105.000,0.000,14.000:

2000
0000
0000
0000
0000
0000
0000
3000
0201
0000
0000
0001
0000
0000
0000
0300
,
0021
0000
0000
0001
0000
0000
0000
0030
0102
0000
0000
0100
0000
0000
0000
0003
,
1001
0100
0010
1000
0100
0010
0000
0010
1001
0010
0100
0001
0010
0100
1001
0100
,
1001
0000
0000
0000
0000
0000
1000
0000
0100
0000
0000
0100
0000
0000
0010
0000
1001
0000
0010
0000
0100
0000
0001
0000
0010
0000
0100
0000
1001
0000
0100
0000
,
1001
0000
0000
1000
0200
0010
0001
0310
1001
0010
0100
0001
0010
0100
1001
0100
,
1001
0000
1000
0000
0000
0000
1000
0000
0000
0000
0010
0000
0000
0100
0000
0000
1001
0000
0000
0010
0000
0000
0010
0000
0010
0000
0000
0010
1001
0000
0010
0000
,
1001
0001
0100
1001
0010
0101
0100
0001
,
0011
0000
0100
0000
1000
0100
0011
0000
0100
0001
1000
0000
1000
0000
0010
0000
,
0101
0000
1000
0000
0010
0000
0101
1000
0100
0000
0010
0000
0010
0000
0100
0000
,
1010
0100
0010
0000
0001
0100
1010
0000
0100
0000
0001
0000
0001
0000
0100
0000
,
1001
0000
1000
0001
0110
0000
1001
0000
0001
0000
0110
0000
0100
0000
1000
0000
,
0011
0000
0001
0010
1100
0000
0011
0000
0010
0000
1100
0000
1000
0000
0010
0000
,
0101
0000
0001
0000
1010
0100
0101
0000
0100
0000
1010
0000
0010
0000
0100
0000
,
1001
0001
0110
1001
1000
0110
0100
0001
,
1001
0000
0000
0000
0100
0000
0000
0100
0000
0100
0010
0000
0100
0000
0010
0000
,
1001
0000
0000
0000
0010
0000
0000
0010
0000
0010
0100
0001
0010
0000
0100
0000
,
2002
0000
0000
3003
0101
0000
0000
0000
1010
0000
0000
0000
0011
0000
0000
0000
,
1100
0110
1100
1001
,
1000
0000
0000
1000
0000
1000
0001
0000
1000
0000
0001
0000
0110
0000
0000
0000
,
0001
0000
0000
0001
0000
0001
1000
0100
0001
0000
1000
0000
0220
0000
0000
0330
,
1010
0101
1100
0011
,
0110
0000
0000
0000
0011
0000
0000
0000
1001
0000
0000
0000
0100
0000
0010
0100
,
0000
0100
0010
0000
0100
0000
0010
0000
1001
0000
0000
0000
0100
0000
0000
0100
,
0000
0100
0010
0001
0100
0000
0010
0000
1100
0000
1100
0000
1100
0000
1100
0000
,
1100
1100
1100
1100
0011
0000
0000
0000
,
2000
0000
0000
0000
0000
0000
0000
3000
0201
0000
0000
0001
0000
0000
0000
0300
,
0021
0000
0000
0001
0000
0000
0000
0030
0102
0000
0000
0100
0000
0000
0000
0003
,
1001
0010
0100
0001
0010
0100
0000
0100
1001
0100
0010
1000
0100
0010
1001
0010
,
1001
0000
0000
0000
0000
0000
0001
0000
0010
0000
0000
0010
0000
0000
0100
0000
1001
0000
0100
0000
0010
0000
1000
0000
0100
0000
0010
0000
1001
0000
0010
0000
,
1001
0000
0000
0001
0020
0100
1000
0130
1001
0100
0010
1000
0100
0010
1001
0010
,
1001
0000
0001
0000
0000
0000
0001
0000
0000
0000
0100
0000
0000
0010
0000
0000
1001
0000
0000
0100
0000
0000
0100
0000
0100
0000
0000
0100
1001
0000
0100
0000
,
1100
1000
0010
1100
0001
1010
0010
1000
,
1001
0000
0010
0000
0100
0010
1001
0000
0010
1000
0100
0000
0100
0000
0001
0000
,
1010
0000
0100
0000
0001
0000
1010
0100
0010
0000
0001
0000
0001
0000
0010
0000
,
0101
0010
0001
0000
1000
0010
0101
0000
0010
0000
1000
0000
1000
0000
0010
0000
,
1100
0000
0100
1000
0011
0000
1100
0000
1000
0000
0011
0000
0010
0000
0100
0000
,
1001
0000
1000
0001
0110
0000
1001
0000
0001
0000
0110
0000
0100
0000
0001
0000
,
1010
0000
1000
0000
0101
0010
1010
0000
0010
0000
0101
0000
0001
0000
0010
0000
,
1100
1000
0011
1100
0100
0011
0010
1000
,
1100
0000
0000
0000
0010
0000
0000
0010
0000
0010
0001
0000
0010
0000
0001
0000
,
1100
0000
0000
0000
0001
0000
0000
0001
0000
0001
0010
1000
0001
0000
0010
0000
,
2200
0000
0000
3300
1010
0000
0000
0000
0101
0000
0000
0000
1001
0000
0000
0000
,
0110
0011
0110
1001
,
0100
0000
0000
0100
0000
0100
1000
0000
0100
0000
1000
0000
0011
0000
0000
0000
,
1000
0000
0000
1000
0000
1000
0100
0010
1000
0000
0100
0000
0022
0000
0000
0033
,
1010
0101
1100
0011
,
0110
0000
0000
0000
0011
0000
0000
0000
1001
0000
0000
0000
0010
0000
0001
0010
,
0000
0010
0001
0000
0010
0000
0001
0000
1100
0000
0000
0000
0010
0000
0000
0010
,
0000
0010
0001
1000
0010
0000
0001
0000
0110
0000
0110
0000
0110
0000
0110
0000
,
0110
0110
0110
0110
1001
0000
0000
0000
,
2000
0000
0000
0000
0000
0000
0000
3000
0200
0000
0302
0203
0000
0302
0203
0301
,
0210
0000
0302
0200
0000
0000
0000
0303
0021
0000
2030
0020
0000
3131
0101
0101
,
1001
0100
0110
1001
0100
0001
0110
0100
,
1000
0100
0011
0011
0000
0001
1000
0100
,
1001
0000
1100
1001
0010
0001
1100
0000
,
0110
0010
0001
1000
1100
0001
0100
1000
,
1001
0010
0011
1100
0010
1000
0011
0010
,
0100
0010
1001
1001
0000
1000
0100
0010
,
1100
0000
0110
1100
0001
1000
0110
0000
,
0011
0001
1000
0100
0101
1000
0010
0001
,
0120
0030
1000
0001
0010
0000
0100
0000
1000
0001
0010
0001
0100
0000
0002
0003
,
0010
0000
0001
1000
0100
0000
0010
0000
0001
1000
0100
1000
0010
0000
2000
3000
,
1000
0000
0100
0010
0001
0000
1000
0000
0100
0010
0001
0010
1000
0000
0020
0030
,
0100
0000
0010
0001
1000
0000
0200
0300
0001
0010
1000
0000
0100
0000
0002
0003
,
0010
0000
0100
1000
0001
0000
0010
0000
0100
1000
0001
1000
0010
0000
2000
3000
,
0001
0000
1000
0100
0010
0000
0001
0000
1000
0100
0010
0100
0001
0000
0200
0300
,
0100
0000
0010
0001
1000
0000
0100
0000
0010
0001
1000
0001
0100
0000
0002
0003
,
0010
0000
0001
1000
0100
0000
0020
0030
1000
0001
0100
0000
0010
0000
0000
0000
,
2002
3000
0000
0000
0000
0000
1000
0000
0000
0000
0000
0000
0000
0000
0000
0000
,
1203
0000
0300
0000
0000
0000
1100
0000
0000
0000
0000
0000
0000
0000
0000
0000
0012
0000
0003
0000
0000
0000
0011
0000
0000
0000
0010
0000
0000
0100
0000
0000
,
1002
0000
0003
0010
0200
0000
1301
0000
0020
0000
0030
0010
0000
0000
0010
0000
1001
0000
0000
0000
0001
0000
0000
0000
0100
0000
0000
0000
1001
0000
0000
0000
,
0010
0000
0101
0000
0100
0000
0001
0000
0012
0003
0100
0000
2000
3100
0011
0000
,
0200
0301
1000
0000
2000
3000
0010
0000
0101
0000
1000
0000
0010
0000
0101
1000
,
0100
0000
0010
0000
0010
0000
0100
0000
2010
3100
0010
0000
0002
0103
1010
0000
,
0200
0300
0001
0000
0002
0003
0100
0000
1001
0000
1000
0001
0110
0000
1001
0000
,
0001
0000
0110
0000
0100
0000
1000
0000
0012
0003
0001
0010
2100
3000
0011
0000
,
0020
0030
1100
0000
2000
3000
0010
0000
0101
0000
0001
0000
1010
0100
0101
0000
,
0100
0000
1010
0000
0010
0000
0100
0000
1002
0003
0001
0000
0210
0300
1001
0000
,
2000
3000
0110
0000
0200
0300
0001
0000
2002
0000
0000
3003
0010
0000
0010
0100
,
2020
0000
0000
3130
0001
0000
0001
0100
0022
0000
0000
0033
0101
0000
0000
0000
,
1010
0011
1100
0110
,
1100
0000
0000
0000
1001
0000
0000
0000
0010
0000
0000
0010
0000
0010
1000
0000
,
0010
0000
1000
0000
0110
0000
0000
0000
1000
0000
0000
1000
0000
1000
0001
0010
,
0100
0000
0001
0000
0220
0000
0000
0330
1010
0000
0000
0000
0101
0000
0000
0000
,
1100
0011
0110
0011
,
1001
0000
0000
0000
0100
0000
0001
0100
0000
0100
0001
0000
0100
0000
0001
0000
,
1010
0000
0000
0000
0001
0000
0000
0001
0000
0001
0100
0010
0001
0000
0100
0000
,
0101
0101
0101
0101
0101
0101
0101
0101
,
1010
0000
0000
0000
0000
0000
0000
0000
2000
0000
0000
0000
0000
0000
0000
3000
,
0020
0000
0230
2300
0000
0200
0320
3230
0302
0000
0023
2030
0000
0000
0000
3000
,
0002
0000
0023
2030
0000
0020
0032
3023
2031
0000
0000
0000
0000
0000
0000
3000
,
0200
0000
0320
0032
0000
0020
0230
0323
2030
0000
3200
0302
0000
0000
0000
0003
,
2000
0000
3200
0302
0000
0200
2300
3203
2302
0000
0000
0000
0000
0000
0000
3003
;
