#TITLE:The Mighty Ride Of The Firelord;
#SUBTITLE:Dawn of Victory (2000);
#ARTIST:Rhapsody;
#TITLETRANSLIT:;
#SUBTITLETRANSLIT:;
#ARTISTTRANSLIT:;
#CREDIT:;
#BANNER:(cerdo_claro)The Mighty Ride Of The Firelord-bn.PNG;
#BACKGROUND:(cerdo_claro)The Mighty Ride Of The Firelord-bg.png;
#LYRICSPATH:;
#CDTITLE:!cdtitle.png;
#MUSIC:(cerdo_claro)The Mighty Ride Of The Firelord.mp3;
#OFFSET:-21.813;
#SAMPLESTART:99.640;
#SAMPLELENGTH:12.000;
#SELECTABLE:YES;
#BPMS:0.000=180.000;
#STOPS:;
#BGCHANGES:;
// cache tags:
#FIRSTBEAT:0.000;
#LASTBEAT:658.000;
#SONGFILENAME:Songs/Astronomic Metal Collection/(cerdo_claro)The Mighty Ride of The Fire lord/(cerdo_claro)The Mighty Ride Of The Firelord.sm;
#HASMUSIC:1;
#HASBANNER:1;
#MUSICLENGTH:243.528;
// end cache tags

//---------------dance-single - ----------------
#NOTES:
     dance-single:
     :
     Hard:
     11:
     0.950,1.000,1.000,0.583,0.920,1096.000,382.000,142.000,0.000,21.000:
2100
0000
0000
0000
0000
0000
0000
0000
0000
3001
0010
0100
,
2000
0000
0000
3000
,
0012
0000
0000
0000
0000
0000
0000
0000
0000
1003
0100
0010
,
0002
0000
0000
0003
,
0120
0000
0000
0000
0000
0000
1030
0000
0000
0010
0000
0000
0100
0000
0000
0001
0000
0000
1000
0000
0010
0000
0100
0000
,
0002
0000
0000
0000
1003
0100
0010
0001
1000
0010
0100
0001
1000
0010
0100
0001
,
2100
0010
0001
0010
,
0100
0010
3001
0110
,
0110
0000
0000
0000
0001
0010
0100
1000
0020
0000
0000
0000
1030
0100
0010
0001
,
2000
0000
0000
0000
3001
1000
0010
0100
0012
0000
0000
0000
0000
0000
0000
0000
,
0003
0000
0000
0000
1001
0000
0000
0000
1001
0000
0000
0000
1000
0100
0010
0001
,
0200
0000
0000
0000
0301
0010
0100
1000
0011
0000
0000
0000
1000
0001
0100
0010
,
2100
0000
3000
1100
,
1100
0000
0000
0000
0100
0001
1000
0010
0002
0000
0000
0000
0013
1000
0001
0100
,
0010
0000
0000
0000
0100
0010
0001
1000
0201
0000
0000
0000
0000
0000
0000
0000
,
0300
0000
0000
0000
0110
0000
0000
0000
0110
0000
0000
0000
0010
1000
0001
0100
,
2000
0000
0000
0000
3100
0001
1000
0010
1100
0000
0000
0000
0010
0100
1000
0001
,
1020
0000
0030
0110
,
0110
0000
0000
0000
1000
0100
0010
0001
0200
0000
0000
0000
0301
0010
0100
1000
,
0002
0000
0000
0000
1003
0001
0100
0010
2000
0000
0000
0000
3110
0000
0000
0000
,
0110
0000
0000
0000
0001
0010
0100
1000
0020
0000
0000
0000
1030
0100
0010
0001
,
2000
0000
0000
0000
3001
1000
0010
0100
0002
0000
0000
0000
0113
0000
0000
0000
,
0110
0000
0000
0000
1000
0100
0010
0001
0200
0000
0000
0000
0301
0010
0100
1000
,
0020
0000
0000
0000
1030
0001
0100
0010
2000
0000
0000
0000
3001
0000
0000
0000
,
1001
0000
0000
0000
0100
0001
1000
0010
0200
0000
0000
0000
0310
1000
0001
0100
,
0020
0000
0000
0000
0130
0010
0001
1000
0200
0000
0000
0000
0000
0000
0000
0000
,
0300
0000
0110
0000
0011
1010
0101
0110
,
2010
0000
3001
0000
0011
1100
0011
0110
,
2001
0000
3001
0000
1100
0110
0101
1001
,
1020
0000
0000
0000
0000
0000
0000
0000
0000
0000
0000
0000
1030
0000
0000
0000
0000
0000
0000
0000
0000
0000
0000
0000
1000
0000
0000
0000
0001
0000
0000
0000
1000
0000
0000
0000
0001
0000
0000
0010
0000
0000
0100
0000
0000
1000
0000
0000
,
0010
0100
0001
1000
0110
0000
0000
0000
0001
0010
0100
1000
0001
1000
0001
0100
,
0011
0000
0000
0000
0011
0000
0000
0000
1000
0001
1000
0010
0100
0001
1000
0001
,
0110
0000
0000
0000
0001
1000
0010
0100
,
0120
0000
0000
0000
1031
0000
0000
0000
0001
1000
0010
0100
0001
1000
0001
0100
,
0012
0000
0000
0000
0013
0000
0000
0000
1000
0010
0100
0001
1000
0010
0100
0001
,
2000
0000
0000
0000
3100
0000
0000
0000
0001
0100
0010
1000
0001
0100
0001
0010
,
2100
0000
0000
3001
0102
0000
0000
0010
,
1003
0000
0110
0000
0011
0000
1100
0000
0220
0000
0000
0000
0331
1000
0001
1000
,
0011
0000
0000
0000
1000
0000
0000
0000
0011
0000
0000
0000
0100
0000
0000
0000
1010
0000
0000
0000
0100
0000
0000
0000
0001
0000
0000
0010
0000
0000
1000
0000
0000
0100
0000
0000
0010
0000
0000
0001
0000
0000
1000
0000
0000
0010
0000
0000
,
1100
0000
0000
0000
0001
0000
0000
0000
0110
0000
0000
0000
1000
0000
0000
0000
0011
0000
0000
0000
1000
0000
0000
0000
0110
0000
0000
0001
0000
0000
1000
0000
0000
0100
0000
0000
0010
0000
0000
0001
0000
0000
1000
0000
0000
0001
0000
0000
,
1010
0000
0000
0000
0001
0000
0000
0000
0110
0000
0000
0000
1000
0000
0000
0000
0110
0000
0000
0000
0001
0000
0000
0000
1100
0000
0000
0001
0000
0000
1000
0000
0000
0010
0000
0000
0100
0000
0000
0001
0000
0000
1000
0000
0000
0010
0000
0000
,
1100
0001
1000
0110
0000
0000
1100
0001
0100
0002
0000
0000
,
1103
0000
0000
0000
0001
0000
0000
0000
0110
0000
0000
0000
0001
0000
0000
0000
1100
0000
0000
0000
0001
0000
0000
0000
1010
0000
0000
0100
0000
0000
0001
0000
0000
0010
0000
0000
0100
0000
0000
1000
0000
0000
0001
0000
0000
0100
0000
0000
,
0011
0000
0000
0000
0100
0000
0000
0000
1010
0000
0000
0000
0001
0000
0000
0000
0110
0000
0000
0000
1000
0000
0000
0000
0011
0000
0000
1000
0000
0000
0001
0000
0000
0010
0000
0000
0100
0000
0000
1000
0000
0000
0001
0000
0000
1000
0000
0000
,
0011
0000
0000
0000
1000
0000
0000
0000
0110
0000
0000
0000
0001
0000
0000
0000
1100
0000
0000
0000
0010
0000
0000
0000
0101
0000
0000
1000
0000
0000
0001
0000
0000
0100
0000
0000
0010
0000
0000
1000
0000
0000
0001
0000
0000
0100
0000
0000
,
0011
1000
0001
0210
0300
0000
0011
1000
0010
2002
0000
0000
,
0000
0000
0000
3003
0000
0000
0000
0000
0000
0011
1000
0110
,
0001
1100
0001
1001
0000
0000
1010
0000
0000
0101
0010
0100
,
1010
0001
1000
0110
0000
0000
0101
0000
0000
1001
0010
1000
,
0011
0100
0001
0110
0000
0000
1100
0000
0000
0110
1000
0001
,
0110
0100
0010
1002
0100
1000
0010
0000
0000
1103
0010
0101
,
0010
1100
0010
1100
0000
0000
1100
0000
0000
0110
1000
0010
,
0101
0010
0100
1010
0000
0000
0110
0000
0000
1010
0001
0100
,
1010
1000
0010
0101
0000
0000
1010
0000
0000
1100
0010
0100
,
0011
0000
0000
0011
1000
0010
1100
0000
0000
0011
1000
0110
,
0001
0000
0000
0000
0110
0000
0000
0000
1000
0000
0000
0000
0001
0000
0000
0010
0000
0000
0100
0000
0000
1000
0000
0000
0001
0000
0000
0000
0100
0000
0000
0000
0010
0000
0000
0000
2100
0000
0000
0000
0000
0000
0000
0000
0000
0000
0000
0000
,
0000
0001
3001
0000
0012
0000
2003
0000
,
0000
3010
0120
0000
0031
0000
2000
0000
,
0000
3110
0110
0000
0011
0000
0110
0000
,
1100
0000
2002
3003
0000
0000
1002
0000
,
0000
1000
1003
0000
2100
0000
3012
0000
,
0000
1000
1003
0000
0110
0000
2001
0000
,
0000
0001
3001
0000
0110
0000
1010
0000
,
0101
0000
0000
0000
0110
0000
0000
0000
0001
0000
1000
0000
0012
1000
0013
0100
,
0001
1000
0010
1000
0100
1000
0001
0010
0100
1000
0010
0100
0001
1000
0010
0100
,
0001
0100
0001
0010
0001
0010
0100
1000
0010
0100
0001
1000
0100
1000
0010
0100
,
0001
0010
0001
1000
0010
0100
0001
1000
0010
0100
0001
0100
0010
1000
0001
1000
,
0010
0100
0001
0010
0001
1000
0010
0100
0011
0000
0000
0000
2100
0001
3010
0100
,
1000
0010
0100
0001
1000
0001
1000
0010
0100
0001
0010
0001
0100
0010
1000
0010
,
1000
0100
0010
0001
0100
0010
1000
0100
0011
0000
0000
0000
0110
0000
0000
0000
,
1100
1001
0110
0020
,
0000
0000
0000
0200
,
0000
0330
0000
0011
,
1010
1010
1010
1010
0000
0000
0011
0011
0011
0011
0000
0000
,
1001
1001
1001
1001
0000
0000
1010
0101
1010
0101
0000
0000
,
1100
0011
1100
0011
0000
0000
0101
1010
0101
1010
0000
0000
,
1010
0100
0011
1000
0110
0001
1100
0010
0101
1001
0000
0000
,
0101
0101
0101
0101
0000
0000
1100
1100
1100
1100
0000
0000
,
1001
1001
1001
1001
0000
0000
0101
1010
0101
1010
0000
0000
,
0011
1100
0011
1100
0000
0000
1010
0101
1010
0101
0000
0000
,
0101
0010
1100
0001
0110
1000
0011
0100
1010
1001
0000
0000
,
0000
0000
0000
2000
,
3200
0320
0031
0000
,
0000
2000
3000
0002
,
0023
0230
1300
0000
,
0000
0000
0000
0002
,
2003
3020
0130
0000
,
0000
0002
0003
2000
,
3002
0203
0310
0000
,
0000
0000
0000
0000
0000
0000
0000
0000
0000
0000
0000
0000
1000
0100
0010
0001
1000
0100
0012
0000
0000
0000
0000
0000
,
0000
0003
2000
3020
,
0000
0030
0002
0000
0000
0000
0203
0000
,
0000
0300
0020
2030
,
0000
3002
0003
0200
,
0000
0000
0320
2030
,
0000
3002
0000
0023
,
0000
0030
0000
2000
,
0000
3020
0000
0032
,
0000
0000
0003
2000
,
0000
0000
0000
0000
0000
3000
0000
0000
,
0000
0000
0000
0000
0000
0000
0000
0000
0000
0000
0000
0000
1100
0000
0000
0000
0001
0000
0000
0000
1100
0000
0000
0000
0010
0000
0000
0000
0101
0000
0000
0000
0010
0000
0000
0000
1000
0000
0000
0100
0000
0000
0001
0000
0000
0010
0000
0000
,
0100
0000
0000
1000
0000
0000
0001
0000
0000
0100
0000
0000
0011
0000
0000
0000
1000
0000
0000
0000
0110
0000
0000
0000
0001
0000
0000
0000
1100
0000
0000
0000
0001
0000
0000
0000
0110
0000
0000
1000
0000
0000
0001
0000
0000
0010
0000
0000
,
0100
0000
0000
1000
0000
0000
0001
0000
0000
1000
0000
0000
0101
0000
0000
0000
1000
0000
0000
0000
0110
0000
0000
0000
0001
0000
0000
0000
0110
0000
0000
0000
1000
0000
0000
0000
0011
0000
0000
1000
0000
0000
0001
0000
0000
0100
0000
0000
,
0010
0000
0000
1000
0000
0000
0001
0000
0000
0100
0000
0000
0011
0000
0000
0000
1000
0000
0000
0000
0001
0000
0000
0000
0110
0000
0000
0000
0000
0000
0000
0000
0000
0000
0000
0000
0011
0000
0000
0000
1000
0000
0000
0000
0010
0000
0000
0000
,
2000
0000
0000
0000
0000
0000
0000
0000
0000
0000
0000
0000
3011
0000
0000
0000
1000
0000
0000
0000
0110
0000
0000
0000
1000
0000
0000
0000
0011
0000
0000
0000
1000
0000
0000
0000
0101
0000
0000
0010
0000
0000
1000
0000
0000
0100
0000
0000
,
0010
0000
0000
0001
0000
0000
1000
0000
0000
0010
0000
0000
1100
0000
0000
0000
0010
0000
0000
0000
0101
0000
0000
0000
1000
0000
0000
0000
0110
0000
0000
0000
0001
0000
0000
0000
1100
0000
0000
0001
0000
0000
1000
0000
0000
0100
0000
0000
,
0010
0000
0000
0001
0000
0000
1000
0000
0000
0001
0000
0000
1100
0000
0000
0000
0001
0000
0000
0000
0110
0000
0000
0000
1000
0000
0000
0000
0011
0000
0000
0000
0100
0000
0000
0000
1010
0000
0000
0001
0000
0000
1000
0000
0000
0010
0000
0000
,
0100
0000
0000
0001
0000
0000
1000
0000
0000
0010
0000
0000
1100
0000
0000
0000
0001
0000
0000
0000
1000
0000
0000
0000
0120
0000
0000
0000
0030
0000
0000
0000
0000
0000
0000
0000
1100
0000
0000
0000
0001
0000
0000
0000
0100
0000
0000
0000
,
2002
0000
3003
0000
,
1010
0001
0110
1000
0110
0001
1100
0000
0000
0101
0000
0000
,
1010
0100
0010
0101
1000
0001
0110
0000
0000
1010
0000
0000
,
1001
0100
0001
1100
0010
1000
0110
0000
0000
0011
0000
0000
,
0110
0001
1000
0110
0010
0100
2001
0010
0001
0100
0000
0000
,
3011
1000
0110
0001
0110
0001
1100
0000
0000
0011
0000
0000
,
0110
0001
0100
1010
0100
0010
0101
0000
0000
0110
0000
0000
,
0101
1000
0010
0101
0001
0100
1010
0000
0000
0101
0000
0000
,
1100
0010
0100
0011
0000
0000
0011
0100
0010
1100
0000
0000
,
1100
0000
0000
0000
0001
0000
0000
0000
0110
0000
0000
0000
1000
0000
0000
0000
0110
0000
0000
0000
0001
0000
0000
0000
1000
0000
0000
0100
0000
0000
0010
0000
0000
0001
0000
0000
1000
0000
0000
0000
0010
0000
0000
0000
0100
0000
0000
0000
,
0012
0000
0000
1000
1003
0000
2100
0000
,
3012
0000
0000
0103
0210
0000
1300
0000
,
0012
0000
0000
0113
0110
0000
1100
0000
,
0110
0000
0011
0000
2002
3003
0000
0000
,
2001
0000
0000
0001
3001
0000
0012
0000
,
2103
0000
0000
0001
3001
0000
0110
0000
,
1002
0000
0000
1000
1003
0000
0110
0000
,
0101
0000
1010
0000
0110
0000
1000
0100
,
2100
0001
3100
0010
1000
0001
0100
0001
0010
0001
1000
0100
0010
0001
0100
0010
,
1000
0001
0100
0010
1000
0010
1000
0100
1000
0100
0010
0001
0100
0010
1000
0001
,
0010
0001
0100
0010
1000
0100
1000
0001
0100
0010
1000
0001
0100
0010
1000
0010
,
0100
0001
1000
0001
0100
0010
1000
0100
1000
0001
0100
0010
1100
0000
0000
0000
,
0012
1000
0103
0010
0001
0100
0010
1000
0001
1000
0001
0100
0010
1000
0100
1000
,
0010
0100
0001
0100
0001
0010
0100
1000
0010
0100
0001
0010
1100
0000
0000
0000
,
0110
1100
1001
0110
,
0020
0000
0000
0000
,
0200
0000
0330
0000
,
0011
0000
0000
0101
0101
0101
0101
0000
0000
1100
1100
1100
,
1100
0000
0000
1001
1001
1001
1001
0000
0000
0101
1010
0101
,
1010
0000
0000
0011
1100
0011
1100
0000
0000
1010
0101
1010
,
0101
0000
0000
0101
0010
1100
0001
0110
1000
0011
0100
1010
,
1001
0000
0000
1010
1010
1010
1010
0000
0000
0011
0011
0011
,
0011
0000
0000
1001
1001
1001
1001
0000
0000
1010
0101
1010
,
0101
0000
0000
1100
0011
1100
0011
0000
0000
0101
1010
0101
,
1010
0000
0000
1010
0100
0011
1000
0110
0001
1100
0010
0101
,
0120
0000
2130
0000
,
3120
0000
0231
0000
,
0312
0000
0000
0000
,
2103
0000
0000
3000
,
2100
0000
3020
0000
,
0132
0000
0003
0000
,
0120
0000
0230
0000
,
0312
0000
0000
0003
,
2100
0000
0000
0000
,
0020
0000
0000
3030
,
0102
0000
0020
0030
,
0213
0000
0300
2000
,
3002
0000
0103
0000
,
0110
0011
2100
3000
,
0022
0000
0000
0000
0000
0000
0000
0033
,
2000
0000
0000
3000
0020
0000
0000
0030
,
2002
0000
0000
0000
0000
0000
0000
3003
,
0002
0000
0000
0003
0200
0000
0300
0000
,
2200
0000
0000
0000
0000
0000
0000
3300
,
0002
0000
1003
0000
,
0220
0000
0000
0300
,
0000
0000
0030
0000
;
