#TITLE:Ring Ding Dong;
#SUBTITLE:;
#ARTIST:SHINee;
#TITLETRANSLIT:;
#SUBTITLETRANSLIT:;
#ARTISTTRANSLIT:;
#CREDIT:;
#BANNER:Ring Ding Dong-bn.jpg;
#BACKGROUND:Ring Ding Dong-bg.jpg;
#LYRICSPATH:;
#CDTITLE:;
#MUSIC:Ring Ding Dong.mp3;
#OFFSET:0.000;
#SAMPLESTART:16.000;
#SAMPLELENGTH:15.400;
#SELECTABLE:YES;
#BPMS:0.000=125.000;
#STOPS:;
#BGCHANGES:;
// cache tags:
#FIRSTBEAT:1.500;
#LASTBEAT:481.000;
#SONGFILENAME:Songs/toune 1 (2010)/Ring Ding Dong/Ring Ding Dong.sm;
#HASMUSIC:1;
#HASBANNER:1;
#MUSICLENGTH:237.245;
// end cache tags

//---------------dance-single - ----------------
#NOTES:
     dance-single:
     :
     Hard:
     9:
     0.783,0.836,0.594,0.443,0.468,1055.000,141.000,105.000,0.000,1.000:
0000
0000
0000
0100
0010
0001
1000
0100
,
0010
0000
0001
0000
0100
0000
0010
0000
0001
0100
1000
0000
0010
0000
0100
0000
,
1000
0001
0010
0100
1000
0010
0100
1000
,
0001
0000
0010
0000
0100
0000
1000
0000
0100
0010
0001
0000
0100
0000
0010
0000
,
0001
1000
0100
0010
0001
0100
0010
0001
,
1000
0000
0100
0000
0010
0000
0001
0000
0001
0010
0100
0000
0010
0000
0100
0000
,
1000
0001
0010
0100
1000
0010
0100
1000
,
0001
0000
0010
0000
0100
0000
1000
0000
1000
0100
0020
0000
0001
0000
1000
0000
,
0001
0000
0000
1000
0000
0000
0031
0000
0000
1001
0000
0000
0000
0000
0100
0000
0000
0000
0100
0000
0000
0010
0000
0000
,
0000
0000
0000
0000
0010
0000
0000
0000
0000
0000
0000
0000
0001
0000
0000
0000
0000
0000
1000
0000
0000
0000
0000
0000
0100
0000
0000
0001
0000
0000
0100
0000
0000
0000
0000
0000
0010
0000
0000
1000
0000
0000
0010
0000
0000
0000
0000
0000
,
0000
0000
0100
0000
0000
0000
0100
0000
0000
1001
0000
0000
0000
0000
0010
0000
0000
0000
0010
0000
0000
0100
0000
0000
,
0000
0000
0000
0000
0100
0000
0000
0000
0000
0000
0000
0000
1000
0000
0000
0000
0000
0000
0001
0000
0000
0000
0000
0000
0010
0000
0000
1000
0000
0000
0010
0000
0000
0000
0000
0000
0100
0000
0000
0001
0000
0000
0100
0000
0000
0000
0000
0000
,
0000
0000
0100
0000
0000
0000
0100
0000
0000
1001
0000
0000
0000
0000
0100
0000
0000
0000
0100
0000
0000
0010
0000
0000
,
0000
0000
0000
0000
0010
0000
0000
0000
0000
0000
0000
0000
0001
0000
0000
0000
0000
0000
1000
0000
0000
0000
0000
0000
0100
0000
0000
0001
0000
0000
0100
0000
0000
0000
0000
0000
0010
0000
0000
1000
0000
0000
0010
0000
0000
0000
0000
0000
,
0000
0000
0100
0000
0000
0000
0100
0000
0000
1001
0000
0000
0000
0000
0010
0000
0000
0000
0010
0000
0000
0100
0000
0000
,
0000
0000
0000
0000
0100
0000
0000
0000
0000
0000
0000
0000
1000
0000
0000
0000
0000
0000
0001
0000
0000
0000
0000
0000
0010
0000
0000
1000
0000
0000
0010
0000
0000
0000
0000
0000
0100
0000
0000
0001
0000
0000
0100
0000
0000
0000
0000
0000
,
0000
0000
0000
0000
0100
0000
0000
0000
0000
0000
0000
0000
0100
0000
0000
0000
0000
0000
1000
0000
0000
0100
0000
0000
0010
0000
0000
0001
0000
0000
0010
0000
0000
0100
0000
0000
1000
0000
0000
0000
0000
0000
0000
0000
0000
0000
0000
0000
,
0100
0010
0001
0000
0001
0000
0001
0010
0100
1000
0100
0010
0001
0000
0000
0000
,
0010
0100
1000
0000
1000
0000
1000
0100
0010
0001
0010
0100
1000
0000
0000
0000
,
0100
0010
0001
0000
0001
0000
0001
0010
0100
1000
0100
0010
0001
0000
0000
0000
,
0010
0010
0010
0010
1000
0001
0100
0010
,
1000
0000
0001
0000
0100
0000
0100
0010
0000
0001
0000
1000
0010
0000
1000
0000
,
0001
0100
0010
0001
0010
0100
1000
0100
,
0001
0000
0110
0000
1000
0100
0010
0001
0010
0100
2000
0000
0000
0000
3000
0000
,
0100
0000
0010
0000
0100
0000
0010
1000
0100
0001
0010
1000
0100
0000
0000
0000
,
0001
0000
1000
0000
0001
0000
1000
0100
0001
0010
1000
0100
0001
0000
0000
0000
,
0010
0000
0100
0000
0010
0000
0100
0001
0010
1000
0100
0001
0010
0000
0000
0000
,
1000
0000
0001
0000
1000
0000
0001
0010
1000
0100
0001
0010
2000
0000
0000
0000
,
3000
0000
1000
0011
0100
1010
0001
0101
,
0010
0000
1100
0000
1000
0000
0010
0001
0000
0100
0000
0010
0001
0010
0110
0000
,
1000
0110
0000
1001
1100
1010
1100
1001
,
0011
0101
1001
0011
1001
0110
0110
1001
,
1000
0010
0100
0001
0100
0000
0002
0000
0100
0000
2003
0000
0001
0000
0010
0000
,
0100
0000
3001
0000
0010
0000
0100
0000
1000
0010
0001
0000
0010
0000
1000
0000
,
0100
0001
0010
2000
0100
0002
3010
1000
,
0100
0000
0013
0000
0001
0000
0010
0000
0100
0001
0010
0000
0100
0000
1001
0000
,
0110
1001
0110
0011
1100
0011
1100
0101
,
1010
0000
0101
0000
1010
0000
0101
0000
0001
0010
1000
0000
0011
0000
0110
0000
,
1100
0110
0011
0110
1100
0011
0110
0011
,
1100
0000
0011
0000
1100
0000
0011
0000
0001
0010
0200
0000
1000
0000
0001
0000
,
1000
0001
1300
2000
3100
0020
0130
0002
,
0103
0020
0130
2000
3100
0020
0130
0202
,
0303
2020
3030
0000
0101
0000
2000
0000
3010
0000
0200
0000
0310
0000
0002
0000
,
0013
0200
0310
2000
3010
0200
0310
2020
,
3030
0202
0303
0000
1010
0000
2000
0000
3001
0010
1000
0000
0011
0000
0002
0000
,
1003
0100
0001
0000
1100
0000
0200
0000
0310
0001
0100
0000
0110
0000
0020
0000
,
0130
1000
0010
0000
0110
0000
0100
1000
0100
0001
0100
1000
0100
0000
0001
0100
,
1000
0100
0001
0100
1000
0000
0010
0001
0010
1000
0010
0001
0010
0000
1000
0010
,
0001
0000
0000
0010
0000
0000
1000
0000
0000
0010
0000
0000
0001
0000
0000
0000
0000
0000
1010
0000
0000
0000
0000
0000
0000
0000
0000
0000
0100
0000
0000
0000
0000
0000
0000
0000
0100
0000
0000
0000
0000
0000
0001
0000
0000
0000
0000
0000
,
0000
0000
0000
0000
1000
0000
0000
0000
0000
0000
0000
0000
0010
0000
0000
0000
0000
0000
0100
0000
0000
0000
0000
0000
0100
0000
0000
0100
0000
0000
0010
0000
0000
0000
0000
0000
0010
0000
0000
0010
0000
0000
0100
0000
0000
0000
0000
0000
,
0000
0000
0010
0000
0000
0000
0100
0000
0000
1010
0000
0000
0000
0000
1000
0000
0000
0000
0010
0000
0000
0010
0000
0000
,
0000
0000
0000
0000
0001
0000
0000
0000
0000
0000
0000
0000
0010
0000
0000
0000
0000
0000
0010
0000
0000
0000
0000
0000
0100
0000
0000
0100
0000
0000
0010
0000
0000
0000
0000
0000
0010
0000
0000
0010
0000
0000
0100
0000
0000
0000
0000
0000
,
0000
0000
0010
0000
0000
0000
1000
0000
0000
0011
0000
0000
0000
0000
0100
0000
0000
0000
1000
0000
0000
1000
0000
0000
,
0000
0000
0000
0000
0001
0000
0000
0000
0000
0000
0000
0000
0010
0000
0000
0000
0000
0000
0001
0000
0000
0000
0000
0000
1000
0000
0000
1000
0000
0000
0100
0000
0000
0000
0000
0000
0100
0000
0000
0100
0000
0000
1000
0000
0000
0000
0000
0000
,
0000
0000
0010
0000
0000
0000
0010
0000
0000
0110
0000
0000
0000
0000
0010
0000
0000
0000
1000
0000
0000
0001
0000
0000
,
0000
0000
0000
0000
0010
0000
0000
0000
0000
0000
0000
0000
0010
0000
0000
0000
0000
0000
1000
0000
0000
0000
0000
0000
0001
0000
0000
0001
0000
0000
0010
0000
0000
0000
0000
0000
0010
0000
0000
0010
0000
0000
0001
0000
0000
0000
0000
0000
,
0000
0000
0000
0000
0001
0000
0000
0000
0000
0000
0000
0000
0100
0000
0000
0000
0000
0000
0010
0000
0000
1000
0000
0000
0001
0000
0000
0100
0000
0000
0001
0000
0000
1000
0000
0000
0010
0000
0000
0000
0000
0000
0000
0000
0000
0000
0000
0000
,
1000
0001
0100
0000
0100
0000
0100
0001
1000
0010
1000
0001
0100
0000
0000
0000
,
0001
1000
0010
0000
0010
0000
0010
1000
0001
0100
0001
1000
0010
0000
0000
0000
,
1000
0001
0100
0000
0100
0000
0100
0001
1000
0010
1000
0001
0200
0000
0000
0000
,
0300
0000
0001
0000
1000
0001
0110
0000
0011
0000
1100
0000
0200
0310
0001
0010
,
0100
0010
0001
0010
0100
0000
1001
0000
1010
0000
0101
0000
0002
1003
0010
1000
,
0001
1000
0010
1000
0001
0000
2000
0000
3001
0000
0002
0000
1003
0000
0200
0000
,
0310
0020
0130
1010
1100
1010
0101
0011
,
0101
0000
1000
0010
0100
0001
0020
0000
0100
0000
2030
0000
0001
0000
0010
0000
,
3100
0000
1000
0000
0010
0000
0100
0000
1000
0010
0001
0000
0010
0000
1000
0000
,
0100
0001
0010
2000
0100
3002
0010
1000
,
0103
0000
0001
0000
0010
0000
1000
0000
0100
0001
0010
0000
1000
0000
0001
0000
,
0010
1000
0010
0002
1000
0203
0001
0010
,
1300
0000
0001
0000
0010
0000
1000
0000
0010
0100
1000
0000
0100
0000
0001
0000
,
0010
0100
0010
0002
0010
0203
0010
0001
,
1300
0000
0100
0000
0010
0000
0100
0000
0001
0010
0200
0000
1000
0000
0001
0000
,
1000
0000
0301
0000
1000
0000
0010
0000
0001
0010
0001
0000
0100
0000
0010
0000
,
0100
1000
0100
1000
0100
0000
0010
0001
0000
0010
0000
0100
1000
0000
0220
0000
,
0330
0000
0000
0000
0001
0000
0100
0000
1000
0100
1000
0000
0010
0000
0100
0000
,
0010
0001
0010
0001
0010
0000
0100
1000
0100
1000
0100
0010
0001
0000
0220
0000
,
0330
0000
1010
0202
0303
1010
0101
2020
,
3030
0101
1100
0202
0303
1100
0011
0202
,
0303
0000
0011
0000
0010
0000
0010
0000
0010
0000
0010
0010
0010
0010
0010
0010
,
0010
0010
0010
0010
0010
0000
0100
0000
0100
0000
0100
0000
0100
0000
0100
0100
,
0100
0000
0100
0100
0100
0000
0000
0000
1000
0000
0010
0000
0001
0000
0010
0000
,
0001
0010
2000
0000
3001
0100
0002
0000
,
1003
0100
2000
0010
0001
0010
0100
0010
,
0001
0000
0010
0000
3100
0000
1000
0000
0010
0000
0100
0000
0001
1000
0001
0000
,
0010
0000
0100
0000
0010
0000
0001
0000
0010
0000
0210
0300
2001
0000
3010
0000
,
0001
0010
0200
0300
1000
1000
0020
0000
,
0031
0000
0100
0000
2020
0000
0000
0000
0000
0000
0000
3030
0100
0010
0002
0000
,
0000
0003
0000
0000
1001
0101
0011
0101
,
1001
0110
1001
0110
0110
0110
0110
2002
,
3003
1000
0010
0001
0100
1000
0010
0001
,
0100
1000
0100
1001
1001
1001
1001
0220
,
0330
0100
1000
0010
0001
0100
1000
0010
,
0001
0100
1000
0100
1000
0100
0010
0001
,
0010
0001
0010
0100
1000
0100
1000
0100
,
0010
0001
0101
0110
1010
0110
0101
0110
,
1010
0110
0101
0110
1010
0110
0110
0110
,
1001
0000
2002
0000
3003
0000
0020
0000
0100
1000
0130
0010
0001
0010
0100
1000
,
0100
0010
0001
0010
0100
1000
0100
0000
1000
0010
0001
0000
0010
0000
1000
0000
,
0100
0000
0001
0000
0010
0000
2000
0000
0100
0010
3001
0010
0100
1000
0100
0010
,
0001
0010
0100
0000
0010
0000
1000
0000
0100
0001
0010
0000
1000
0000
0001
0000
,
0010
0000
1000
0000
0010
0000
0200
0000
0010
0001
0310
0100
1000
0100
0010
0001
,
0010
0100
1000
0100
0010
0001
0010
0000
0001
0100
1000
0000
0100
0000
0001
0000
,
0010
0000
1000
0000
0100
0000
0002
0000
0010
0100
1003
0100
0010
0001
0010
0100
,
1000
0100
0010
0000
0100
0000
0001
0000
0100
0001
0010
0000
1000
0000
0001
0000
,
0010
2000
3010
0002
0013
0200
0310
2000
,
3010
0200
0310
0002
0013
0200
0310
2020
,
3030
0202
0303
0000
1010
0000
0002
0000
0103
0000
0020
0000
0130
0000
2000
0000
,
3100
0020
0130
0002
0103
0020
0130
0202
,
0303
2020
3030
0000
0101
0000
0002
0000
1003
0100
0001
0000
1100
0000
2000
0000
,
3001
0010
1000
0000
0011
0000
0020
0000
0130
1000
0010
0000
0110
0000
0200
0000
,
0310
0001
0100
0000
0110
0000
0010
0001
0010
1000
0010
0001
0010
0000
1000
0010
,
0001
0010
1000
0010
0001
0000
0100
1000
0100
0001
0100
1000
0100
0000
0001
0100
,
1000
0000
0000
0100
0000
0000
0001
0000
0000
0100
0000
0000
1000
0000
0000
0000
0000
0000
1001
0000
0000
0000
0000
0000
0000
0000
0000
0000
0100
0000
0000
0000
0000
0000
0000
0000
0100
0000
0000
0000
0000
0000
0010
0000
0000
0000
0000
0000
,
0000
0000
0000
0000
0010
0000
0000
0000
0000
0000
0000
0000
0001
0000
0000
0000
0000
0000
1000
0000
0000
0000
0000
0000
0100
0000
0000
0001
0000
0000
0100
0000
0000
0000
0000
0000
0010
0000
0000
1000
0000
0000
0010
0000
0000
0000
0000
0000
,
0000
0000
0100
0000
0000
0000
0100
0000
0000
1001
0000
0000
0000
0000
0010
0000
0000
0000
0010
0000
0000
0100
0000
0000
,
0000
0000
0000
0000
0100
0000
0000
0000
0000
0000
0000
0000
1000
0000
0000
0000
0000
0000
0001
0000
0000
0000
0000
0000
0010
0000
0000
1000
0000
0000
0010
0000
0000
0000
0000
0000
0100
0000
0000
0001
0000
0000
0100
0000
0000
0000
0000
0000
,
0000
0000
0100
0000
0000
0000
0100
0000
0000
1001
0000
0000
0000
0000
0100
0000
0000
0000
0100
0000
0000
0010
0000
0000
,
0000
0000
0000
0000
0010
0000
0000
0000
0000
0000
0000
0000
0001
0000
0000
0000
0000
0000
1000
0000
0000
0000
0000
0000
0100
0000
0000
0001
0000
0000
0100
0000
0000
0000
0000
0000
0010
0000
0000
1000
0000
0000
0010
0000
0000
0000
0000
0000
,
0000
0000
0100
0000
0000
0000
0100
0000
0000
1001
0000
0000
0000
0000
0010
0000
0000
0000
0010
0000
0000
0100
0000
0000
,
0000
0000
0000
0000
0100
0000
0000
0000
0000
0000
0000
0000
1000
0000
0000
0000
0000
0000
0001
0000
0000
0000
0000
0000
0010
0000
0000
1000
0000
0000
0010
0000
0000
0000
0000
0000
0100
0000
0000
0001
0000
0000
0100
0000
0000
0000
0000
0000
,
0000
0100
0000
0100
0000
0000
0000
0000
0000
0000
0000
0000
;

//---------------dance-single - ----------------
#NOTES:
     dance-single:
     :
     Easy:
     1:
     0.000,0.000,0.000,0.000,0.000,0.000,0.000,0.000,0.000,0.000:
0000
0000
0000
0000
;

//---------------dance-single - Copied from----------------
#NOTES:
     dance-single:
     Copied from:
     Medium:
     7:
     0.600,0.659,0.261,0.459,0.137,826.000,62.000,109.000,0.000,0.000:
0000
0000
0000
0100
0010
0001
1000
0100
,
0010
0001
0100
0010
0001
1000
0100
0001
,
0010
1000
0100
0001
0010
1000
0100
0001
,
0010
1000
0100
0001
0010
0100
0001
1000
,
0100
0001
0100
1000
0001
0100
1000
0100
,
0001
1000
0100
0001
0100
0001
0010
1000
,
0100
0010
0100
1000
0100
0010
0100
0010
,
0001
0010
0100
0010
1000
0020
0001
1000
,
0001
0000
0000
1000
0000
0000
0031
0000
0000
1001
0000
0000
0000
0000
0100
0000
0000
0000
0100
0000
0000
0010
0000
0000
,
0000
0000
0010
0000
0000
0000
0001
0000
0000
1000
0000
0000
0100
0000
0000
0100
0000
0000
0010
0000
0000
0010
0000
0000
,
0000
0000
0100
0000
0000
0000
0100
0000
0000
1001
0000
0000
0000
0000
0010
0000
0000
0000
0010
0000
0000
0100
0000
0000
,
0000
0000
0100
0000
0000
0000
1000
0000
0000
0001
0000
0000
0010
0000
0000
0010
0000
0000
0100
0000
0000
0100
0000
0000
,
0000
0000
0100
0000
0000
0000
0100
0000
0000
1001
0000
0000
0000
0000
0100
0000
0000
0000
0100
0000
0000
0010
0000
0000
,
0000
0000
0010
0000
0000
0000
0001
0000
0000
1000
0000
0000
0100
0000
0000
0100
0000
0000
0010
0000
0000
0010
0000
0000
,
0000
0000
0100
0000
0000
0000
0100
0000
0000
1001
0000
0000
0000
0000
0010
0000
0000
0000
0010
0000
0000
0100
0000
0000
,
0000
0000
0100
0000
0000
0000
1000
0000
0000
0001
0000
0000
0010
0000
0000
0010
0000
0000
0100
0000
0000
0100
0000
0000
,
0000
0000
0100
0000
0000
0000
0100
0000
0000
1000
0000
0000
0100
0000
0000
0010
0000
0000
0001
0000
0000
0000
0000
0000
,
1000
0100
0010
0001
0010
0100
1000
0000
,
0001
0010
0100
1000
0100
0010
0001
0000
,
1000
0100
0010
0001
0010
0100
1000
0000
,
0010
0010
0010
0010
1000
0001
0100
0010
,
1000
0001
0100
0010
0010
0001
0010
0010
,
0001
0100
0010
0001
0010
0100
1000
0100
,
0001
0110
0001
0010
0100
2000
0000
3000
,
0100
0010
0100
1000
0010
0001
0100
0000
,
0001
1000
0001
1000
0100
1000
0010
0000
,
0010
0100
0010
0100
1000
0010
0001
0000
,
1000
0000
0001
0000
1000
0000
0010
0000
0001
0000
0100
0000
2000
0000
0000
3000
,
0000
0000
0001
0010
0100
1000
0001
0010
,
0100
1000
0001
0010
0100
1000
0001
0110
,
1000
0110
0000
1000
0100
1000
0100
0100
,
0010
0001
0010
0001
1001
0110
0110
1001
,
1000
0100
0100
0002
0000
2003
0000
0000
,
0000
3000
0010
0100
1000
0001
0010
1000
,
0100
0001
0010
2000
0000
3002
0000
0000
,
0000
0003
0001
0010
0100
0010
0100
1000
,
0100
0010
0100
0020
0000
0230
0000
0000
,
0000
0300
0100
0010
0100
0010
0001
0010
,
0100
0010
0100
0200
0000
0320
0000
0000
,
0000
0030
0100
0010
0100
1000
0100
0010
,
0100
0010
0001
2000
3100
0020
0130
0002
,
0103
0020
0130
2000
3100
0020
0130
0002
,
0003
0020
0030
0000
0100
0000
2000
0000
3010
0000
0200
0000
0310
0000
0002
0000
,
0013
0200
0310
2000
3010
0200
0310
2000
,
3000
0200
0300
0000
0010
0000
2000
0000
0000
0001
3000
0000
0011
0000
2000
0000
,
0000
0001
3000
0000
0011
0000
2000
0000
0000
0001
3000
0000
0011
0000
2000
0000
,
0000
0001
3000
0000
0011
0000
0002
0000
0000
1000
0003
0000
1100
0000
0002
0000
,
0000
1000
0003
0000
1100
0000
0002
0000
0000
1000
0003
0000
1100
0000
0002
0000
,
0000
0000
0000
1000
0000
0000
0003
0000
0000
0000
0000
0000
1100
0000
0000
0000
0000
0000
1010
0000
0000
0000
0000
0000
0000
0000
0000
0000
0100
0000
0000
0000
0000
0000
0000
0000
0100
0000
0000
0000
0000
0000
0001
0000
0000
0000
0000
0000
,
0000
0000
1000
0000
0000
0000
0010
0000
0000
0100
0000
0000
0100
0000
0000
0010
0000
0000
0010
0000
0000
0100
0000
0000
,
0000
0000
0010
0000
0000
0000
0100
0000
0000
1010
0000
0000
0000
0000
1000
0000
0000
0000
0010
0000
0000
0010
0000
0000
,
0000
0000
0001
0000
0000
0000
0010
0000
0000
0010
0000
0000
0100
0000
0000
0010
0000
0000
0010
0000
0000
0100
0000
0000
,
0000
0000
0010
0000
0000
0000
1000
0000
0000
0011
0000
0000
0000
0000
0100
0000
0000
0000
1000
0000
0000
1000
0000
0000
,
0000
0000
0001
0000
0000
0000
0010
0000
0000
0001
0000
0000
1000
0000
0000
0100
0000
0000
0100
0000
0000
1000
0000
0000
,
0000
0000
0010
0000
0000
0000
0010
0000
0000
0110
0000
0000
0000
0000
0010
0000
0000
0000
1000
0000
0000
0001
0000
0000
,
0000
0000
0010
0000
0000
0000
0010
0000
0000
1000
0000
0000
0001
0000
0000
0010
0000
0000
0010
0000
0000
0001
0000
0000
,
0000
0000
0001
0000
0000
0000
0100
0000
0000
0001
0000
0000
0001
0000
0000
0001
0000
0000
0000
0000
0000
0000
0000
0000
,
1000
0100
0010
1000
1000
1000
0000
0000
,
0001
0010
0010
0100
0100
0100
0000
0000
,
1000
0100
0010
0100
1000
0010
0200
0000
,
0300
0001
1000
0110
0110
0110
0200
0001
,
0300
0001
0100
1001
1001
1001
0002
0010
,
0003
0010
0001
2000
3001
0002
1003
0200
,
0310
0020
0130
1000
0010
0100
0001
0001
,
0100
0010
1000
2000
0000
3002
0000
0000
,
0000
0003
0100
0010
0001
1000
0100
0001
,
0010
1000
0100
0002
0000
2003
0000
0000
,
0000
3000
1000
0100
0010
0100
0010
0001
,
0010
0100
0010
0200
0000
0320
0000
0000
,
0000
0030
0010
0100
0010
0100
1000
0100
,
0010
0100
0010
0020
0000
0230
0000
0000
,
0000
0300
0010
0100
0010
0001
0010
0100
,
0010
0100
1000
0010
0001
0001
0100
0010
,
0100
0100
0100
0010
0100
0010
1000
0220
,
0330
0000
0001
0100
1000
1000
0010
0100
,
0010
0010
0010
0100
0100
0100
0001
0220
,
0330
0000
0010
0200
0300
0010
0001
0020
,
0030
0001
1000
0200
0300
1000
0100
0020
,
0030
0100
0010
0010
0010
0010
0010
0010
,
0010
0010
0010
0100
0100
0100
0100
0100
,
0100
0100
0100
0000
1000
0010
0001
0010
,
0001
0010
2000
0000
3001
0100
0002
0000
,
1003
0100
2000
0010
0001
0010
0100
0010
,
0001
0000
0010
0000
3100
0000
1000
0000
0010
0000
0100
0000
0001
1000
0001
0000
,
0010
0000
0100
0000
0010
0000
0001
0000
0010
0000
0200
0300
2000
0000
3010
0000
,
0001
0010
0200
0300
1000
1000
0020
0000
,
0031
0000
0100
0000
2020
0000
0000
0000
0000
0000
0000
3030
0000
0000
0002
0000
,
0000
0003
0000
0000
0010
1000
0100
0001
,
0010
1000
0100
0110
0110
0110
0110
2002
,
3003
1000
0010
0001
0100
1000
0010
0001
,
0100
1000
0100
1001
1001
1001
1001
0220
,
0330
1000
0100
0010
0001
1000
0100
0010
,
0001
0100
1000
0100
1000
0100
0010
0001
,
0010
0001
0010
0100
1000
0100
1000
0100
,
0010
0001
0010
0100
0010
0100
0010
0100
,
0010
0100
1000
0100
0010
0110
0110
0110
,
1001
2002
3003
0020
0100
2030
0001
0010
,
3100
1000
0010
0100
1000
0001
0010
1000
,
0100
0001
0010
2000
0100
3002
0010
1000
,
0103
0001
0010
1000
0100
0010
1000
0001
,
0010
1000
0010
0002
1000
0203
0001
0010
,
1300
0001
0010
1000
0010
1000
0100
0001
,
0010
0100
0010
0002
0010
0203
0010
0001
,
1300
0100
0010
0100
0010
0200
1000
0001
,
1000
0301
1000
0002
0013
0200
0310
2000
,
3010
0200
0310
0002
0013
0200
0310
2020
,
3030
0202
0303
0000
1010
0000
0002
0000
0103
0000
0020
0000
0130
0000
2000
0000
,
3100
0020
0130
0002
0103
0020
0130
0002
,
0003
0020
0030
0000
0001
0000
2000
0000
0000
0010
3000
0000
0011
0000
2000
0000
,
0000
0010
3000
0000
0011
0000
2000
0000
0000
0010
3000
0000
0011
0000
2000
0000
,
0000
0010
3000
0000
0011
0000
0002
0000
0000
0100
0003
0000
1100
0000
0002
0000
,
0000
0100
0003
0000
1100
0000
0002
0000
0000
0100
0003
0000
1100
0000
0002
0000
,
0000
0000
0000
0100
0000
0000
0003
0000
0000
0000
0000
0000
1100
0000
0000
0000
0000
0000
1001
0000
0000
0000
0000
0000
0000
0000
0000
0000
0100
0000
0000
0000
0000
0000
0000
0000
0100
0000
0000
0000
0000
0000
0010
0000
0000
0000
0000
0000
,
0000
0000
0000
0000
0010
0000
0000
0000
0000
0000
0000
0000
0001
0000
0000
0000
0000
0000
1000
0000
0000
0000
0000
0000
0100
0000
0000
0001
0000
0000
0100
0000
0000
0000
0000
0000
0010
0000
0000
1000
0000
0000
0010
0000
0000
0000
0000
0000
,
0000
0000
0100
0000
0000
0000
0100
0000
0000
1001
0000
0000
0000
0000
0010
0000
0000
0000
0010
0000
0000
0100
0000
0000
,
0000
0000
0000
0000
0100
0000
0000
0000
0000
0000
0000
0000
1000
0000
0000
0000
0000
0000
0001
0000
0000
0000
0000
0000
0010
0000
0000
1000
0000
0000
0010
0000
0000
0000
0000
0000
0100
0000
0000
0001
0000
0000
0100
0000
0000
0000
0000
0000
,
0000
0000
0100
0000
0000
0000
0100
0000
0000
1001
0000
0000
0000
0000
0100
0000
0000
0000
0100
0000
0000
0010
0000
0000
,
0000
0000
0000
0000
0010
0000
0000
0000
0000
0000
0000
0000
0001
0000
0000
0000
0000
0000
1000
0000
0000
0000
0000
0000
0100
0000
0000
0001
0000
0000
0100
0000
0000
0000
0000
0000
0010
0000
0000
1000
0000
0000
0010
0000
0000
0000
0000
0000
,
0000
0000
0100
0000
0000
0000
0100
0000
0000
1001
0000
0000
0000
0000
0010
0000
0000
0000
0010
0000
0000
0100
0000
0000
,
0000
0000
0000
0000
0100
0000
0000
0000
0000
0000
0000
0000
1000
0000
0000
0000
0000
0000
0001
0000
0000
0000
0000
0000
0010
0000
0000
1000
0000
0000
0010
0000
0000
0000
0000
0000
0100
0000
0000
0001
0000
0000
0100
0000
0000
0000
0000
0000
,
0000
0100
0000
0100
0000
0000
0000
0000
0000
0000
0000
0000
;
