#TITLE:Fly Away;
#SUBTITLE:;
#ARTIST:Loki;
#TITLETRANSLIT:;
#SUBTITLETRANSLIT:;
#ARTISTTRANSLIT:;
#CREDIT:;
#BANNER:Fly Away.png;
#BACKGROUND:Fly Away-bg.png;
#LYRICSPATH:;
#CDTITLE:!mm989cdtitle.png;
#MUSIC:fly_away.mp3;
#OFFSET:-1.524;
#SAMPLESTART:13.460;
#SAMPLELENGTH:14.500;
#SELECTABLE:YES;
#BPMS:0.000=160.000;
#STOPS:;
#BGCHANGES:;
// cache tags:
#FIRSTBEAT:0.000;
#LASTBEAT:257.000;
#SONGFILENAME:Songs/IzzySM Keyboard Mega Pack/Fly Away/Fly Away.sm;
#HASMUSIC:1;
#HASBANNER:1;
#MUSICLENGTH:103.033;
// end cache tags

//---------------dance-single - ----------------
#NOTES:
     dance-single:
     :
     Hard:
     10:
     0.750,0.842,0.573,0.301,0.471,451.000,59.000,31.000,0.000,0.000:  // measure 1
0010
0000
0000
0100
0000
1000
0010
1000
0010
0000
2000
0000
0000
0000
3001
0000
,  // measure 2
0101
0000
0000
0010
0000
1000
0100
1000
0100
0000
0020
0000
0000
0000
0130
0000
,  // measure 3
1100
0000
0000
0010
0000
0001
0100
0001
0100
0000
0020
0000
0000
0000
1030
0000
,  // measure 4
1001
0000
0100
0000
0001
0000
0100
0000
0010
0000
1000
0000
0100
0010
0100
0010
,  // measure 5
0100
0000
0000
0001
0000
1000
0100
1000
0100
0000
2100
0000
0000
0000
3010
0000
,  // measure 6
0100
0000
0000
0001
0000
0100
0010
0100
0010
0000
0120
0000
0000
0000
1030
0000
,  // measure 7
0100
0000
0000
1000
0000
0010
1000
0010
1000
0000
1020
0000
0000
0000
0130
0000
,  // measure 8
0001
0000
1000
0000
0010
0000
1000
0000
0001
0000
0100
0000
0001
1000
0001
1000
,  // measure 9
0002
0000
0000
0000
0100
0000
0100
0000
0100
0000
0000
1000
0000
0000
0100
0000
,  // measure 10
0203
0000
0000
0000
0010
0000
0010
0000
0010
0000
0000
0001
0000
0000
0010
0000
,  // measure 11
0320
0000
0000
0000
1000
0000
1000
0000
1000
0000
0000
0100
0000
0000
1000
0000
,  // measure 12
1030
0000
0100
0000
0100
0000
0010
0000
0010
0000
0000
0011
0000
0000
1000
0000
,  // measure 13
2000
0000
0000
0000
0001
0000
0001
0000
0010
0000
0000
0100
0000
0000
0010
0000
,  // measure 14
3020
0000
0000
0000
1000
0000
1000
0000
0001
0000
0000
1000
0000
0000
0100
0000
,  // measure 15
0230
0000
0001
0000
0010
0000
0001
0000
0010
0000
0000
1000
0000
0000
0001
0000
,  // measure 16
0301
0000
0000
1010
0000
0000
0101
0000
,  // measure 17
2001
0000
0000
0000
0010
0000
0100
0000
0100
0000
0000
0001
3000
0000
0001
0000
,  // measure 18
0021
0000
0000
0000
0100
0000
0001
0000
0001
0000
0000
0100
0030
0000
0100
0000
,  // measure 19
0210
0000
0000
0000
0010
0000
0001
0000
0001
0000
0000
1000
0300
0000
1000
0000
,  // measure 20
1100
0000
0010
0000
0001
0000
0101
0000
0010
0000
1000
0000
,  // measure 21
1001
0000
0000
0000
1000
0000
0100
0000
0010
0000
0000
0110
0000
0000
0001
0000
,  // measure 22
0110
0000
0000
0000
0100
0000
0010
0000
0001
0000
0000
1100
0000
0000
0001
0000
,  // measure 23
1100
0010
0001
0000
1000
0001
0100
0010
,  // measure 24
1001
0000
0000
0000
1000
0100
1000
0100
0010
0001
0010
0001
1000
0000
0010
0000
,  // measure 25
1001
0100
0010
1001
0100
1000
0100
0010
,  // measure 26
1100
0001
0010
1100
0001
1000
0011
0100
,  // measure 27
0010
1000
0011
0100
0001
1000
0010
0100
,  // measure 28
1001
0000
0100
0010
0100
0010
0100
0001
1000
0000
0001
0000
0100
0000
0010
0000
,  // measure 29
1001
0010
1001
0001
0100
0001
1000
0100
,  // measure 30
1010
0001
0100
1010
1000
0001
1100
0010
,  // measure 31
0001
1000
1100
0001
1000
0100
0010
0100
,  // measure 32
1001
0100
1000
0001
0010
0101
0010
0000
,  // measure 33
2000
0000
0100
0100
,  // measure 34
0001
3100
0011
0101
,  // measure 35
0020
0000
1000
1000
,  // measure 36
0100
0100
0130
0100
0001
0000
1100
0000
,  // measure 37
0002
0000
0010
0010
,  // measure 38
1000
0013
1100
0011
,  // measure 39
0200
0000
1000
1000
,  // measure 40
0010
0010
0310
0010
0001
0000
0101
0000
,  // measure 41
2010
0000
0010
0010
,  // measure 42
0001
3010
0101
0011
,  // measure 43
0120
0000
0100
0100
,  // measure 44
0001
0001
0031
0001
1010
0000
1100
0000
,  // measure 45
0012
0000
1000
0000
0100
1000
0100
1000
,  // measure 46
0010
0000
0103
0010
0101
0000
1010
0000
,  // measure 47
1002
0000
0100
0100
1000
0000
1003
0000
,  // measure 48
1000
0010
0100
0001
0100
0010
1000
0001
,  // measure 49
1001
0000
0000
0000
0001
0000
1000
0000
0010
1000
0000
0001
0000
0000
0010
0000
,  // measure 50
1001
0000
0110
0000
0001
0100
1000
0001
,  // measure 51
0010
0000
1010
0000
0001
0000
1010
0000
0100
0000
0001
0000
1000
0010
0100
0000
,  // measure 52
0010
0001
1000
0100
0010
0100
0010
0001
,  // measure 53
0001
0100
0000
0010
0000
0000
1000
0000
0100
0010
0000
0010
0000
0000
1000
0000
,  // measure 54
2000
0000
3002
0000
1003
0100
0010
0100
,  // measure 55
1000
0001
0000
0110
0000
0000
0000
0000
1000
0010
0000
1000
0000
1000
0001
0000
,  // measure 56
0100
0001
0000
0100
0000
0100
0001
0000
0001
0010
0000
0001
0000
0001
1000
0000
,  // measure 57
1001
0000
0000
0100
0000
0001
1000
0001
1000
0000
0020
0000
0000
0000
0130
0000
,  // measure 58
0001
0000
0000
0100
0000
0010
1000
0010
1000
0000
0002
0000
0000
0000
0013
0000
,  // measure 59
1000
0000
0000
0001
0000
0010
0100
0010
0100
0000
2000
0000
0000
0000
3010
0000
,  // measure 60
0100
0010
0100
0010
0100
0010
0100
0010
0100
0010
0100
0010
0100
0010
0100
0010
,  // measure 61
1000
0000
0000
0001
0000
0010
0100
1000
0100
0000
0002
0000
0000
0000
0013
0000
,  // measure 62
1000
0000
0000
0010
0000
0001
0100
0010
0100
0000
2000
0000
0000
0000
3010
0000
,  // measure 63
0001
0000
0000
0010
0000
0100
1000
0010
1000
0000
0200
0000
0000
0000
0301
0000
,  // measure 64
1000
0001
1000
0001
1000
0001
1000
0001
1000
0001
1000
0001
1000
0001
1000
0001
,  // measure 65
1010
0100
0000
0000
;

//---------------dance-single - ----------------
#NOTES:
     dance-single:
     :
     Challenge:
     12:
     1.000,1.000,1.000,0.194,1.000,651.000,149.000,20.000,0.000,0.000:  // measure 1
1001
0000
0110
1000
0000
0110
0001
0010
0001
0000
2010
0000
0000
0000
3001
0000
,  // measure 2
0101
0000
1010
0100
0000
1010
0001
0100
0001
0000
0120
0000
0000
0000
1030
0000
,  // measure 3
1001
0000
0101
0010
0000
0101
1000
0010
1000
0000
0021
0000
0000
0000
0031
0000
,  // measure 4
1010
0100
0001
0100
1000
0010
0100
0001
0010
0100
1000
0100
1000
0010
0100
0001
,  // measure 5
1100
0000
1010
0001
0000
1010
0100
1000
0100
0000
0102
0000
0000
0000
0013
0000
,  // measure 6
0110
0000
0101
1000
0000
0101
0010
1000
0010
0000
1020
0000
0000
0000
0130
0000
,  // measure 7
1001
0000
0110
1000
0000
0110
0001
0010
0001
0000
1200
0000
0000
0000
0310
0000
,  // measure 8
0011
0100
0010
0001
0100
0010
1000
0100
0010
1000
0100
0010
0001
0010
0100
0010
,  // measure 9
1001
0000
0000
0000
0100
0000
0000
0000
1000
0000
0000
0000
0001
0000
0000
0010
0100
0000
0000
0000
1000
0000
0000
0000
0110
0000
0000
0000
1001
0000
0000
0000
,  // measure 10
0110
0000
0000
0000
0001
0000
0000
0000
0010
0000
0000
0000
0100
0000
0000
1000
0100
0000
0000
0000
0010
0000
0000
0000
0101
0000
0000
0000
1100
0000
0000
0000
,  // measure 11
0101
0000
0000
0000
0010
0000
0000
0000
0100
0000
0000
0000
0001
0000
0000
1000
0010
0000
0000
0000
0001
0000
0000
0000
1100
0000
0000
0000
0011
0000
0000
0000
,  // measure 12
1100
0000
0000
0000
0010
0000
0000
0000
0001
0000
0000
0000
0100
0000
0000
1000
0100
0000
0000
0000
0010
0000
0000
0000
0101
0000
0000
0000
1010
0000
0000
0000
,  // measure 13
0101
0000
0000
0000
0100
0000
0000
0000
1000
0000
0000
0000
1000
0000
0000
0010
0001
0000
0000
0000
0100
0000
0000
0000
1010
0000
0000
0000
0011
0000
0000
0000
,  // measure 14
1010
0000
0000
0000
0010
0000
0000
0000
0001
0000
0000
0000
0001
0000
0000
0100
1000
0000
0000
0000
0101
0000
0000
0000
0010
0000
0000
0000
1100
0000
0000
0000
,  // measure 15
0110
0000
0000
0000
1000
0000
0000
0000
0011
0000
0000
0000
0110
0000
0000
0100
0001
0000
0000
0000
0100
0000
0000
0000
1000
0000
0000
0000
0100
0000
0000
0000
,  // measure 16
1001
0100
0100
0011
0100
0100
1100
0010
,  // measure 17
1001
0000
0000
0000
0100
0000
0000
0000
1000
0000
0000
0000
0010
0000
0000
0001
1000
0000
0000
0000
0101
0000
0000
0000
1000
0000
0000
0000
0010
0000
0000
0000
,  // measure 18
1001
0000
0000
0000
0100
0000
0000
0000
0001
0000
0000
0000
0100
0000
0000
1000
0010
0000
0000
0000
1100
0000
0000
0000
0001
0000
0000
0000
1000
0000
0000
0000
,  // measure 19
0011
0000
0000
0000
0100
0000
0000
0000
0010
0000
0000
0000
1000
0000
0000
0010
0001
0000
0000
0000
0110
0000
0000
0000
1000
0000
0000
0000
0100
0000
0000
0000
,  // measure 20
1001
0000
1010
0000
0101
0000
0110
0000
1010
0000
0110
0000
,  // measure 21
1001
0000
0000
0000
0010
0000
0000
0000
1000
0000
0000
0000
0010
0000
0000
0100
1000
0000
0000
0000
0101
0000
0000
0000
0010
0000
0000
0000
0100
0000
0000
0000
,  // measure 22
0110
0000
0000
0000
1000
0000
0000
0000
0001
0000
0000
0000
0100
0000
0000
1000
0001
0000
0000
0000
0110
0000
0000
0000
0001
0000
0000
0000
1100
0000
0000
0000
,  // measure 23
1001
0100
0110
1000
0001
0010
0100
0010
,  // measure 24
1001
0000
0100
0010
0001
1000
0100
1000
0100
0010
0001
0010
0001
0000
0010
0000
,  // measure 25
0100
1000
0001
0100
0010
0100
0001
1000
0100
0010
0001
0010
0100
0010
0100
1000
,  // measure 26
0101
0010
1000
0100
0010
0001
0010
0100
1000
0001
0010
0001
1000
0010
0100
0010
,  // measure 27
1100
0001
0100
0001
0010
0100
0010
0100
1000
0010
0100
0001
0010
0001
0100
0010
,  // measure 28
1001
0000
0001
0010
0100
1000
0010
0100
0101
0000
1010
0000
1100
0000
0101
0000
,  // measure 29
1001
0100
0010
0001
0010
0001
0100
0001
0100
0010
1000
0010
1000
0001
0100
0010
,  // measure 30
1100
0010
0100
0001
0100
0010
1000
0010
1000
0001
0100
0010
0100
0010
1000
0100
,  // measure 31
0011
0100
0001
1000
0010
0100
0001
1000
0001
0010
0100
1000
0010
0100
0001
1000
,  // measure 32
0110
0110
1001
0110
0101
1010
0101
0000
,  // measure 33
2002
0000
0000
0000
,  // measure 34
0000
0000
3003
0000
1010
1000
0110
0010
,  // measure 35
0202
0000
0000
0303
,  // measure 36
0010
1000
0001
1000
0010
1000
0001
0100
0001
0100
0001
0010
0100
1000
0100
0010
,  // measure 37
2200
0000
0000
0000
,  // measure 38
0000
0000
3300
0000
0101
0001
1010
1000
,  // measure 39
0220
0000
0000
0330
,  // measure 40
0001
0100
0010
1000
0010
1000
0100
0010
0001
0010
0001
0010
0100
1000
0001
0010
,  // measure 41
0101
0000
0001
0000
1000
0100
0010
0000
0001
0000
0001
0000
0100
0010
1000
0000
,  // measure 42
0100
0000
0100
0000
0010
0001
0100
0000
0101
0000
0000
0000
0110
0000
0000
0000
,  // measure 43
1010
0000
0010
0000
0100
0001
0010
0000
0100
0000
0100
0000
0010
0001
1000
0000
,  // measure 44
1000
0100
1000
0001
0010
0100
1000
0010
1000
0100
0010
0100
1000
0001
0010
0100
,  // measure 45
1001
0000
0001
0000
0100
0001
0100
0000
0010
0000
0010
0000
1000
0010
1000
0000
,  // measure 46
0100
0000
0100
0000
0010
0001
0010
0000
0110
0000
0000
0000
1001
0000
0000
0000
,  // measure 47
0100
1000
0010
0100
0010
1000
0001
0010
0001
0100
0001
1000
0100
0010
0100
0010
,  // measure 48
1001
0000
0001
0100
0010
1000
0100
0010
0100
0010
0001
1000
0001
1000
0010
0100
,  // measure 49
1001
0000
0000
1000
0101
0000
1100
0010
0001
1000
0000
0110
0000
0000
1001
0000
,  // measure 50
0101
0000
0000
0000
1001
0000
0000
0000
0010
1000
0100
0001
0100
1000
0001
0010
,  // measure 51
1100
0000
0011
0000
0100
0000
0011
0000
1001
0000
0001
1000
0010
0100
0001
0000
,  // measure 52
0010
0001
0100
0001
1000
0100
1000
0100
0010
0001
0010
0100
1000
0001
1000
0010
,  // measure 53
1001
0100
0000
0101
0000
0001
1000
1100
0010
0000
1001
0000
0000
0000
0010
0000
,  // measure 54
1100
0000
0000
0000
1000
0000
0010
0000
0001
0010
0100
0010
0001
0100
0010
1000
,  // measure 55
0010
1000
0100
0000
0001
0000
0010
0000
1000
0001
0000
0110
0000
0100
0010
0000
,  // measure 56
1000
0100
0000
1100
0000
0001
0010
0000
0100
1000
0000
0101
0000
0010
1000
0000
,  // measure 57
1001
0000
0110
1000
0000
0110
0001
0100
0001
0000
1200
0000
0000
0000
0310
0000
,  // measure 58
0011
0000
1100
0001
0000
1100
0001
0010
0001
0000
0102
0000
0000
0000
1003
0000
,  // measure 59
1010
0000
0011
1000
0000
0011
0100
0010
0100
0000
1020
0000
0000
0000
1030
0000
,  // measure 60
1001
0100
0001
0010
0001
1000
0100
0010
0001
0100
0001
1000
0010
0100
0010
1000
,  // measure 61
0101
0000
1010
0100
0000
1010
0001
0100
0001
0000
2100
0000
0000
0000
3010
0000
,  // measure 62
0110
0000
1001
0010
0000
1001
0100
0010
0100
0000
2010
0000
0000
0000
3001
0000
,  // measure 63
1100
0000
0011
0100
0000
0011
1000
0100
1000
0000
0120
0000
0000
0000
0031
0000
,  // measure 64
1100
0010
0100
1000
0001
0100
0010
1000
0001
0010
0100
0010
0001
1000
0001
0010
,  // measure 65
1100
0001
0000
0000
;

//---------------dance-single - ----------------
#NOTES:
     dance-single:
     :
     Beginner:
     1:
     0.000,0.000,0.000,0.000,0.000,0.000,0.000,0.000,0.000,0.000:  // measure 1
0000
0000
0000
0000
;
