#TITLE:Dawn of the Kore;
#SUBTITLE:(XAVI BCN Remix);
#ARTIST:M-Project vs DJ Sharpnel;
#TITLETRANSLIT:;
#SUBTITLETRANSLIT:;
#ARTISTTRANSLIT:;
#CREDIT:;
#BANNER:dawn of the bn xbcn.png;
#BACKGROUND:dawn of the bg xbcn.png;
#LYRICSPATH:;
#CDTITLE:;
#MUSIC:04 - Dawn of the kore (XAVI BCN Remix).ogg;
#OFFSET:-0.995;
#SAMPLESTART:197.133;
#SAMPLELENGTH:20.644;
#SELECTABLE:YES;
#DISPLAYBPM:186.000;
#BPMS:0.000=186.000;
#STOPS:;
#BGCHANGES:;
// cache tags:
#FIRSTBEAT:31.000;
#LASTBEAT:1128.000;
#SONGFILENAME:Songs/SHARPNELSTREAMZ v2/Dawn of the Kore (XAVI BCN Remix)/dawn.sm;
#HASMUSIC:1;
#HASBANNER:1;
#MUSICLENGTH:369.373;
// end cache tags

//---------------dance-single - 16+ (TYLR)----------------
#NOTES:
     dance-single:
     16+ (TYLR):
     Challenge:
     16:
     1.000,1.000,0.030,0.027,1.000,3169.000,11.000,10.000,25.000,0.000:
0000
0000
0000
0000
,
0000
0000
0000
0000
,
0000
0000
0000
0000
,
0000
0000
0000
0000
,
0000
0000
0000
0000
,
0000
0000
0000
0000
,
0000
0000
0000
0000
,
0000
0000
0000
00M0
,
1000
0000
0001
0100
0010
0000
1000
0010
,
0100
0000
0001
1000
0100
0000
0010
0000
,
0001
0000
1000
0010
0100
0000
0001
0100
,
0010
0000
1000
0001
0010
0000
0001
0000
,
1000
0000
0001
0010
0100
0000
1000
0100
,
0010
0000
0001
1000
0010
0000
0100
0000
,
0001
0000
1000
0100
0010
0000
0001
0010
,
0100
0000
1000
0001
0100
0000
M010
0000
,
1000
0000
0001
0100
0010
0000
1000
0010
,
0100
0000
0001
1000
0100
0000
0010
0000
,
0001
0000
1000
0010
0100
0000
0001
0100
,
0010
0000
1000
0001
0010
0000
0001
0000
,
1000
0000
0001
0010
0100
0000
1000
0100
,
0010
0000
0001
1000
0010
0000
0100
0000
,
0001
0000
1000
0100
0010
0000
0001
0010
,
0100
0000
1000
0001
0100
0000
M010
0000
,
1000
0000
0001
0100
0010
0000
1000
0010
,
0100
0000
0001
1000
0100
0000
0010
0000
,
0001
0000
1000
0010
0100
0000
0001
0100
,
0010
0000
1000
0001
0010
0000
0001
0000
,
1000
0000
0001
0010
0100
0000
1000
0100
,
0010
0000
0001
1000
0010
0000
0100
0000
,
0001
0000
1000
0100
0010
0000
0001
0010
,
0100
0000
1000
0001
0100
0000
M010
0000
,
1001
0000
0001
0000
0010
0000
0100
1000
0100
1000
0001
0000
0100
0000
0010
1000
,
0001
0000
0001
0000
0010
0000
0100
1000
0100
1000
0001
0000
0100
0000
0010
0000
,
1000
0000
1000
0000
0100
0000
0010
0001
0010
0001
1000
0000
0010
0000
0100
0001
,
1000
0000
1000
0000
0100
0000
0010
0001
0010
0001
1000
0000
001M
0000
0100
0000
,
0001
0000
0001
0000
1000
0000
0100
0010
0100
0010
0001
0000
1000
0000
0001
0100
,
0010
0000
0010
0000
1000
0000
0001
0010
0001
0010
0100
0000
1000
0000
0001
0000
,
0100
0000
0100
0000
0010
0000
1000
0001
1000
0001
0010
0000
0100
0000
1000
0001
,
0100
0000
0100
0000
0010
0000
1000
0001
1000
0001
0010
0000
010M
0000
1000
0000
,
1001
0000
0001
0000
0100
0000
0010
1000
0010
1000
0001
0000
0010
0000
0100
1000
,
0001
0000
0001
0000
0100
0000
0010
1000
0010
1000
0001
0000
0010
0000
0100
0000
,
1000
0000
1000
0000
0010
0000
0100
0001
0100
0001
1000
0000
0100
0000
0010
0001
,
1000
0000
1000
0000
0010
0000
0100
0001
0100
0001
1000
0000
010M
0000
0010
0000
,
0001
0000
0001
0000
1000
0000
0010
0100
0010
0100
0001
0000
1000
0000
0001
0010
,
0100
0000
0100
0000
1000
0000
0001
0100
0001
0100
0010
0000
1000
0000
0001
0000
,
0010
0000
0010
0000
0100
0000
1000
0001
1000
0001
0100
0000
0010
0000
1000
0000
,
0002
0000
0000
0000
0000
0000
0000
0000
0000
0000
0000
0000
0000
0000
2003
3000
,
1001
0001
0010
0001
1000
0001
0100
0001
,
0010
0100
0010
0001
1000
0001
0100
0010
,
1000
0001
0010
0001
1000
0010
0100
0010
,
1000
0100
0010
0100
1000
0001
M100
0001
,
1000
0010
0100
0010
1000
0001
0010
0001
,
1000
0010
0100
0001
1000
0100
0010
0100
,
1000
0001
0100
0001
0010
0100
1000
0100
,
0010
0000
0001
0000
0000
0000
0001
0000
0000
0000
0001
0000
0M00
0000
2000
3000
,
0001
0100
0001
1000
0010
1000
0001
0010
0100
1000
0100
0010
0001
1000
0001
0100
,
0010
1000
0001
1000
0010
0100
0001
1000
0100
1000
0001
0010
0001
1000
0001
0100
,
0010
1000
0001
1000
0010
0100
0001
1000
0100
0010
0100
1000
0001
0010
0001
1000
,
0001
0100
0010
1000
0010
0100
0001
1000
0001
0100
0010
1000
0001
1000
0100
0010
,
0001
1000
0100
1000
0001
0010
0001
1000
0010
1000
0001
0100
0001
1000
0010
1000
,
0001
0010
0100
1000
0100
0010
0001
1000
0001
0100
0010
1000
0001
1000
0010
0100
,
0001
1000
0100
0010
0100
1000
0001
0100
0010
1000
0001
1000
0100
0010
0001
1000
,
0000
0000
0000
0000
0000
0000
0000
0000
0MM0
0000
0000
0000
0000
0000
0002
0003
,
1000
0100
1000
0010
0100
0001
1000
0001
1000
0100
1000
0001
0010
0001
1000
0001
,
0100
0010
1000
0100
1000
0001
0100
0010
1000
0001
0010
0001
1000
0010
0100
0001
,
1000
0100
1000
0010
0100
0001
1000
0001
1000
0100
1000
0001
0010
0001
1000
0001
,
0100
0010
1000
0100
1000
0001
0100
0010
1000
0001
1000
0010
0100
0010
1000
0001
,
1000
0010
1000
0100
0010
0001
1000
0001
1000
0010
1000
0001
0100
0001
1000
0001
,
0010
0100
1000
0010
1000
0001
0010
0100
1000
0001
0100
0001
1000
0100
0010
0001
,
1000
0010
1000
0100
0010
0001
1000
0001
1000
0010
1000
0001
0100
0001
1000
0001
,
0010
0100
1000
0010
1000
0001
0010
0100
1000
0001
1000
0100
1000
0010
0100
0001
,
1000
0100
1000
0010
0100
0001
1000
0001
1000
0100
0010
0100
1000
0010
0100
0010
,
1000
0001
0010
0001
1000
0010
0100
0001
1000
0001
0010
0100
1000
0010
0100
0010
,
1000
0001
1000
0100
1000
0001
0100
0001
0100
0010
1000
0010
1000
0100
0010
0100
,
1000
0001
1000
0010
1000
0001
0010
0001
1000
0010
0100
0010
1000
0100
0010
0100
,
1000
0001
1000
0010
0100
0001
1000
0001
1000
0100
0010
0100
1000
0010
0100
0010
,
1000
0001
0010
0001
1000
0010
0100
0001
1000
0001
0010
0100
1000
0010
0100
0010
,
1000
0001
1000
0100
1000
0001
0100
0001
1000
0001
0010
0100
1000
0010
0100
0001
,
0000
0000
0MM0
0000
,
0001
0010
0001
0100
0010
1000
0001
1000
0001
0010
0001
1000
0100
1000
0001
1000
,
0010
0100
0001
0010
0001
1000
0010
0100
0001
1000
0100
1000
0001
0100
0010
1000
,
0001
0010
0001
0100
0010
1000
0001
1000
0001
0010
0001
1000
0100
1000
0001
1000
,
0010
0100
0001
0010
0001
1000
0010
0100
0001
1000
0001
0100
0010
0100
0001
1000
,
0001
0100
0001
0010
0100
1000
0001
1000
0001
0100
0001
1000
0010
1000
0001
1000
,
0100
0010
0001
0100
0001
1000
0100
0010
0001
1000
0010
1000
0001
0010
0100
1000
,
0001
0100
0001
0010
0100
1000
0001
1000
0001
0100
0001
1000
0010
1000
0001
1000
,
0100
0010
0001
0100
0001
1000
0100
0010
0001
1000
0001
0010
0001
0100
0010
1000
,
0001
0010
0001
0100
0010
1000
0001
1000
0001
0010
0100
0010
0001
0100
0010
0100
,
0001
1000
0100
1000
0001
0100
0010
1000
0001
1000
0100
0010
0001
0100
0010
0100
,
0001
1000
0001
0010
0001
1000
0010
1000
0010
0100
0001
0100
0001
0010
0100
0010
,
0001
1000
0001
0100
0001
1000
0100
1000
0001
0100
0010
0100
0001
0010
0100
0010
,
0001
1000
0001
0100
0010
1000
0001
1000
0001
0010
0100
0010
0001
0100
0010
0100
,
0001
1000
0100
1000
0001
0100
0010
1000
0001
1000
0100
0010
0001
0100
0010
0100
,
0004
4000
0000
0000
0000
0000
0000
0000
0000
0000
0000
0000
0000
0000
0000
0000
0000
0000
0000
0000
0000
0000
0000
0000
,
3003
0000
0000
0000
0000
0000
0000
0000
0000
0000
0000
0000
0M00
0000
0002
0003
,
1001
0000
0000
0000
,
0000
0000
0000
0000
,
0000
0000
0000
0000
,
0000
0000
0000
0000
,
0000
0000
0000
0000
,
0000
0000
0000
0000
,
M000
0000
0000
0000
,
0000
0000
0000
0000
,
1001
0001
0010
0001
,
1000
0010
1000
0100
,
0010
0001
0100
0001
,
1000
0100
1000
0001
,
0100
0010
1000
0001
,
0010
0100
0010
0001
,
1000
0010
0100
0010
,
1000
0100
1000
0001
,
1000
0000
0000
1000
0000
0000
1000
0000
1000
0000
0000
1000
0000
0000
1000
0000
,
0001
0000
0000
0001
0000
0000
0001
0000
0100
0000
0000
0100
0000
0000
0100
0000
,
0001
0000
0000
0001
0000
0000
0001
0000
0001
0000
0000
0001
0000
0000
0001
0000
,
1000
0000
0000
1000
0000
0000
1000
0000
0100
0000
0000
0100
0000
0000
0100
0000
,
0010
0000
0000
0010
0000
0000
0010
0000
0010
0000
0000
0010
0000
0000
0001
0000
,
0100
0000
0000
0100
0000
0000
0100
0000
0100
0000
0000
0100
0000
0000
0010
0000
,
1000
0000
0000
1000
0000
0000
1000
0000
1000
0000
0000
1000
0000
0000
1000
0000
,
0001
0000
0000
0001
0000
0000
0001
0000
0001
0000
0000
0001
0000
0000
1000
0000
,
0100
0000
0000
0100
0000
0000
0100
0000
0100
0000
0000
0100
0000
0000
0100
0000
,
1000
0000
0000
1000
0000
0000
1000
0000
0010
0000
0000
0010
0000
0000
0010
0000
,
0100
0000
0000
0100
0000
0000
0100
0000
0100
0000
0000
0100
0000
0000
0100
0000
,
0001
0000
0000
0001
0000
0000
0001
0000
1000
0000
0000
1000
0000
0000
1000
0000
,
0100
0000
0000
0100
0000
0000
0100
0000
0100
0000
0000
0100
0000
0000
0010
0000
,
0001
0000
0000
0001
0000
0000
0001
0000
0001
0000
0000
0001
0000
0000
0100
0000
,
0010
0000
0000
0010
0000
0000
0010
0000
0010
0000
0000
0010
0000
0000
0010
0000
,
1000
0000
0000
1000
0000
0000
1000
0000
10M0
0000
0000
1000
0000
0000
0001
0000
,
1MM1
0000
0000
1000
0000
0000
1000
0000
1000
0000
0000
1000
0000
0000
1000
0000
,
0001
0000
0000
0001
0000
0000
0001
0000
0100
0000
0000
0100
0000
0000
0100
0000
,
0001
0000
0000
0001
0000
0000
0001
0000
0001
0000
0000
0001
0000
0000
0001
0000
,
1000
0000
0000
1000
0000
0000
1000
0000
0100
0000
0000
0100
0000
0000
0100
0000
,
0010
0000
0000
0010
0000
0000
0010
0000
0010
0000
0000
0010
0000
0000
0001
0000
,
0100
0000
0000
0100
0000
0000
0100
0000
0100
0000
0000
0100
0000
0000
0010
0000
,
1000
0000
0000
1000
0000
0000
1000
0000
1000
0000
0000
1000
0000
0000
1000
0000
,
0001
0000
0000
0001
0000
0000
0001
0000
0001
0000
0000
0001
0000
0000
1000
0000
,
0100
0000
0000
0100
0000
0000
0100
0000
0100
0000
0000
0100
0000
0000
0100
0000
,
1000
0000
0000
1000
0000
0000
1000
0000
0010
0000
0000
0010
0000
0000
0010
0000
,
0100
0000
0000
0100
0000
0000
0100
0000
0100
0000
0000
0100
0000
0000
0100
0000
,
0001
0000
0000
0001
0000
0000
0001
0000
1000
0000
0000
1000
0000
0000
1000
0000
,
0100
0000
0000
0100
0000
0000
0100
0000
0100
0000
0000
0100
0000
0000
0010
0000
,
0001
0000
0000
0001
0000
0000
0001
0000
0001
0000
0000
0001
0000
0000
0100
0000
,
0010
0000
0000
0010
0000
0000
0010
0000
0010
0000
0000
0010
0000
0000
0010
0000
,
1000
0000
0000
1000
0000
0000
1000
0000
1000
0000
0000
1000
0000
0000
0001
0000
,
1000
0000
0001
0010
0001
0000
1000
0010
1000
0000
0001
0100
0001
0000
1000
0100
,
1000
0000
0001
0010
0001
0000
1000
0010
1000
0000
0100
0010
0100
0000
1000
0001
,
1000
0000
0001
0100
0001
0000
0010
0100
0010
0000
0001
1000
0001
0000
1000
0010
,
1000
0000
0001
0100
0001
0000
0010
0100
0010
0000
0001
1000
0001
0000
1000
0010
,
1000
0001
0010
0100
1000
0100
0010
0001
1000
0001
0100
0010
1000
0010
0100
0001
,
1000
0001
0010
0100
1000
0100
0010
0001
1000
0001
0100
0010
1000
0010
0100
0001
,
4000
0004
0000
0000
0000
0000
0000
0000
0000
0000
0000
0000
0000
0000
0000
0000
0000
0000
0000
0000
0000
0000
0000
0000
,
3003
0000
0000
0000
0000
0000
0000
0000
0000
0000
0000
0000
0000
0000
0002
0003
,
0010
0001
1000
0010
1000
0001
0010
0100
0010
0001
1000
0010
1000
0001
0010
0100
,
1000
0001
0100
0001
1000
0100
0010
0001
0100
0001
1000
0100
1000
0001
1000
0010
,
0100
0001
1000
0100
1000
0001
0100
0010
0100
0001
1000
0100
1000
0001
0100
0010
,
1000
0001
0010
0001
1000
0010
1000
0001
0010
0100
1000
0001
1000
0100
0010
0001
,
0100
0001
1000
0100
1000
0001
0100
0010
0100
0001
1000
0100
1000
0001
0100
0001
,
0010
0001
1000
0010
1000
0001
0010
0100
0010
0001
1000
0010
1000
0001
0010
0001
,
0100
0010
1000
0100
1000
0001
0100
0010
0100
0001
0010
0100
0010
0001
0100
0010
,
1000
0001
0010
0001
1000
0010
0100
0010
1000
0001
0010
0001
1000
0010
0100
0001
,
0010
0001
1000
0010
1000
0001
0010
0100
0010
0001
1000
0010
1000
0001
0010
0100
,
1000
0001
0100
0001
1000
0100
0010
0001
0100
0001
1000
0100
1000
0001
1000
0010
,
0100
0001
1000
0100
1000
0001
0100
0010
0100
0001
1000
0100
1000
0001
0100
0010
,
1000
0001
0010
0001
1000
0010
1000
0001
0010
0100
1000
0001
1000
0100
0010
0001
,
0100
0001
1000
0100
1000
0001
0100
0010
0100
0001
1000
0100
1000
0001
0100
0001
,
0010
0001
1000
0010
1000
0001
0010
0100
0010
0001
1000
0010
1000
0001
0010
0001
,
0100
0010
1000
0100
1000
0001
0100
0010
0100
0001
0010
0100
0010
0001
0100
0010
,
1000
0001
0010
0001
1000
0010
0100
0010
1000
0001
0010
0001
1000
0010
0100
0001
,
0010
0001
1000
0010
1000
0001
0010
0100
0010
0001
1000
0010
1000
0001
0010
0100
,
1000
0001
0100
0001
1000
0100
0010
0001
0100
0001
1000
0100
1000
0001
1000
0010
,
0100
0001
1000
0100
1000
0001
0100
0010
0100
0001
1000
0100
1000
0001
0100
0010
,
1000
0001
0010
0001
1000
0010
1000
0001
0010
0100
1000
0001
1000
0100
0010
0001
,
0100
0001
1000
0100
1000
0001
0100
0010
0100
0001
1000
0100
1000
0001
0100
0001
,
0010
0001
1000
0010
1000
0001
0010
0100
0010
0001
1000
0010
1000
0001
0010
0001
,
0100
0010
1000
0100
1000
0001
0100
0010
0100
0001
0010
0100
0010
0001
0100
0010
,
1000
0001
0010
0001
1000
0010
0100
0010
1000
0001
0010
0001
1000
0010
0100
0001
,
0010
0001
1000
0010
1000
0001
0010
0100
0010
0001
1000
0010
1000
0001
0010
0100
,
1000
0001
0100
0001
1000
0100
0010
0001
0100
0001
1000
0100
1000
0001
1000
0010
,
0100
0001
1000
0100
1000
0001
0100
0010
0100
0001
1000
0100
1000
0001
0100
0010
,
1000
0001
0010
0001
1000
0010
1000
0001
0010
0100
1000
0001
1000
0100
0010
0001
,
0100
0001
1000
0100
1000
0001
0100
0010
0100
0001
1000
0100
1000
0001
0100
0001
,
0010
0001
1000
0010
1000
0001
0010
0100
0010
0001
1000
0010
1000
0001
0010
0001
,
0100
0010
1000
0100
1000
0001
0100
0010
0100
0001
0010
0100
0010
0001
0100
0001
,
1000
0000
0000
0MM0
0000
0000
0000
0000
,
1000
0100
0010
0001
1000
0001
0010
0100
1000
0001
0010
0001
1000
0100
0010
0001
,
1000
0010
0100
0001
1000
0001
0100
0010
1000
0001
0010
0001
1000
0100
0010
0100
,
1000
0001
0100
0001
1000
0010
0100
0010
1000
0001
0100
0001
1000
0010
0100
0001
,
1000
0100
1000
0001
0010
0001
1000
0001
1000
0010
0100
0001
1000
0001
0100
0001
,
0010
0100
1000
0100
0010
0001
1000
0001
0010
0100
0010
0001
1000
0100
1000
0001
,
0100
0010
0100
0001
1000
0001
0100
0010
1000
0001
0010
0001
1000
0100
1000
0001
,
0100
0010
1000
0001
0100
0001
1000
0010
0100
0010
1000
0001
0100
0001
1000
0010
,
1000
0001
0010
0001
1000
0100
0010
0001
1000
0001
0100
0001
1000
0010
0100
0001
,
1000
0100
0010
0001
1000
0001
0010
0100
1000
0001
0010
0001
1000
0100
0010
0001
,
1000
0010
0100
0001
1000
0001
0100
0010
1000
0001
0010
0001
1000
0100
0010
0100
,
1000
0001
0100
0001
1000
0010
0100
0010
1000
0001
0100
0001
1000
0010
0100
0001
,
1000
0100
1000
0001
0010
0001
1000
0001
1000
0010
0100
0001
1000
0001
0100
0001
,
0010
0100
1000
0100
0010
0001
1000
0001
0010
0100
0010
0001
1000
0100
1000
0001
,
0100
0010
0100
0001
1000
0001
0100
0010
1000
0001
0010
0001
1000
0100
1000
0001
,
0100
0010
1000
0001
0100
0001
1000
0010
0100
0010
1000
0001
0100
0010
0100
0001
,
2000
0000
0000
0MM0
0000
0000
0000
0000
,
3001
0010
0100
1000
0001
1000
0100
0010
0001
1000
0100
1000
0001
0010
0100
1000
,
0001
0100
0010
1000
0001
1000
0010
0100
0001
1000
0100
1000
0001
0010
0100
0010
,
0001
1000
0010
1000
0001
0100
0010
0100
0001
1000
0010
1000
0001
0100
0010
1000
,
0001
0010
0001
1000
0100
1000
0001
1000
0001
0100
0010
1000
0001
1000
0010
1000
,
0100
0010
0001
0010
0100
1000
0001
1000
0100
0010
0100
1000
0001
0010
0001
1000
,
0010
0100
0010
1000
0001
1000
0010
0100
0001
1000
0100
1000
0001
0010
0001
1000
,
0010
0100
0001
1000
0010
1000
0001
0100
0010
0100
0001
1000
0010
1000
0001
0100
,
0001
1000
0100
1000
0001
0010
0100
1000
0001
1000
0010
1000
0001
0100
0010
1000
,
0001
0010
0100
1000
0001
1000
0100
0010
0001
1000
0100
1000
0001
0010
0100
1000
,
0001
0100
0010
1000
0001
1000
0010
0100
0001
1000
0100
1000
0001
0010
0100
0010
,
0001
1000
0010
1000
0001
0100
0010
0100
0001
1000
0010
1000
0001
0100
0010
1000
,
0001
0010
0001
1000
0100
1000
0001
1000
0001
0100
0010
1000
0001
1000
0010
1000
,
0100
0010
0001
0010
0100
1000
0001
1000
0100
0010
0100
1000
0001
0010
0001
1000
,
0010
0100
0010
1000
0001
1000
0010
0100
0001
1000
0100
1000
0001
0010
0001
1000
,
0004
4000
0000
0000
0000
0000
0000
0000
0000
0000
0000
0000
0000
0000
0000
0000
0000
0000
0000
0000
0000
0000
0000
0000
,
3003
0000
0000
0000
0000
0000
0000
0000
0000
0000
0000
0000
0000
0000
2000
3000
,
0001
0100
0001
1000
0010
1000
0001
0010
0100
1000
0100
0010
0001
1000
0001
0100
,
0010
1000
0001
1000
0010
0100
0001
1000
0100
1000
0001
0010
0001
1000
0001
0100
,
0010
1000
0001
1000
0010
0100
0001
1000
0100
0010
0100
1000
0001
0010
0001
1000
,
0001
0100
0010
1000
0010
0100
0001
1000
0001
0100
0010
1000
0001
1000
0100
0010
,
0001
1000
0100
1000
0001
0010
0001
1000
0010
1000
0001
0100
0001
1000
0010
1000
,
0001
0010
0100
1000
0100
0010
0001
1000
0001
0100
0010
1000
0001
1000
0010
0100
,
0001
1000
0100
0010
0100
1000
0001
0100
0010
1000
0001
1000
0100
0010
0001
1000
,
0001
0100
0010
1000
0001
1000
0010
0100
0001
1000
0100
1000
0001
0100
0010
1000
,
0001
0010
0001
1000
0100
1000
0001
0100
0010
1000
0010
0100
0001
1000
0001
0010
,
0100
1000
0001
1000
0100
0010
0001
1000
0010
1000
0001
0100
0001
1000
0001
0010
,
0100
1000
0001
1000
0100
0010
0001
1000
0010
0100
0010
1000
0001
0100
0001
1000
,
0001
0010
0100
1000
0100
0010
0001
1000
0001
0010
0100
1000
0001
1000
0010
0100
,
0001
1000
0010
1000
0001
0100
0001
1000
0100
1000
0001
0010
0001
1000
0100
1000
,
0001
0100
0010
1000
0010
0100
0001
1000
0001
0010
0100
1000
0001
1000
0100
0010
,
0001
1000
0010
0100
0010
1000
0001
0010
0100
1000
0001
1000
0010
0100
0001
1000
,
0001
0010
0100
1000
0001
1000
0100
0010
M001
0000
0000
0000
0000
0000
0000
0000
,
1000
0100
1000
0010
0100
0001
1000
0001
1000
0100
1000
0001
0010
0001
1000
0001
,
0100
0010
1000
0100
1000
0001
0100
0010
1000
0001
0010
0001
1000
0010
0100
0001
,
1000
0100
1000
0010
0100
0001
1000
0001
1000
0100
1000
0001
0010
0001
1000
0001
,
0100
0010
1000
0100
1000
0001
0100
0010
1000
0001
1000
0010
0100
0010
1000
0001
,
1000
0010
1000
0100
0010
0001
1000
0001
1000
0010
1000
0001
0100
0001
1000
0001
,
0010
0100
1000
0010
1000
0001
0010
0100
1000
0001
0100
0001
1000
0100
0010
0001
,
1000
0010
1000
0100
0010
0001
1000
0001
1000
0010
1000
0001
0100
0001
1000
0001
,
0010
0100
1000
0010
1000
0001
0010
0100
1000
0001
1000
0100
1000
0010
0100
0001
,
1000
0100
1000
0010
0100
0001
1000
0001
1000
0100
0010
0100
1000
0010
0100
0010
,
1000
0001
0010
0001
1000
0010
0100
0001
1000
0001
0010
0100
1000
0010
0100
0010
,
1000
0001
1000
0100
1000
0001
0100
0001
0100
0010
1000
0010
1000
0100
0010
0100
,
1000
0001
1000
0010
1000
0001
0010
0001
1000
0010
0100
0010
1000
0100
0010
0100
,
1000
0001
1000
0010
0100
0001
1000
0001
1000
0100
0010
0100
1000
0010
0100
0010
,
1000
0001
0010
0001
1000
0010
0100
0001
1000
0001
0010
0100
1000
0010
0100
0010
,
1000
0001
1000
0100
1000
0001
0100
0001
1000
0010
1000
0100
0010
0100
1000
0001
,
0000
0000
0MM0
0000
,
0001
0010
0001
0100
0010
1000
0001
1000
0001
0010
0001
1000
0100
1000
0001
1000
,
0010
0100
0001
0010
0001
1000
0010
0100
0001
1000
0100
1000
0001
0100
0010
1000
,
0001
0010
0001
0100
0010
1000
0001
1000
0001
0010
0001
1000
0100
1000
0001
1000
,
0010
0100
0001
0010
0001
1000
0010
0100
0001
1000
0001
0100
0010
0100
0001
1000
,
0001
0100
0001
0010
0100
1000
0001
1000
0001
0100
0001
1000
0010
1000
0001
1000
,
0100
0010
0001
0100
0001
1000
0100
0010
0001
1000
0010
1000
0001
0010
0100
1000
,
0001
0100
0001
0010
0100
1000
0001
1000
0001
0100
0001
1000
0010
1000
0001
1000
,
0100
0010
0001
0100
0001
1000
0100
0010
0001
1000
0001
0010
0001
0100
0010
1000
,
0001
0010
0001
0100
0010
1000
0001
1000
0001
0010
0100
0010
0001
0100
0010
0100
,
0001
1000
0100
1000
0001
0100
0010
1000
0001
1000
0100
0010
0001
0100
0010
0100
,
0001
1000
0001
0010
0001
1000
0010
1000
0010
0100
0001
0100
0001
0010
0100
0010
,
0001
1000
0001
0100
0001
1000
0100
1000
0001
0100
0010
0100
0001
0010
0100
0010
,
0001
1000
0001
0100
0010
1000
0001
1000
0001
0010
0100
0010
0001
0100
0010
0100
,
0001
1000
0100
1000
0001
0100
0010
1000
0001
1000
0100
0010
0001
0100
0010
0100
,
0001
1000
0001
0010
0001
1000
0010
1000
0001
0100
0001
0010
0100
0010
0001
1000
,
0001
1000
0001
0100
0001
1000
0100
1000
0001
0100
0010
0100
0001
0010
0100
0010
,
0001
0100
0001
0010
0100
1000
0001
1000
0001
0100
0001
1000
0010
1000
0001
1000
,
0100
0010
0001
0100
0001
1000
0100
0010
0001
1000
0010
1000
0001
0010
0100
1000
,
0001
0100
0001
0010
0100
1000
0001
1000
0001
0100
0001
1000
0010
1000
0001
1000
,
0100
0010
0001
0100
0001
1000
0100
0010
0001
1000
0001
0010
0100
0010
0001
1000
,
0001
0010
0001
0100
0010
1000
0001
1000
0001
0010
0001
1000
0100
1000
0001
1000
,
0010
0100
0001
0010
0001
1000
0010
0100
0001
1000
0100
1000
0001
0100
0010
1000
,
0001
0010
0001
0100
0010
1000
0001
1000
0001
0010
0001
1000
0100
1000
0001
1000
,
0010
0100
0001
0010
0001
1000
0010
0100
0001
1000
0001
0100
0001
0010
0100
1000
,
0001
0100
0001
0010
0100
1000
0001
1000
0001
0100
0010
0100
0001
0010
0100
0010
,
0001
1000
0010
1000
0001
0010
0100
1000
0001
1000
0010
0100
0001
0010
0100
0010
,
0001
1000
0001
0100
0001
1000
0100
1000
0100
0010
0001
0010
0001
0100
0010
0100
,
0001
1000
0001
0010
0001
1000
0010
1000
0001
0010
0100
0010
0001
0100
0010
0100
,
0001
1000
0001
0010
0100
1000
0001
1000
0001
0100
0010
0100
0001
0010
0100
0010
,
0001
1000
0010
1000
0001
0010
0100
1000
0001
1000
0010
0100
0001
0010
0100
0010
,
0004
4000
0000
0000
0000
0000
0000
0000
0000
0000
0000
0000
0000
0000
0000
0000
0000
0000
0000
0000
0000
0000
0000
0000
,
3003
0000
0000
0000
,
2002
0000
0000
0000
,
0000
0000
0000
0000
,
3003
0000
0000
0000
;
