#TITLE:Go Beyond!!;
#SUBTITLE:;
#ARTIST:Ryu☆ vs. Sota;
#TITLETRANSLIT:;
#SUBTITLETRANSLIT:;
#ARTISTTRANSLIT:;
#CREDIT:owenviau1;
#BANNER:../owenviau1 Simfiles 5-bn.png;
#BACKGROUND:../owenviau1 Simfiles 5-bg.png;
#LYRICSPATH:;
#CDTITLE:../ov1_title.png;
#MUSIC:Ryu_ vs. Sota - Go Beyond!!.mp3;
#OFFSET:-1.145;
#SAMPLESTART:64.431;
#SAMPLELENGTH:29.999;
#SELECTABLE:YES;
#DISPLAYBPM:200.000;
#BPMS:0.000=200.000;
#STOPS:;
#BGCHANGES:;
// cache tags:
#FIRSTBEAT:0.000;
#LASTBEAT:380.500;
#SONGFILENAME:Songs/owenviau1 Simfiles 5/Go Beyond!! - [owenviau1] v1.3/Go Beyond!!.sm;
#HASMUSIC:1;
#HASBANNER:1;
#MUSICLENGTH:119.301;
// end cache tags

//---------------dance-single - ----------------
#NOTES:
     dance-single:
     :
     Hard:
     10:
     0.721,0.877,0.067,0.570,0.180,526.000,8.000,68.000,13.000,2.000:
2000
3200
0320
0032
,
1003
0100
0010
0001
1000
0010
1000
0001
,
0010
0000
0000
0100
0000
0000
1000
0000
0001
0000
0000
0000
0010
0000
0100
0000
,
1000
0001
0100
0010
1000
0100
0010
0001
,
1000
0000
0000
0100
0000
0000
0010
0000
0001
0000
0000
0000
2000
0000
0000
0000
,
3010
0100
0001
1000
0100
1000
0010
0100
,
0001
0000
0000
0010
0000
0000
1000
0000
0001
0000
0000
0000
0000
0000
0020
0000
,
1031
0100
0001
0010
1100
0110
0001
1000
,
0001
0000
0000
0010
0000
0000
0100
0000
1000
0000
0010
0000
1000
0001
1000
0001
,
1000
0001
0100
0001
1000
0001
0100
0010
,
1000
0100
1000
0001
0010
0100
1000
0010
,
0100
0001
0010
0001
1000
0001
0100
0010
,
1000
0100
0000
0010
0000
0001
0000
1000
,
0010
0100
0001
0010
0001
1000
0001
0100
,
0010
1000
0100
0010
0001
1000
0010
1000
,
0001
0100
0001
1000
0100
0010
0001
1000
,
0002
0023
2030
3200
,
0310
0001
1000
0001
0100
0001
0010
0100
,
1000
0010
1000
0100
0010
0001
0100
0010
,
0100
0001
1000
0010
0100
0010
1000
0001
,
1000
0100
0010
0001
1000
0010
0100
0001
,
1001
0000
1000
0000
0100
0001
0000
0010
,
0100
0000
1000
0000
0000
0000
0001
0000
0000
0000
0100
0000
0010
1000
0010
1000
,
0010
0000
0100
0000
0001
1000
0001
1000
0001
0000
0000
0000
1000
0100
0010
0001
,
2000
0000
0000
0000
,
3MM2
0000
0023
0000
,
0230
0000
2300
0000
,
3002
0000
0000
0000
,
0000
0000
0203
0000
,
0320
0000
2030
0000
,
3002
0000
0023
0000
,
0230
0000
0000
0000
,
0000
0000
2300
0000
,
3M21
0000
0230
0000
,
2300
0000
3002
0000
,
0203
0000
0000
0000
,
0000
0000
0320
0000
,
2030
0000
3200
0000
,
0320
0000
0032
0000
,
0203
0000
0000
0000
,
0000
0000
0320
0000
,
2M3M
0000
0000
0000
,
0000
0000
0000
3000
0200
0000
0000
0000
,
0320
0000
0000
0000
,
0000
0000
0000
0030
0002
0000
0000
0000
,
2003
0000
3020
0000
,
0230
0000
0302
0000
,
2003
0000
0000
0000
3001
0100
0100
0010
,
1000
1000
0001
0100
0100
0010
1000
1000
,
0001
0010
0010
0100
1000
1000
0002
2003
,
3200
0320
0032
0203
0320
2030
3002
2003
,
3020
0000
0000
0000
0030
0000
0000
0000
MMMM
0000
0000
MMMM
0000
0000
0000
0000
,
2000
3002
1003
0000
1000
0000
2000
0000
,
3001
0100
0001
0000
0010
0000
0100
0000
1000
0000
0001
0000
1000
0000
0010
0000
,
0100
0001
0100
0000
0010
0000
1000
0000
0001
0000
0100
0000
0010
0000
1000
0000
,
0001
0100
0001
0000
0010
0000
0100
0000
1000
0000
0001
0000
0010
0000
0001
0000
,
1000
0001
1000
0000
0010
0000
0100
0000
0001
0000
0010
0000
0100
0000
1000
0000
,
1001
0000
0001
0000
1000
0100
1000
0000
0010
0000
0100
0000
0001
0000
1000
0000
,
0001
0010
0001
0000
1000
0000
0001
0000
0100
0000
0010
0000
1000
0000
0001
0000
,
0100
0010
0100
0000
0010
0000
1000
0000
0001
0000
0010
0000
0100
0000
1000
0000
,
0001
1000
0001
0000
1000
0010
1000
0000
0100
0010
0100
0000
0001
0100
0001
0000
,
1000
0001
1000
0000
0100
0000
0010
0000
0001
0000
1000
0000
0001
0000
0100
0000
,
0010
1000
0010
0000
0100
0000
0001
0000
0010
0000
0100
0000
1000
0000
0001
0000
,
1000
0010
1000
0000
0100
0000
0010
0000
0001
0000
1000
0000
0010
0000
0100
0000
,
0001
1000
0001
0000
0100
0000
0010
0000
1000
0000
0010
0000
0100
0000
0001
0000
,
1001
0000
0001
0000
1000
0100
1000
0000
0010
0000
0100
0000
0001
0000
1000
0000
,
0001
0100
0001
0000
0010
0000
0100
0000
1000
0000
0001
0000
0010
0000
0001
0000
,
0100
0010
0100
0000
0001
0000
1000
0000
0001
0010
0001
0000
1000
0000
0010
0000
,
0100
0001
0100
0000
0010
1000
0010
0000
0100
0010
0100
0000
0001
1000
0001
0100
,
0001
1000
0001
0010
0100
1000
0001
0100
,
0010
1000
0001
1000
0100
1000
0001
0100
,
0010
1000
0001
0010
1000
0010
0100
0001
,
0010
0001
0100
0010
1000
0001
1000
0100
,
1000
0010
0100
0001
0010
0001
1000
0010
,
0100
0010
1000
0100
0010
0001
0100
0001
,
0010
0100
1000
0010
1000
0001
0100
0010
,
0100
0001
0010
0100
1000
0010
1000
0001
,
0101
0010
0100
1000
0100
0010
0001
1000
,
0010
1000
0001
0010
0100
1000
0010
0100
,
0001
0010
0001
1000
0010
0100
0001
0010
,
0100
0000
1000
0000
0010
0000
1000
0000
0001
0000
0010
0000
0100
0000
1000
0001
,
1000
0010
0100
0001
1000
0010
0000
0100
,
0001
0000
1000
0000
0000
0000
0100
0000
0000
0000
0010
0000
0000
0000
0001
1000
,
0001
0000
0010
0000
0100
1000
0100
1000
0100
0000
1000
0000
0001
0100
0010
1000
,
0002
0000
0000
0000
,
0203
0000
0000
0000
,
0000
0000
0000
0300
0020
0000
0000
0000
,
2030
0000
0000
0000
,
0000
0000
0000
3000
0002
0000
0000
0000
,
0203
0000
0320
0000
,
2030
0000
3200
0000
,
0320
0000
0000
0000
,
0000
0000
0000
0000
,
0000
0000
0000
0000
,
0000
0000
0000
0000
,
0000
0030
0000
0000
0000
0000
0000
0000
,
0000
0000
0000
0000
,
0000
0000
0000
0000
,
0000
0000
0000
0000
;

//---------------dance-single - ----------------
#NOTES:
     dance-single:
     :
     Challenge:
     14:
     1.000,1.000,1.000,0.855,0.645,652.000,151.000,102.000,15.000,12.000:
2020
0000
3230
0000
0322
0000
2033
0001
,
3101
1000
0011
0001
1100
0001
0110
0100
,
2002
0000
3003
2200
0000
3300
0220
0330
0022
0000
1033
0000
1100
0000
0010
0000
,
1001
0100
0011
0001
1100
0010
0101
0001
,
2020
0000
3030
0202
0000
0303
2200
3300
0022
0000
0033
0000
MMMM
0000
1000
0000
,
1001
0010
0110
1000
0011
0100
1001
1000
,
0220
0000
0330
0202
0000
0303
2020
3030
2002
0000
3003
0000
0000
0000
1000
0000
,
1010
0100
0011
0100
1001
1010
0110
0001
,
2020
0000
3030
2200
0000
3300
0220
0330
2002
3003
1100
0000
0001
0010
0100
1000
,
1001
0100
1010
0001
0110
0010
1001
0100
,
0011
1000
0110
0001
1100
0001
0110
0100
,
1001
0010
0101
1000
0110
0001
1010
0100
,
0011
0110
1000
0101
0010
1100
0010
0101
,
1001
0010
0101
1000
1010
0001
0110
1000
,
0011
0100
1001
0010
0110
0001
1010
0100
,
0011
0010
1100
0001
0101
0010
1001
0100
,
2020
3032
2203
3320
,
1031
0100
0110
0001
1010
0100
0011
1000
,
0101
0010
0110
1000
1001
0010
1010
1000
,
0101
0010
0110
1000
1001
0010
0011
1000
,
0110
0000
1000
0000
1100
0000
0010
0000
1001
0000
0010
0000
1100
0000
0001
1000
,
0010
1000
0011
0100
1010
0101
0010
1100
,
1001
0000
0110
0000
0001
0000
0110
0000
1000
0000
0101
0000
1000
0010
0100
0001
,
1000
0000
0000
0000
0000
0000
0110
0000
0000
0000
0000
0000
1000
0000
0000
0100
0000
0000
0010
0000
0000
0001
0000
0000
0100
0000
0000
0000
0000
0000
0010
0000
0000
0000
0000
0000
1000
0000
0001
0000
1000
0000
0001
0000
1000
0000
0001
0000
,
2000
0000
0000
0000
,
31M2
0000
0023
0000
,
0230
0000
2300
0000
,
3002
0000
0000
0000
,
0000
0000
0203
0000
,
0320
0000
2030
0000
,
3002
0000
0023
0000
,
0230
0000
0000
0000
,
0000
0000
2300
0000
,
3M21
0000
0230
0000
,
2300
0000
3002
0000
,
0203
0000
0000
0000
,
0000
0000
0320
0000
,
2030
0000
3200
0000
,
0320
0000
0032
0000
,
0203
0000
0000
0000
,
0000
0000
0320
0000
,
2M31
0000
0000
0000
,
0000
0000
0000
3000
0200
0000
0000
0000
,
0320
0000
0000
0000
,
0000
0000
0000
0030
0002
0000
0000
0000
,
2003
0000
3020
0000
,
0230
0000
0302
0000
,
2003
0000
0000
0000
3001
0100
0100
0010
,
1000
1000
0001
0100
0100
0010
1000
1000
,
0001
0010
0010
0100
1000
1000
0002
2003
,
3200
0320
0032
0203
0320
2030
3002
2003
,
3020
0000
0000
0000
0030
0000
0000
0000
MMMM
0000
0000
MMMM
0000
0000
0000
0000
,
2000
3002
1003
0000
1000
0000
2000
0000
,
3100
0010
0001
1000
0010
0100
0001
0010
0100
1000
0010
0100
0010
1000
0001
0100
,
0010
0100
0001
1000
0100
0010
0001
0010
0100
1000
0001
0100
0001
0010
0100
1000
,
0010
1000
0001
0100
0010
1000
0100
0010
0001
1000
0100
1000
0010
0100
0001
0010
,
0001
1000
0001
0100
0010
1000
0100
0010
0001
0100
0010
1000
0010
0100
0001
0100
,
0010
1000
0100
0010
0001
0100
0001
1000
0010
1000
0001
0100
0010
1000
0100
0010
,
0001
1000
0001
0100
0010
1000
0001
0100
0001
0010
0100
1000
0001
0010
0001
0100
,
0010
1000
0010
0100
0001
0100
0010
1000
0100
0010
0001
0010
0100
1000
0010
0100
,
0001
0100
0010
1000
0100
0010
0001
0100
0010
1000
0100
0010
0001
0010
0100
1000
,
0010
0100
0001
1000
0001
0010
0100
1000
0001
1000
0010
0100
0001
0010
0100
1000
,
0001
0100
0010
1000
0100
0010
0001
0010
0100
1000
0010
0100
0001
1000
0001
0010
,
0100
1000
0001
1000
0001
0010
0100
1000
0001
1000
0100
0010
0001
0100
0001
1000
,
0010
1000
0100
0010
0001
0100
0010
1000
0100
0010
0001
0100
0010
1000
0100
0010
,
0001
0010
0100
1000
0001
1000
0010
0100
0001
0010
0100
1000
0001
0010
0001
1000
,
0010
0100
0001
0010
0100
1000
0010
0001
0100
0010
1000
0100
1000
0001
0100
0010
,
1000
0001
1000
0010
0100
0010
1000
0001
0100
0010
0100
0001
0010
0100
1000
0010
,
1000
0001
0100
0001
1000
0100
0010
0001
0010
0100
1000
0010
0100
0001
0010
0100
,
1000
0001
0110
1000
0011
0100
1001
0001
,
0110
0001
1010
0100
1001
0010
0101
1000
,
0110
0001
1010
0001
1100
0001
0110
1000
,
0011
0100
1001
0100
1010
0001
1001
0001
,
0110
1000
0101
1000
0011
0001
1100
0001
,
0110
0100
1001
0100
1010
0001
1100
0100
,
0011
0010
1001
1000
0110
0001
1010
0001
,
1100
0100
0011
1000
0110
0010
1001
0010
,
0101
0010
1001
0010
0101
0001
1010
0001
,
1100
0001
0110
1000
0011
1000
0101
0010
,
1001
0100
1010
0001
0110
1000
0101
0010
,
1001
0000
0100
0000
0110
0000
0001
0000
1100
0000
0010
0000
0110
0000
0001
1000
,
0010
0100
1001
0001
0110
0100
1010
0001
,
0101
0011
1000
0110
0001
1100
0010
0110
,
1000
0000
0000
0100
0000
0000
0010
0000
0000
0000
0000
0000
0001
0000
0010
0000
0100
0000
1000
0000
0100
0000
0010
0000
0001
0000
0000
0000
0000
0000
0100
0000
0000
0000
0000
0000
0010
0000
1000
0000
0010
0000
1000
0000
0010
0000
1000
0000
,
0020
0000
0000
0000
,
0230
0000
0000
0000
,
0000
0000
0000
0300
0020
0000
0000
0000
,
2030
0000
0000
0000
,
0000
0000
0000
3000
0002
0000
0000
0000
,
0203
0000
0320
0000
,
2030
0000
3200
0000
,
0320
0000
0000
0000
,
0000
0000
0000
0000
,
0000
0000
0000
0000
,
0000
0000
0000
0000
,
0000
0030
0000
0000
0000
0000
0000
0000
,
0000
0000
0000
0000
,
0000
0000
0000
0000
,
0000
0000
0000
0000
;
