#TITLE:After the Rain;
#SUBTITLE:;
#ARTIST:Yoccho;
#TITLETRANSLIT:;
#SUBTITLETRANSLIT:;
#ARTISTTRANSLIT:;
#CREDIT:Owem;
#BANNER:../banner.png;
#BACKGROUND:../bg.png;
#LYRICSPATH:;
#CDTITLE:../cdtitleowem.png;
#MUSIC:Yoccho - After the Rain.ogg;
#OFFSET:-0.036;
#SAMPLESTART:177.583;
#SAMPLELENGTH:29.999;
#SELECTABLE:YES;
#BPMS:0.000=172.998,320.000=86.499,352.000=172.998;
#STOPS:;
#BGCHANGES:;
// cache tags:
#FIRSTBEAT:0.000;
#LASTBEAT:1119.750;
#SONGFILENAME:Songs/Owem's Simfiles 08 - 1.2/After the Rain - [Owem] 1.0.2/After the Rain.sm;
#HASMUSIC:1;
#HASBANNER:1;
#MUSICLENGTH:401.005;
// end cache tags

//---------------dance-single - 16- (Owem)----------------
#NOTES:
     dance-single:
     16- (Owem):
     Challenge:
     16:
     1.000,1.000,0.005,0.491,1.000,3631.000,2.000,197.000,4.000,0.000:
1000
0100
0010
0001
1000
0000
0010
0100
0010
1000
0001
0010
0100
0000
1000
0100
,
0010
0001
1000
0001
0100
0000
0010
1000
0010
0100
0001
1000
0100
0000
0010
0001
,
1000
0001
0100
0010
0100
0000
0001
1000
0100
1000
0010
0100
0001
0000
1000
0100
,
0010
0001
1000
0001
0100
0000
0010
0100
0010
1000
0001
0010
0100
0000
1000
0100
,
1000
0001
1000
0010
0100
0000
0001
0010
0001
1000
0001
0100
0010
0000
1000
0100
,
0010
0001
1000
0001
0100
0000
0010
1000
0010
0100
0001
1000
0100
0000
0010
0001
,
1000
0001
0100
0010
0100
0000
0001
0010
0001
1000
0100
1000
0010
0000
0100
0001
,
1000
0001
0010
0100
1000
0000
0010
0100
0010
1000
0001
0100
0001
0000
0010
0100
,
1000
0001
1000
0010
,
0100
0000
0001
0000
1000
0000
0010
0100
,
0001
1000
0100
0010
,
0001
0000
1000
0000
0001
0000
1000
0010
,
0100
0001
0100
0010
1000
0001
1000
0100
,
0010
0001
1000
0100
1000
0010
0100
0001
,
1000
0100
0010
0001
0100
0001
1000
0010
0100
0010
1000
0001
0010
0001
0100
0010
,
1000
0010
0100
0001
1000
0100
0010
0001
1000
0100
1000
0001
0100
0010
0100
0001
,
1000
0100
0010
0001
1000
0001
0100
0010
1000
0010
0100
0001
1000
0010
1000
0001
,
1000
0100
0010
0001
1000
0100
1000
0001
0010
0001
1000
0001
0100
0010
0100
0001
,
1000
0100
1000
0001
0100
0001
0010
0100
1000
0001
0010
0100
0010
0001
1000
0010
,
1000
0001
0100
0010
0100
0001
1000
0100
0010
0001
1000
0100
1000
0010
0100
0010
,
1000
0001
0010
0001
0100
0010
0100
0001
1000
0010
1000
0001
1000
0100
0010
0001
,
1000
0100
1000
0001
0010
0001
0100
0010
1000
0010
0100
0001
0100
0010
1000
0010
,
0100
0001
1000
0001
0010
0100
1000
0001
0010
0001
0100
0010
1000
0010
0100
0001
,
1000
0100
0010
0001
1000
0100
1000
0001
1000
0010
0100
0010
1000
0001
0010
0001
,
0100
0010
1000
0010
0100
0001
1000
0100
1000
0001
1000
0100
0010
0001
1000
0010
,
0100
0010
1000
0001
0010
0001
0100
0010
1000
0010
0100
0001
1000
0100
1000
0001
,
0010
0001
1000
0010
0100
0010
1000
0001
0010
0001
0100
0010
1000
0010
0100
0001
,
1000
0100
0010
0001
1000
0100
1000
0001
0100
0001
1000
0010
0100
0010
1000
0001
,
0010
0001
0100
0010
1000
0010
0100
0001
1000
0100
0010
0001
1000
0100
1000
0001
,
0100
0010
1000
0010
0100
0001
1000
0100
0010
0001
0010
0100
1000
0001
0010
0001
,
1000
0010
0100
0010
1000
0001
0010
0001
0100
0010
1000
0010
0100
0001
1000
0100
,
0010
0001
1000
0100
1000
0001
0100
0010
1000
0010
0100
0001
1000
0001
1000
0100
,
0010
0001
1000
0100
1000
0010
1000
0001
0100
0010
0100
0001
1000
0100
1000
0001
,
0010
0001
0100
0010
1000
0010
0100
0001
1000
0100
0010
0001
1000
0001
0100
0010
,
1000
0010
0100
0001
1000
0100
1000
0001
0010
0001
0100
0010
1000
0010
0100
0001
,
1000
0100
0010
0001
1000
0100
1000
0001
0010
0001
0100
0010
1000
0010
0100
0001
,
1000
0100
0010
0001
1000
0100
1000
0001
0010
0001
0100
0010
1000
0010
0100
0001
,
1000
0100
0010
0001
1000
0001
0100
0010
1000
0010
0100
0001
1000
0100
0010
0001
,
1000
0100
1000
0001
0010
0001
0100
0010
0100
0001
1000
0010
1000
0100
0010
0001
,
1000
0100
1000
0001
0100
0001
1000
0100
0010
0001
1000
0100
1000
0010
0100
0010
,
1000
0001
0010
0001
0100
0010
1000
0010
0100
0001
1000
0100
0010
0001
1000
0100
,
1000
0001
0010
0001
0100
0010
1000
0010
0100
0001
1000
0100
0010
0001
1000
0100
,
1000
0001
0100
0010
0100
0001
1000
0100
1000
0001
0010
0001
0100
0010
1000
0010
,
0100
0001
1000
0100
0010
0001
0100
0001
0010
0100
1000
0001
0010
0001
1000
0001
,
0100
0010
1000
0010
0100
0001
1000
0100
0010
0001
1000
0100
1000
0001
1000
0010
,
0100
0001
0100
0010
1000
0100
1000
0001
0010
0001
0100
0010
1000
0010
0100
0001
,
1000
0100
1000
0001
0010
0001
1000
0100
0010
0001
1000
0001
0100
0010
1000
0001
,
0100
0020
0030
1000
0002
0003
0200
0300
,
0001
1000
0010
0100
0010
1000
0100
1000
0001
0010
0001
0100
0010
1000
0010
0100
,
0001
1000
0100
1000
0001
0010
0001
0100
0010
1000
0010
0100
0001
1000
0100
0010
,
0001
1000
0001
0100
0010
1000
0010
0100
0001
1000
0100
1000
0001
1000
0100
0010
,
0001
1000
0100
1000
0001
0010
0001
0100
0010
1000
0010
0100
0001
1000
0001
0100
,
0010
1000
0010
0100
0001
1000
0100
0010
0001
1000
0100
1000
0001
0010
0001
0100
,
0010
1000
0010
0100
0001
1000
0100
1000
0001
1000
0100
0010
0001
1000
0100
1000
,
0010
0100
0001
0010
0001
1000
0010
0100
0010
1000
0001
0010
0001
0100
0010
1000
,
0001
0010
0100
1000
0100
0010
0001
1000
0100
1000
0001
1000
0010
0100
0010
1000
,
0001
0010
0001
0100
0010
1000
0010
0100
0001
1000
0100
0010
0001
1000
0100
1000
,
0001
0010
0001
0100
0010
1000
0010
0100
0001
1000
0100
0010
0001
1000
0100
1000
,
0001
1000
0010
0100
0010
1000
0010
0100
0001
1000
0100
0010
0001
1000
0100
1000
,
0001
0010
0001
0100
0010
1000
0010
0100
0001
1000
0100
1000
0001
0100
0010
1000
,
0010
0100
0001
1000
0100
0010
0001
1000
0100
1000
0001
0010
0001
0100
0010
1000
,
0010
0100
0001
1000
0100
0010
0001
1000
0100
1000
0001
0100
0010
1000
0010
0100
,
0001
1000
0100
1000
0001
1000
0100
0010
0001
0100
0010
1000
0010
0100
0001
1000
,
0100
0010
0001
1000
0010
0100
0001
0100
0010
1000
0001
1000
0100
0010
0001
1000
,
0002
0003
0100
0020
0030
1000
0200
0300
,
0010
0002
0003
1000
0020
0030
0200
0300
,
0002
0000
0000
0003
1000
0000
0200
0000
0300
0000
0010
0000
0002
0000
0003
0000
,
1000
0000
0020
0000
0030
0000
0100
0000
0002
0000
0003
0000
2000
0000
0000
3000
,
0020
0030
0100
0002
0003
1000
0200
0300
,
1000
0000
0020
0000
0030
0000
0100
0000
0002
0000
0003
0000
0020
0000
0000
0030
,
0200
0300
1000
0020
0030
0100
0002
0003
,
1000
0000
0002
0000
0003
0000
0010
0000
0200
0000
0300
0000
2000
0000
0000
3000
,
0020
0030
0100
0002
0003
1000
0020
0030
,
0100
0000
0002
0000
0003
0000
1000
0000
0020
0000
0030
0000
0200
0000
0000
0300
,
0002
0003
1000
0200
0300
0010
0002
0003
,
1000
0000
0020
0000
0030
0000
0100
0000
0002
0000
0003
0000
2000
0000
0000
3000
,
0020
0030
0100
0002
0003
1000
0200
0300
,
0010
0000
0002
0000
0003
0000
1000
0000
0020
0000
0030
0000
0200
0000
0000
0300
,
0002
0003
1000
0020
0030
0100
0002
0003
,
1000
0200
0300
1000
0020
0030
2000
3000
,
1MM2
0000
0013
0100
0000
1000
0010
1000
0001
0000
0010
0100
0000
1000
0100
1000
,
0001
0000
0100
0010
0000
0100
0001
1000
0010
0000
0100
0001
0000
1000
0100
0010
,
0001
0000
1000
0010
0000
0100
0001
0010
0001
0000
0100
0010
0000
1000
0001
1000
,
0010
0000
0100
0001
0000
1000
0100
1000
0010
0000
0100
0001
0000
1000
0001
1000
,
0010
0000
0100
0001
0000
1000
0100
1000
0010
0000
0100
0001
0000
1000
0010
1000
,
0001
0000
0010
0100
0000
1000
0100
1000
0001
0000
0100
0010
0000
1000
0001
1000
,
0010
0000
0100
0001
0000
1000
0100
0010
0001
0000
1000
0010
0000
0100
0001
1000
,
0001
0000
0010
0100
0000
1000
0010
1000
0200
0000
0000
0000
0000
0000
0000
0000
,
0320
0030
0001
2000
3000
0100
0020
0030
,
0001
0000
2000
0000
3000
0000
0010
0000
0200
0000
0300
0000
0002
0000
0000
0003
,
2000
3000
0010
0200
0300
0001
2000
3000
,
0100
0000
0020
0000
0030
0000
0001
0000
0200
0000
0300
0000
0020
0000
0000
0030
,
2000
3000
0100
0020
0030
0001
2000
3000
,
0010
0000
2000
0000
3000
0000
0001
0000
0020
0000
0030
0000
0200
0000
0000
0300
,
2000
3000
0001
0200
0300
0010
2000
3000
,
0001
2000
3000
0100
0020
0030
0001
1000
,
0020
0030
0100
0002
0003
1000
0200
0300
,
0010
0000
0002
0000
0003
0000
1000
0000
0020
0000
0030
0000
0200
0000
0000
0300
,
0002
0003
1000
0200
0300
0010
0200
0300
,
1000
0000
0002
0000
0003
0000
0100
0000
0002
0000
0003
0000
2000
0000
0000
3000
,
0010
0100
0010
1000
0001
1000
0001
0010
,
0100
1000
0001
0010
0001
0100
0010
1000
,
0010
0100
0001
1000
0010
1000
0100
0010
0001
1000
0100
1000
0001
1000
0010
0100
,
0010
1000
0001
0010
0001
1000
0100
0010
0001
1000
0100
1000
0001
0100
0010
0100
,
0001
1000
0010
0100
0010
1000
0100
1000
0001
0010
0001
0100
0010
1000
0010
0100
,
0001
1000
0100
1000
0001
0010
0001
0100
0010
1000
0010
0100
0001
1000
0100
0010
,
0001
1000
0001
0100
0010
1000
0010
0100
0001
1000
0100
1000
0001
1000
0100
0010
,
0001
1000
0100
1000
0001
0010
0001
0100
0010
1000
0010
0100
0001
1000
0001
0100
,
0010
1000
0010
0100
0001
1000
0100
0010
0001
1000
0100
1000
0001
0010
0001
0100
,
0010
1000
0010
0100
0001
1000
0100
1000
0001
1000
0100
0010
0001
1000
0100
1000
,
0010
0100
0001
0010
0001
1000
0010
0100
0010
1000
0001
0010
0001
0100
0010
1000
,
0001
0010
0100
1000
0100
0010
0001
1000
0100
1000
0001
1000
0010
0100
0010
1000
,
0001
0010
0001
0100
0010
1000
0010
0100
0001
1000
0100
0010
0001
1000
0100
1000
,
0001
0010
0001
0100
0010
1000
0010
0100
0001
1000
0100
0010
0001
1000
0100
1000
,
0001
1000
0010
0100
0010
1000
0010
0100
0001
1000
0100
0010
0001
1000
0100
1000
,
0001
0010
0001
0100
0010
1000
0010
0100
0001
1000
0100
1000
0001
0100
0010
1000
,
0010
0100
0001
1000
0100
0010
0001
1000
0100
1000
0001
0010
0001
0100
0010
1000
,
0010
0100
0001
1000
0100
0010
0001
1000
0100
1000
0001
0100
0010
1000
0010
0100
,
0001
1000
0100
1000
0001
1000
0100
0010
0001
0100
0010
1000
0010
0100
0001
1000
,
0100
0010
0001
1000
0010
0100
0001
0100
0010
1000
0001
1000
0100
0010
0001
1000
,
0100
1000
0001
0010
0001
0100
0010
1000
0010
0100
0001
1000
0100
0010
0001
1000
,
0100
1000
0001
0010
0001
0100
0010
1000
0010
0100
0001
1000
0100
0010
0001
1000
,
0100
1000
0001
0100
0010
1000
0010
0100
0001
1000
0001
0010
0100
1000
0001
0010
,
0001
0100
0010
1000
0010
0100
0001
1000
0100
1000
0001
1000
0010
0100
0010
1000
,
0001
0010
0001
0100
0010
1000
0010
0100
0001
1000
0100
1000
0001
1000
0100
0010
,
0001
1000
0100
1000
0001
0010
0001
1000
0001
0100
0010
1000
0010
0100
0001
1000
,
0100
0010
0001
1000
0100
1000
0001
0010
0001
0100
0010
1000
0010
0100
0001
1000
,
0001
0100
0010
1000
0010
0100
0001
1000
0100
1000
0001
1000
0010
0100
0010
1000
,
0001
0010
0001
1000
0001
0100
0010
1000
0010
0100
0001
1000
0100
0010
0001
1000
,
0100
1000
0001
1000
0100
0010
0001
1000
0100
1000
0001
0010
0001
1000
0010
0100
,
0010
1000
0001
1000
0100
0010
0001
1000
0100
1000
0001
0010
0001
1000
0001
0100
,
0010
1000
0010
0100
0010
1000
0001
0100
0001
0010
0100
1000
0001
0010
0001
1000
,
0100
1000
0001
1000
0010
0100
0010
1000
0001
0100
0001
1000
0100
0010
0001
1000
,
0100
1000
0001
0010
0001
0100
0010
1000
0010
0100
0001
1000
0100
1000
0010
0100
,
0001
1000
0001
0010
0100
1000
0001
0010
0001
0100
0010
1000
0010
0100
0001
1000
,
0100
0010
0001
1000
0100
1000
0001
1000
0010
0100
0010
1000
0001
0010
0001
0100
,
0010
1000
0010
0100
0001
1000
0100
0010
0001
1000
0100
1000
0001
1000
0010
0100
,
0010
1000
0001
0100
0001
0010
0100
1000
0001
0010
0001
1000
0100
1000
0010
0100
,
0010
1000
0001
0100
0001
1000
0100
0010
0001
1000
0100
1000
0010
0100
0010
1000
,
0001
0010
0001
0100
0010
1000
0010
0100
0001
1000
0100
0010
0001
1000
0100
1000
,
0010
0100
0010
1000
0001
0100
0010
1000
0010
0100
0001
1000
0100
0010
0001
1000
,
0100
1000
0001
1000
0010
0100
0010
1000
0001
0010
0001
0100
0010
0100
0001
1000
,
0100
0010
0001
1000
0100
1000
0001
0010
0001
1000
0001
0100
0010
1000
0010
0100
,
0001
1000
0100
0010
0001
1000
0100
1000
0001
1000
0010
0100
0010
1000
0001
0100
,
0001
1000
0100
1000
0001
0010
0001
0100
0010
1000
0010
0100
0001
1000
0100
1000
,
0010
0100
0010
1000
0001
0010
0001
1000
0001
0100
0010
1000
0010
0100
0001
1000
,
0001
1000
0100
0010
0001
1000
0100
1000
0010
0100
0010
1000
0001
0010
0001
1000
,
0100
1000
0001
1000
0010
0100
0001
0010
0001
1000
0001
0010
0100
1000
0001
0010
,
0001
0100
0010
1000
0010
0100
0001
1000
0010
1000
0100
0010
0001
1000
0100
1000
,
0001
0100
0010
0100
0001
1000
0010
1000
0100
0010
0001
1000
0100
1000
0001
0010
,
0001
0100
0010
0100
0001
1000
0100
1000
0001
0010
0100
1000
0100
0010
0001
1000
,
0100
0010
0100
1000
0001
0010
0001
1000
0001
0100
0010
1000
0010
0100
0001
1000
,
0001
1000
0010
0100
0010
1000
0100
1000
0001
0010
0001
0100
0010
1000
0010
0100
,
0001
1000
0100
1000
0001
0010
0001
0100
0010
1000
0010
0100
0001
1000
0100
0010
,
0001
1000
0001
0100
0010
1000
0010
0100
0001
1000
0100
1000
0001
1000
0100
0010
,
0001
1000
0100
1000
0001
0010
0001
0100
0010
1000
0010
0100
0001
1000
0001
0100
,
0010
1000
0010
0100
0001
1000
0100
0010
0001
1000
0100
1000
0001
0010
0001
0100
,
0010
1000
0010
0100
0001
1000
0100
1000
0001
1000
0100
0010
0001
1000
0100
1000
,
0010
0100
0001
0010
0001
1000
0010
0100
0010
1000
0001
0010
0001
0100
0010
1000
,
0001
0010
0100
1000
0100
0010
0001
1000
0100
1000
0001
1000
0010
0100
0010
1000
,
0001
0010
0001
0100
0010
1000
0010
0100
0001
1000
0100
0010
0001
1000
0100
1000
,
0001
0010
0001
0100
0010
1000
0010
0100
0001
1000
0100
0010
0001
1000
0100
1000
,
0001
1000
0010
0100
0010
1000
0010
0100
0001
1000
0100
0010
0001
1000
0100
1000
,
0001
0010
0001
0100
0010
1000
0010
0100
0001
1000
0100
1000
0001
0100
0010
1000
,
0010
0100
0001
1000
0100
0010
0001
1000
0100
1000
0001
0010
0001
0100
0010
1000
,
0010
0100
0001
1000
0100
0010
0001
1000
0100
1000
0001
0100
0010
1000
0010
0100
,
0001
1000
0100
1000
0001
1000
0100
0010
0001
0100
0010
1000
0010
0100
0001
1000
,
0100
0010
0001
1000
0010
0100
0001
0100
0010
1000
0001
1000
0100
0010
0001
0100
,
0001
1000
0010
0100
0010
1000
0100
1000
0001
0010
0001
0100
0010
1000
0010
0100
,
0001
1000
0100
1000
0001
0010
0001
0100
0010
1000
0010
0100
0001
1000
0100
0010
,
0001
1000
0001
0100
0010
1000
0010
0100
0001
1000
0100
1000
0001
1000
0100
0010
,
0001
1000
0100
1000
0001
0010
0001
0100
0010
1000
0010
0100
0001
1000
0001
0100
,
0010
1000
0010
0100
0001
1000
0100
0010
0001
1000
0100
1000
0001
0010
0001
0100
,
0010
1000
0010
0100
0001
1000
0100
1000
0001
1000
0100
0010
0001
1000
0100
1000
,
0010
0100
0001
0010
0001
1000
0010
0100
0010
1000
0001
0010
0001
0100
0010
1000
,
0001
0010
0100
1000
0100
0010
0001
1000
0100
1000
0001
1000
0010
0100
0010
1000
,
0001
0010
0001
0100
0010
1000
0010
0100
0001
1000
0100
0010
0001
1000
0100
1000
,
0001
0010
0001
0100
0010
1000
0010
0100
0001
1000
0100
0010
0001
1000
0100
1000
,
0001
1000
0010
0100
0010
1000
0010
0100
0001
1000
0100
0010
0001
1000
0100
1000
,
0001
0010
0001
0100
0010
1000
0010
0100
0001
1000
0100
1000
0001
0100
0010
1000
,
0010
0100
0001
1000
0100
0010
0001
1000
0100
1000
0001
0010
0001
0100
0010
1000
,
0010
0100
0001
1000
0100
0010
0001
1000
0100
1000
0001
0100
0010
1000
0010
0100
,
0001
1000
0100
1000
0001
1000
0100
0010
0001
0100
0010
1000
0010
0100
0001
1000
,
0100
0010
0001
1000
0010
0100
0001
0100
0010
1000
0001
1000
0100
0010
0001
1000
,
0002
0003
0100
0020
0030
1000
0200
0300
,
0010
0002
0003
1000
0020
0030
0200
0300
,
0002
0000
0000
0003
1000
0000
0200
0000
0300
0000
0010
0000
0002
0000
0003
0000
,
1000
0000
0020
0000
0030
0000
0100
0000
0002
0000
0003
0000
2000
0000
0000
3000
,
0020
0030
0100
0002
0003
1000
0200
0300
,
1000
0000
0020
0000
0030
0000
0100
0000
0002
0000
0003
0000
0020
0000
0000
0030
,
0200
0300
1000
0020
0030
0100
0002
0003
,
1000
0000
0002
0000
0003
0000
0010
0000
0200
0000
0300
0000
2000
0000
0000
3000
,
0020
0030
0100
0002
0003
1000
0020
0030
,
0100
0000
0002
0000
0003
0000
1000
0000
0020
0000
0030
0000
0200
0000
0000
0300
,
0002
0003
1000
0200
0300
0010
0002
0003
,
1000
0000
0020
0000
0030
0000
0100
0000
0002
0000
0003
0000
2000
0000
0000
3000
,
0020
0030
0100
0002
0003
1000
0200
0300
,
0010
0000
0002
0000
0003
0000
1000
0000
0020
0000
0030
0000
0200
0000
0000
0300
,
0002
0003
1000
0020
0030
0100
0002
0003
,
1000
0200
0300
1000
0020
0030
2000
3000
,
2MM1
3001
0200
0320
1030
0020
0230
0301
,
2000
3200
0310
0002
2003
3100
2000
3001
,
0020
0031
2000
3002
0103
0020
2030
3010
,
0200
0302
1003
0200
0320
0031
2000
3100
,
2000
3001
0020
0032
0103
0020
2030
3010
,
0200
0302
1003
0200
2300
3001
0020
0031
,
2000
3001
0200
0320
1030
0020
0230
0301
,
2000
3200
0310
0002
2003
3100
2000
3002
,
0023
0031
0200
0320
1030
0020
0230
0301
,
2000
3200
1300
0020
0230
0301
2000
3001
,
0020
0130
2000
3002
0013
0002
2003
3100
,
2000
3002
1003
0020
0230
0310
2000
3010
,
0100
0001
1000
0001
0010
0100
1000
0001
,
0010
0001
1000
0001
0100
0010
0100
0001
,
1000
0010
0100
0001
1000
0001
0010
0100
1000
0100
0010
0001
1000
0010
1000
0001
,
0100
0001
0010
0100
1000
0100
0010
0001
1000
0010
1000
0001
1000
0010
0100
0001
,
1000
0010
0100
0001
1000
0001
0100
0010
1000
0100
0010
0001
1000
0100
0010
0001
,
1000
0010
0100
0001
1000
0010
1000
0001
0100
0001
1000
0001
0010
0100
0010
0001
,
1000
0010
1000
0001
0010
0001
0100
0010
1000
0001
0100
0010
0100
0001
1000
0100
,
1000
0001
0010
0100
0010
0001
1000
0010
0100
0001
1000
0010
1000
0100
0010
0100
,
1000
0001
0100
0001
0010
0100
0010
0001
1000
0100
1000
0001
1000
0010
0100
0001
,
1000
0010
1000
0001
0100
0001
0010
0100
1000
0100
0010
0001
1000
0010
1000
0100
,
0010
0001
1000
0001
0100
0010
1000
0001
0100
0001
0010
0100
1000
0100
0010
0001
,
1000
0010
0100
0001
1000
0010
1000
0001
1000
0100
0010
0100
1000
0001
0100
0001
,
0010
0100
1000
0100
0010
0001
1000
0010
1000
0001
1000
0010
0100
0001
1000
0100
,
0010
0100
1000
0001
0100
0001
0010
0100
1000
0001
0010
0001
1000
0010
1000
0001
,
0100
0001
1000
0100
0010
0100
1000
0001
0100
0001
0010
0100
1000
0001
0010
0001
,
1000
0010
0100
0001
1000
0010
1000
0001
0010
0001
1000
0100
0010
0100
1000
0001
,
0100
0001
0010
0100
1000
0100
0010
0001
1000
0010
0100
0001
1000
0010
1000
0001
,
0100
0010
1000
0010
0100
0001
1000
0010
0100
0001
0100
0010
1000
0001
0100
0001
,
1000
0100
0010
0100
1000
0001
0100
0001
0010
0100
1000
0100
0010
0001
1000
0010
,
0100
0001
1000
0010
1000
0001
0100
0001
1000
0100
0010
0001
1000
0001
1000
0010
,
0100
0001
1000
0010
1000
0100
1000
0001
0010
0100
0010
0001
1000
0010
1000
0001
,
0100
0001
1000
0001
1000
0100
0010
0001
1000
0010
0100
0001
1000
0001
0010
0100
,
1000
0001
0100
0001
1000
0010
0100
0001
0100
0001
0010
0100
1000
0001
0010
0001
,
1000
0010
0100
0001
1000
0010
1000
0001
0100
0001
0010
0100
1000
0001
0010
0001
,
1000
0100
0010
0001
1000
0100
1000
0001
0010
0001
1000
0010
1000
0010
0100
0001
,
1000
0100
0010
0001
1000
0001
0100
0010
1000
0010
0100
0001
1000
0100
0010
0001
,
1000
0100
1000
0001
0010
0001
0100
0010
0100
0001
1000
0010
1000
0100
0010
0001
,
1000
0100
1000
0001
0100
0001
1000
0100
0010
0001
1000
0100
1000
0010
0100
0010
,
1000
0001
0010
0001
0100
0010
1000
0010
0100
0001
1000
0100
0010
0001
1000
0100
,
1000
0001
0010
0001
0100
0010
1000
0010
0100
0001
1000
0100
0010
0001
1000
0100
,
1000
0001
0100
0010
0100
0001
1000
0100
1000
0001
0010
0001
0100
0010
1000
0010
,
0100
0001
1000
0100
0010
0001
0100
0001
0010
0100
1000
0001
0010
0001
1000
0001
,
0100
0010
1000
0010
0100
0001
1000
0100
0010
0001
1000
0100
1000
0001
1000
0010
,
0100
0001
0100
0010
1000
0100
1000
0001
0010
0001
0100
0010
1000
0010
0100
0001
,
1000
0100
1000
0001
0010
0001
1000
0100
1000
0100
0010
0001
1000
0001
0100
0010
,
1000
0010
0100
0001
1000
0010
0100
0001
1000
0100
0010
0001
1000
0100
1000
0001
,
0010
0001
1000
0001
0100
0010
0100
0001
1000
0100
1000
0001
0100
0001
0010
0100
,
1000
0001
0010
0100
0010
0001
1000
0010
1000
0001
0100
0010
0100
0001
1000
0100
,
0010
0001
1000
0100
1000
0010
0100
0010
1000
0001
0010
0001
0100
0010
0100
0001
,
1000
0010
1000
0001
1000
0100
0010
0001
1000
0100
1000
0001
0010
0001
0100
0010
,
1000
0010
0100
0001
0100
0010
1000
0010
0100
0001
1000
0001
0010
0100
1000
0001
,
0010
0001
0100
0010
1000
0100
0010
0001
1000
0010
0100
0001
1000
0010
1000
0001
,
1000
0100
0010
0100
1000
0001
0100
0001
0010
0100
1000
0100
0010
0001
1000
0010
,
1000
0001
1000
0010
0100
0001
1000
0100
0010
0100
1000
0001
0100
0001
0010
0100
,
1000
0100
0010
0001
1000
0010
1000
0001
0100
0001
1000
0100
0010
0100
1000
0001
,
0100
0001
1000
0100
1000
0100
0010
0001
1000
0010
0100
0001
1000
0010
1000
0001
,
0010
0001
1000
0100
0010
0100
1000
0001
0100
0001
0010
0100
1000
0100
0010
0001
,
1000
0010
0100
0001
1000
0010
1000
0001
0010
0100
1000
0001
0100
0001
1000
0010
,
0100
0001
0100
0010
1000
0001
0100
0001
1000
0100
0010
0100
1000
0001
0100
0001
,
0010
0100
1000
0010
1000
0001
1000
0010
0100
0001
1000
0010
1000
0001
0010
0100
,
1000
0001
0010
0001
1000
0001
1000
0010
0100
0001
1000
0010
1000
0100
1000
0001
,
0010
0100
0010
0001
1000
0010
1000
0001
0100
0001
1000
0100
1000
0100
0010
0001
,
1000
0100
1000
0001
0010
0001
1000
0001
,
0100
0010
1000
0010
0100
0001
1000
0100
,
0010
0001
1000
0100
1000
0001
0010
0001
,
1000
0010
0100
0001
0100
0010
1000
0001
,
1000
0100
0010
0001
1000
0100
1000
0001
,
0010
0001
0100
0010
1000
0010
0100
0001
,
1000
0100
1000
0001
1000
0100
0010
0001
,
1000
0100
1000
0001
0010
0001
1000
0010
,
0100
0010
1000
0001
0010
0001
0100
0010
,
1000
0010
0100
0001
1000
0100
1000
0001
,
1000
0010
0100
0001
0100
0010
1000
0001
,
0010
0100
0010
0001
1000
0100
1000
0001
,
1000
0100
0010
0001
1000
0100
1000
0001
,
0010
0001
0100
0010
1000
0010
0100
0001
,
1000
0100
0010
0001
1000
0001
0100
0010
0100
0001
1000
0010
1000
0001
0010
0001
,
0100
0010
1000
0010
0100
0001
1000
0100
0010
0001
1000
0100
1000
0001
1000
0010
;
