#TITLE:Mercury Skies;
#SUBTITLE:;
#ARTIST:John B;
#TITLETRANSLIT:;
#SUBTITLETRANSLIT:;
#ARTISTTRANSLIT:;
#CREDIT:;
#BANNER:MS-bn.png;
#BACKGROUND:MS.png;
#LYRICSPATH:;
#CDTITLE:;
#MUSIC:John B - Mercury Skies (LotFD Edit).mp3;
#OFFSET:-0.045;
#SAMPLESTART:35.907;
#SAMPLELENGTH:12.000;
#SELECTABLE:YES;
#DISPLAYBPM:174.000;
#BPMS:0.000=174.000,96.000=87.000,158.000=348.000,166.000=174.000,222.000=87.000,224.000=348.000,230.000=174.000;
#STOPS:;
#BGCHANGES:;
// cache tags:
#FIRSTBEAT:23.500;
#LASTBEAT:367.000;
#SONGFILENAME:Songs/Community Keyboard Megapack - Volume 2/(djRen) Mercury Skies/mercury skies.sm;
#HASMUSIC:1;
#HASBANNER:1;
#MUSICLENGTH:149.028;
// end cache tags

//---------------dance-single - ----------------
#NOTES:
     dance-single:
     :
     Hard:
     11:
     0.980,1.000,1.000,0.114,0.768,795.000,210.000,17.000,0.000,0.000:  // measure 1
0000
0000
0000
0000
,  // measure 2
0000
0000
0000
0000
,  // measure 3
0000
0000
0000
0000
,  // measure 4
0000
0000
0000
0000
,  // measure 5
0000
0000
0000
0000
,  // measure 6
0000
0000
0000
0000
0000
0000
0000
0000
0000
0000
0000
0000
0000
0000
1000
0100
,  // measure 7
0011
0000
0001
0100
0010
0000
1000
0100
0001
0100
0000
0010
0001
0000
1000
0010
,  // measure 8
0101
0000
0010
1000
0100
0000
0100
0010
0001
0100
0001
0100
0010
1000
0010
1000
,  // measure 9
0110
1000
0100
0011
0001
0100
1001
0010
,  // measure 10
1100
0000
1100
0000
0010
1000
0100
0000
0010
0000
0101
0000
0001
0000
0010
0100
,  // measure 11
0011
0000
0011
0000
0100
0001
0010
0000
0100
0000
1010
0000
1000
0000
0100
0010
,  // measure 12
1001
0000
1001
0000
0001
1000
0100
0000
0010
0000
1100
0000
0010
1000
0001
0100
,  // measure 13
0110
0000
0110
0000
1000
0001
0010
0000
0100
0000
0011
0000
0100
0001
1000
0010
,  // measure 14
1100
0001
1100
0000
1000
0100
1000
0100
1000
0000
1010
0000
0001
1000
0001
1000
,  // measure 15
0101
1000
0010
1000
0001
0010
0001
1000
0100
1000
0001
1000
0010
1000
0100
0010
,  // measure 16
0001
0010
0001
1000
0001
0100
0001
0010
0001
0100
0001
1000
0001
0010
0100
0010
,  // measure 17
1001
0100
1001
0000
1000
0000
0110
1000
0110
0000
0001
0000
0011
0100
0011
0000
,  // measure 18
0001
0100
0010
0000
1010
0000
0010
1000
0100
0010
0011
0000
1000
0000
0001
0100
,  // measure 19
1010
0000
1010
0000
0010
0000
1000
0000
0100
0010
0100
0000
0011
0000
0100
0000
,  // measure 20
0011
0000
0011
0000
0010
0000
0001
0000
0100
0010
0100
0000
1010
0000
0100
0000
,  // measure 21
1001
0000
1001
0000
0100
0000
0010
0000
1000
0001
1000
0000
0110
0000
0010
0000
,  // measure 22
0110
0000
0110
0000
0001
0000
1000
0000
0010
0100
0010
0000
1001
0000
1000
0000
,  // measure 23
1000
0100
0001
0100
0010
0100
0001
0100
1000
0001
0100
0001
0010
0100
1000
0001
,  // measure 24
0100
0010
1000
0001
0010
0100
1001
0000
0100
0010
0001
0000
1001
0000
0100
0010
,  // measure 25
1001
1010
1000
0100
0011
0001
0100
0110
1000
0100
0010
0010
0000
0001
0100
0010
,  // measure 26
1100
0000
0100
0000
1100
0000
0100
1100
0000
0010
0100
0001
0000
0001
0010
0100
,  // measure 27
1001
0101
0001
0010
1100
1000
0010
0110
0001
0010
0100
0100
0000
1000
0010
0100
,  // measure 28
0011
0000
0010
0000
0011
0000
0010
0011
0000
0100
0010
1000
0000
1000
0100
0010
,  // measure 29
1001
0100
0000
1001
0100
0000
1001
0010
0000
0010
0001
0100
0000
0001
0100
0001
,  // measure 30
1010
0000
1000
0000
1010
0000
0010
1010
0000
0010
0100
0001
0000
0010
0100
1000
,  // measure 31
0110
1000
0000
0110
1000
0000
0110
0001
0000
1000
0100
0001
0000
0100
1000
0010
,  // measure 32
0101
0000
0001
0000
0101
0000
0100
0101
0000
0100
0010
1000
0000
0100
0010
0001
,  // measure 33
1002
0000
0000
0100
0000
0000
0000
0000
,  // measure 34
0203
0000
0000
0010
0000
1000
0000
0010
,  // measure 35
0320
0000
0000
0000
,  // measure 36
0000
0000
0000
0000
2030
0000
0000
3001
,  // measure 37
2001
0000
0000
0100
0000
0000
0000
0000
,  // measure 38
3200
0000
0000
0010
0000
0001
0000
0010
,  // measure 39
0320
0000
0000
0000
,  // measure 40
0000
0000
0000
0032
0000
0000
0000
0000
,  // measure 41
0000
0000
0000
0000
,  // measure 42
0000
0000
0003
0000
1001
0100
0101
0011
,  // measure 43
1000
1010
1100
0001
1001
0100
1100
1010
,  // measure 44
0001
0000
0011
0000
0101
0000
1000
0001
0110
0000
1000
0000
1010
0000
0101
0000
,  // measure 45
0010
1100
0011
0100
0110
0001
0011
1100
,  // measure 46
0010
0000
0101
0000
1010
0000
0100
0010
1001
0000
0010
0000
0101
0000
1100
0000
,  // measure 47
0100
1010
0011
0001
1001
0010
0011
1010
,  // measure 48
0100
0000
1100
0000
0101
0000
0010
0001
1100
0000
0001
0000
1010
0000
1100
0000
,  // measure 49
1000
0000
0101
0000
0011
0000
1000
0010
0101
0000
1000
0000
0011
0000
0101
1000
,  // measure 50
0010
0000
1100
0000
1010
0000
0010
0100
1001
0000
1000
0100
0010
0000
0110
0000
,  // measure 51
0100
0010
0001
0000
0011
0000
0010
0001
0100
0000
0101
0000
0001
0100
0010
0000
,  // measure 52
0110
0000
0100
0010
1000
0000
1010
0000
0010
1000
0001
0000
1001
0000
1000
0001
,  // measure 53
0010
0000
0011
0000
0001
0010
1000
0000
1010
0000
1000
0010
0100
0000
0110
0000
,  // measure 54
0100
1000
0001
0000
1001
0000
0100
0010
1001
0010
0100
0000
0011
0000
0010
0000
,  // measure 55
1010
0000
0010
0000
0011
0000
0010
0000
1001
0100
0010
0000
1100
0000
0100
0000
,  // measure 56
0101
0100
1100
0100
1002
0000
0000
0000
,  // measure 57
2003
0000
0000
0000
,  // measure 58
0000
0000
0000
0000
3010
0000
1001
1001
,  // measure 59
0010
1000
0100
0000
1000
0000
0110
0000
0100
0000
0001
0010
1001
0000
1001
0000
,  // measure 60
0100
0001
0010
0000
0001
0000
0110
0000
0010
0000
1000
0100
0011
0000
0011
0000
,  // measure 61
1000
0100
0010
0001
1000
0000
0101
0000
0010
1000
0010
0000
1010
0000
1010
0000
,  // measure 62
0001
0100
0010
1000
0001
0000
1100
0000
0010
0001
0010
0100
1001
0000
1001
0000
,  // measure 63
0110
0000
0001
0100
0000
0010
1001
0000
0100
1000
0001
0100
1001
0000
1001
0000
,  // measure 64
0110
0000
1000
0100
0000
0010
1001
0000
0100
0001
1000
0010
0101
0010
1100
0000
,  // measure 65
0010
1000
0010
1000
0000
0100
0011
0000
1000
0000
0001
0010
1100
0010
0101
0000
,  // measure 66
0010
0001
0010
0001
0000
0100
1010
0000
0001
0000
1000
0100
1010
0000
1010
0000
,  // measure 67
1001
0000
0010
1000
0000
0100
0001
0000
0100
0010
0001
1000
0011
0000
0011
0000
,  // measure 68
1001
0000
0010
0001
0000
0100
1000
0000
0100
0010
1000
0001
1001
0000
0110
0000
,  // measure 69
0010
0000
1000
0001
0010
0100
0010
0000
0001
0100
0001
0000
0110
0000
1001
0000
,  // measure 70
0100
0000
0010
0100
1000
0001
1000
0000
0010
1000
0010
0000
0101
0000
1010
0000
,  // measure 71
0011
0000
1000
0100
1000
0000
0110
0000
0001
0100
0001
0000
1100
0000
0011
0000
,  // measure 72
1010
0000
0001
0100
0001
0000
0110
0000
1000
0100
1000
0000
0110
0000
0101
0000
,  // measure 73
1100
0000
0100
0010
0100
0010
0100
0000
0010
0100
0010
0002
2000
0000
0000
0000
,  // measure 74
0000
0000
0000
0000
0000
3003
0101
0100
,  // measure 75
0010
0110
0010
1000
1010
1000
0100
1100
,  // measure 76
0100
0010
0110
0010
0001
0011
0001
1000
,  // measure 77
1001
1000
0010
1010
0010
0100
1001
0100
,  // measure 78
0010
0000
1001
0000
0100
0000
0100
0000
1001
0000
0110
0000
1000
0100
0010
0000
,  // measure 79
1001
0000
0001
0100
0010
0000
1001
0000
0010
0100
0001
0000
1010
0000
0010
0100
,  // measure 80
1000
0000
0011
0000
0001
0100
1000
0000
0101
0000
1000
0100
0001
0000
1100
0000
,  // measure 81
0010
0100
0010
0000
1001
0000
0100
0010
0001
1000
0001
0000
1000
0100
1000
0000
,  // measure 82
0100
0010
0100
0000
0010
0001
0010
0000
0001
0100
0001
0000
2000
0000
0100
0000
,  // measure 83
0001
3002
0100
1000
0023
0100
1000
0001
,  // measure 84
0100
0000
0001
0000
1000
0000
0031
0000
0100
0010
0100
0000
1001
0000
1001
0000
,  // measure 85
0011
0000
0001
0100
0000
0010
0100
0000
1010
0000
1000
0100
1001
0000
1001
0000
,  // measure 86
1010
0000
1000
0100
0000
0010
0100
0000
0011
0000
0001
0100
1010
0000
0011
0000
,  // measure 87
0100
0000
0001
1000
0100
0010
0001
1000
0010
0000
0100
0000
0101
0000
1100
0000
,  // measure 88
0010
0000
1000
0001
0010
0100
1000
0001
0100
0000
0010
0000
0001
0100
1000
0010
,  // measure 89
0001
1000
0100
0001
0010
1000
0001
0100
1000
0010
0001
0100
1000
0010
0001
0100
,  // measure 90
1000
0001
0010
1000
0100
0001
1000
0010
0001
0100
1000
0010
2002
0000
0000
0000
,  // measure 91
0000
0000
0000
0000
,  // measure 92
0000
0000
0000
3003
;
