#TITLE:Stone Tower;
#SUBTITLE:Inverted Mix;
#ARTIST:Zelda MM;
#TITLETRANSLIT:;
#SUBTITLETRANSLIT:;
#ARTISTTRANSLIT:;
#CREDIT:;
#BANNER:bag.png;
#BACKGROUND:bag-bg.png;
#LYRICSPATH:;
#CDTITLE:Dance Dance Revolution Extreme.png;
#MUSIC:244-rockvale_temple_(inside).mp3;
#OFFSET:0.473;
#SAMPLESTART:23.480;
#SAMPLELENGTH:12.000;
#SELECTABLE:YES;
#BPMS:0.000=100.020,104.000=50.010,112.000=100.020;
#STOPS:;
#BGCHANGES:;
// cache tags:
#FIRSTBEAT:12.000;
#LASTBEAT:188.000;
#SONGFILENAME:Songs/newbie/ST MM Im/bag.sm;
#HASMUSIC:1;
#HASBANNER:0;
#MUSICLENGTH:118.807;
// end cache tags

//---------------dance-single - ----------------
#NOTES:
     dance-single:
     :
     Challenge:
     7:
     0.410,0.574,0.505,0.278,0.025,248.000,60.000,33.000,0.000,0.000:
0000
0000
0000
0000
,
0000
0000
0000
0000
,
0000
0000
0000
0000
,
0002
0000
0000
0000
,
2003
0000
0100
0010
0000
3100
0010
0000
,
1002
0103
2001
3100
,
0010
0000
0010
1000
0000
0001
0100
0010
,
2000
0001
0001
0000
0000
0001
0001
3000
,
0010
1010
0001
0101
1000
0010
1002
0000
,
0103
1000
0100
0010
0001
0010
1001
0000
,
1020
0000
0130
0000
0011
0010
1001
0010
,
1000
0010
0200
0010
1300
0000
1001
0000
,
0010
0100
0001
1000
0011
0000
0000
0001
,
0100
0010
1010
1100
1010
0001
0011
0000
,
0102
0000
0023
0000
2030
3001
0110
0000
,
0001
1000
0010
0100
0102
0000
0013
0000
,
1010
0000
1100
0000
0012
0010
0013
0000
,
0010
0100
0001
1000
0001
1000
0100
0000
,
0011
0000
1000
1100
0000
0010
1001
0000
,
0010
2000
0001
0010
0000
0010
0010
0000
,
0010
0000
0010
0010
0000
0001
0100
0000
,
3010
0000
0100
1000
0000
0100
0010
0000
,
0001
1000
0010
0100
0001
1100
0101
0000
,
0010
1000
0001
0100
0010
0011
1100
0000
,
0110
0001
1010
0001
1100
0010
0011
0000
,
1001
0110
1010
0101
1100
0011
1000
0000
,
0100
0000
0100
0000
0100
0000
0000
0000
1000
0000
0001
0100
0010
0000
0000
0000
,
1000
1100
0010
0011
0120
0000
0230
0000
0301
1000
0010
0100
0010
1100
0120
0000
,
0230
0000
0010
0010
0010
0000
0000
0310
,
0000
0010
1000
0010
0200
0000
0300
0000
,
0010
0000
1000
0010
0200
0000
0000
0310
,
0000
1000
0100
0010
0002
0000
0003
0000
,
0100
2000
0010
0000
0000
0010
0010
0000
,
0010
0000
0001
0000
0000
0001
0001
0000
,
0020
3000
0100
0100
0000
1030
1100
0000
,
0020
0000
0130
0001
0000
1000
1100
0000
,
1020
0000
0031
0011
0000
0001
1001
0000
,
0020
1000
1000
0000
0000
0100
0100
0000
,
0001
1000
0001
1000
0001
1000
0001
0030
,
0100
1000
0010
0001
0010
0100
0010
0000
,
1002
0000
0010
0000
0100
0010
1003
0000
,
1010
0101
1100
0011
1001
0110
1001
0000
,
0020
0000
1030
0000
0012
0010
0013
0000
,
0010
0100
1000
0100
0010
0001
0010
0000
,
0100
0000
2000
0000
0002
0000
3003
1000
,
0100
0010
1000
0010
1001
0000
0110
0000
,
2002
0000
0000
0000
,
3003
0000
0000
0000
;
