#TITLE:Burn Dinorex(Megaman X5);
#SUBTITLE:;
#ARTIST:Capcom Sound Team;
#TITLETRANSLIT:;
#SUBTITLETRANSLIT:;
#ARTISTTRANSLIT:;
#CREDIT:Jason D. Gersztyn;
#BANNER:Burn Dinorex-banner.JPG;
#BACKGROUND:Burn Dinorex-bg.JPG;
#LYRICSPATH:;
#CDTITLE:PhoenixW-cdtitle.JPG;
#MUSIC:17 - X5 - BURN DINOREX STAGE.mp3;
#OFFSET:-0.366;
#SAMPLESTART:63.136;
#SAMPLELENGTH:12.000;
#SELECTABLE:YES;
#BPMS:0.000=130.012;
#STOPS:;
#BGCHANGES:;
// cache tags:
#FIRSTBEAT:0.000;
#LASTBEAT:375.500;
#SONGFILENAME:Songs/keyboard/X5 - BURN DINOREX STAGE/17 - X5 - BURN DINOREX STAGE.sm;
#HASMUSIC:1;
#HASBANNER:1;
#MUSICLENGTH:177.875;
// end cache tags

//---------------dance-single - ----------------
#NOTES:
     dance-single:
     :
     Challenge:
     10:
     0.602,0.897,0.079,0.405,0.599,663.000,14.000,72.000,0.000,5.000:
1000
0001
0000
1000
0000
0000
0001
1000
0001
0010
0100
0000
0000
0000
0000
0000
,
2002
0000
0000
0000
,
0000
3203
0320
0000
,
0000
0000
0032
2003
,
3010
0100
0001
0010
0100
1000
0010
0001
,
0010
1000
0001
0100
0010
1000
0100
1001
,
0001
0010
0110
0100
1000
1001
0100
0110
,
0001
0000
1000
0000
0010
0000
0100
0001
0000
0100
0001
0000
0010
0000
0010
0000
,
0100
0000
1000
0000
0001
0000
0100
0010
0000
0100
0010
0000
1000
0000
1000
0000
,
0001
0000
0100
0000
0010
0000
0100
0001
0000
0001
1000
0000
0010
0000
0010
0000
,
0100
0000
0001
0000
0100
0000
0010
1000
0000
1000
0100
0000
0010
0000
0010
0000
,
0001
0000
0010
0000
0100
0000
1000
0001
0000
0100
0001
0000
0100
0000
0100
0000
,
0010
0000
1000
0000
0010
0000
0100
0001
0000
0010
0100
0000
1000
0000
1000
0000
,
0010
0000
0100
0000
0010
0000
1000
0100
0000
0010
0001
0000
0010
0000
0010
0000
,
0100
0000
1000
0000
0100
0000
0001
0100
0000
0010
1000
0000
0001
0000
0001
0000
,
2000
0000
0000
0000
0000
0000
0000
0000
3020
0000
0000
0000
0000
0000
0130
0001
,
0100
0000
0000
0010
0000
0000
1000
0000
0002
0000
0000
0000
0000
0000
0000
0000
,
0203
0000
0000
0000
0000
0000
0310
1000
0002
0000
0000
0000
0000
0000
1003
0010
,
1000
0000
0000
0100
0000
0000
0001
0000
0020
0000
0000
0000
0230
0000
0000
0000
,
2300
0000
0000
0000
0000
0000
0000
0000
3020
0000
0000
0000
0000
0000
1030
0001
,
1000
0000
0000
0101
0000
0000
0010
0000
2000
0000
0000
0000
0000
0000
0000
0000
,
3200
0000
0000
0000
0000
0000
1300
0001
0020
0000
0000
0000
0000
0000
0130
1000
,
0100
0000
0000
0011
0000
0000
0100
0000
1000
0000
0000
0001
0000
0000
0100
0000
,
0020
0000
0000
0000
,
0130
0000
0000
0001
0000
0000
1000
0000
0200
0000
0000
0000
0000
0000
0000
0000
,
0312
0000
0000
0000
,
0000
0000
0003
0000
,
1000
0010
0100
0001
2000
0000
0000
0000
3002
0000
0000
0000
0000
0000
0000
0000
,
0203
0000
0000
0000
0000
0000
0301
1000
0020
0000
0000
0000
0000
0000
0000
0000
,
0130
1000
0100
0010
0001
1000
0100
0010
0100
1000
0001
0010
,
0100
0001
0100
0020
0000
0000
0032
0000
0000
0000
0000
0000
,
1003
0010
1000
0100
0020
0000
0000
0000
0032
0000
0000
0000
0000
0000
0000
0000
,
1203
0000
0000
0000
0000
0000
0301
1000
0002
0000
0000
0000
0000
0000
0103
0010
,
0200
0000
0000
0000
,
0301
0010
0001
0100
0010
1000
0001
0100
0001
0010
0100
1000
,
0020
0000
0000
0000
,
0130
0001
0100
0010
1000
0100
0010
0100
1000
0010
0100
0001
0100
0010
1000
0001
,
0010
0001
0100
0010
1000
0100
0010
0001
0100
0010
1000
0100
0001
0010
0100
1000
,
0001
0010
0100
1000
0001
0010
0100
1000
0001
0010
0100
1000
0001
1000
0100
0010
0001
1000
0100
0010
0001
1000
0100
0010
,
0001
0000
1000
0000
0100
0000
0010
0001
0000
0010
0001
0000
0100
0000
0100
0000
,
0010
0000
1000
0000
0001
0000
0100
0010
0000
0100
0010
0000
1000
0000
1000
0000
,
0010
0000
0100
0000
0010
0000
1000
0100
0000
1000
0010
0000
0100
0000
0100
0000
,
0010
0000
0001
0000
0010
0000
0100
1000
0000
0001
1000
0000
0010
0000
0010
0000
,
0100
0000
0001
0000
1000
0000
0010
0100
0000
0010
0100
0000
0001
0000
0001
0000
,
0010
0000
0100
0000
1000
0000
0001
0010
0000
0001
0010
0000
0100
0000
0100
0000
,
1000
0000
0001
0000
1000
0000
0100
0010
0000
0010
0001
0000
0100
0000
0100
0000
,
0010
0000
1000
0000
0010
0000
0100
0001
0000
0001
0010
0000
0100
0000
0100
0000
,
1000
0000
0001
0000
0010
0000
0100
1000
0000
0010
0100
0000
0010
0000
0010
0000
,
1000
0000
0100
0000
1000
0000
0010
0001
0000
1000
0001
0000
0100
0000
0100
0000
,
0001
0000
0010
0000
1000
0000
0010
0100
0000
1000
0010
0000
1000
0000
1000
0000
,
0001
0000
0100
0000
0001
0000
1000
0010
0000
0100
0001
0000
0010
0000
0010
0000
,
0002
0000
0000
0000
0000
0000
0000
0000
0203
0000
0000
0000
0000
0000
0310
1000
,
0010
0000
0000
0100
0000
0000
0001
0000
2000
0000
0000
0000
0000
0000
0000
0000
,
3020
0000
0000
0000
0000
0000
0130
0001
2000
0000
0000
0000
0000
0000
3001
0100
,
0001
0000
0000
0010
0000
0000
1000
0000
0200
0000
0000
0000
0320
0000
0000
0000
,
0032
0000
0000
0000
0000
0000
0000
0000
0203
0000
0000
0000
0000
0000
0301
1000
,
0001
0000
0000
1010
0000
0000
0100
0000
0002
0000
0000
0000
0000
0000
0000
0000
,
0023
0000
0000
0000
0000
0000
0031
1000
0200
0000
0000
0000
0000
0000
0310
0001
,
0010
0000
0000
1100
0000
0000
0010
0000
0001
0000
0000
1000
0000
0000
0010
0000
,
0200
0000
0000
0000
,
0310
0000
0000
1000
0000
0000
0001
0000
0020
0000
0000
0000
0000
0000
0000
0000
,
2130
0000
0000
0000
,
0000
0000
3000
0000
,
0001
0100
0010
1000
0002
0000
0000
0000
2003
0000
0000
0000
0000
0000
0000
0000
,
3020
0000
0000
0000
0000
0000
1030
0001
0200
0000
0000
0000
0000
0000
0000
0000
,
0310
0001
0010
0100
1000
0001
0010
0100
0010
0001
1000
0100
,
0010
1000
0010
0200
0000
0000
2300
0000
0000
0000
0000
0000
,
3001
0100
0001
0010
0200
0000
0000
0000
2300
0000
0000
0000
0000
0000
0000
0000
,
3021
0000
0000
0000
0000
0000
1030
0001
2000
0000
0000
0000
0000
0000
3010
0100
,
0020
0000
0000
0000
,
0130
0001
0100
0010
1000
0001
0100
0010
0100
0001
0010
0100
,
2000
0000
0000
0000
,
3001
0010
0001
0100
0010
1000
0001
1000
0100
0010
0001
0100
0001
0010
0100
1000
,
0010
1000
0001
0100
0010
1000
0100
0010
0001
1000
0010
0000
0001
0010
0100
1000
,
0001
0100
0010
1000
0001
0100
0010
1000
0001
0100
0010
1000
0001
1000
0010
0100
0001
1000
0010
0100
0001
1000
0010
0100
,
0001
0000
0010
0000
0100
0000
1000
0010
0000
1000
0010
0000
0100
0000
0100
0000
,
0010
0000
1000
0000
0001
0000
0100
0010
0000
0100
0010
0000
1000
0000
1000
0000
,
0010
0000
0001
0000
0010
0000
1000
0100
0000
1000
0001
0000
0010
0000
0010
0000
,
0100
0000
1000
0000
0100
0000
0010
0001
0000
1000
0001
0000
0010
0000
0010
0000
,
0100
0000
1000
0000
0001
0000
0100
0010
0000
0100
0010
0000
1000
0000
1000
0000
,
0100
0000
0010
0000
0001
0000
1000
0100
0000
1000
0100
0000
0010
0000
0010
0000
,
0001
0000
1000
0000
0001
0000
0010
0100
0000
0100
1000
0000
0010
0000
0010
0000
,
0100
0000
0001
0000
0100
0000
0010
1000
0000
1000
0100
0000
0010
0000
0010
0000
,
0001
0000
1000
0000
0100
0000
0010
0001
0000
0100
0010
0000
0100
0000
0100
0000
,
0001
0000
0010
0000
0001
0000
0100
1000
0000
0001
1000
0000
0010
0000
0010
0000
,
1000
0000
0100
0000
0001
0000
0100
0010
0000
0001
0100
0000
0001
0000
0001
0000
,
1000
0000
0010
0000
1000
0000
0001
0100
0000
0010
1000
0000
0100
0000
0100
0000
,
0020
0000
0000
0000
0000
0000
0000
0000
0032
0000
0000
0000
0000
0000
1003
0100
,
1000
0000
0000
0001
0000
0000
0010
0000
0200
0000
0000
0000
0000
0000
0000
0000
,
2300
0000
0000
0000
0000
0000
3001
0010
0200
0000
0000
0000
0000
0000
0310
0001
,
0010
0000
0000
0100
0000
0000
1000
0000
0002
0000
0000
0000
2003
0000
0000
0000
,
3020
0000
0000
0000
0000
0000
0000
0000
0032
0000
0000
0000
0000
0000
0013
1000
,
0010
0000
0000
0101
0000
0000
0010
0000
0200
0000
0000
0000
0000
0000
0000
0000
,
0302
0000
0000
0000
0000
0000
0103
0010
2000
0000
0000
0000
0000
0000
3000
0000
;

//---------------dance-single - ----------------
#NOTES:
     dance-single:
     :
     Hard:
     8:
     0.451,0.686,0.084,0.405,0.219,475.000,15.000,72.000,0.000,5.000:
1000
0001
0000
1000
0001
0100
0000
0000
,
2002
0000
0000
0000
,
0000
3203
0320
0000
,
0000
0000
0032
2003
,
3010
0100
0001
0010
0100
1000
0010
0001
,
0010
1000
0001
0100
0010
1000
0100
1001
,
0001
0010
0010
0100
0100
1000
1000
0110
,
0001
1000
0100
0100
,
0010
0001
0100
0100
,
0010
1000
0100
0100
,
0010
0001
1000
1000
,
0100
0010
0001
0001
,
1000
0100
0010
0010
,
0100
1000
0001
0001
,
0100
0010
1000
1001
,
2000
0000
0000
0000
0000
0000
0000
0000
3020
0000
0000
0000
0000
0000
0130
0001
,
0100
0000
0000
0010
0000
0000
1000
0000
0002
0000
0000
0000
0000
0000
0000
0000
,
0203
0000
0000
0000
0000
0000
0310
1000
0002
0000
0000
0000
0000
0000
1003
0010
,
1000
0000
0000
0100
0000
0000
0001
0000
0020
0000
0000
0000
0230
0000
0000
0000
,
2300
0000
0000
0000
0000
0000
0000
0000
3020
0000
0000
0000
0000
0000
1030
0001
,
1000
0000
0000
0101
0000
0000
0010
0000
2000
0000
0000
0000
0000
0000
0000
0000
,
3200
0000
0000
0000
0000
0000
1300
0001
0020
0000
0000
0000
0000
0000
0130
1000
,
0100
0000
0000
0011
0000
0000
0100
0000
1000
0000
0000
0001
0000
0000
0100
0000
,
0020
0000
0000
0000
,
0130
0000
0000
0001
0000
0000
1000
0000
0200
0000
0000
0000
0000
0000
0000
0000
,
0312
0000
0000
0000
,
0000
0000
0003
0000
,
1000
0010
0100
0001
2000
0000
0000
0000
3002
0000
0000
0000
0000
0000
0000
0000
,
0203
0000
0000
0000
0000
0000
0301
1000
0020
0000
0000
0000
0000
0000
0000
0000
,
0130
0001
0010
0100
0010
0001
1000
0100
,
0010
0001
0020
0000
0032
0000
0000
0000
,
1003
0010
1000
0100
0020
0000
0000
0000
0032
0000
0000
0000
0000
0000
0000
0000
,
1203
0000
0000
0000
0000
0000
1300
0001
2000
0000
0000
0000
0000
0000
3100
0010
,
0200
0000
0000
0000
,
1300
0010
0100
0001
0100
0010
1000
0100
,
0020
0000
0000
0000
,
0031
1000
0100
0010
0001
1000
0001
0100
,
0010
1000
0001
0100
1000
0100
0001
0010
,
0001
1000
0100
0010
0001
1000
0100
0010
0001
1000
0001
0010
0100
1000
0001
0010
,
0100
0000
1000
0000
0100
0000
0010
0001
0000
0010
0001
0000
0100
0000
0100
0000
,
0010
0000
1000
0000
0001
0000
0100
0010
0000
0100
0010
0000
1000
0000
1000
0000
,
0010
0000
0100
0000
0010
0000
1000
0100
0000
1000
0010
0000
0100
0000
0100
0000
,
0010
0000
0001
0000
0010
0000
0100
1000
0000
0001
1000
0000
0010
0000
0010
0000
,
0100
0010
0001
0001
,
0100
0010
1000
1000
,
0001
0100
1000
1000
,
0010
0001
1000
1000
,
0100
0010
0001
0001
,
0010
0100
0010
0010
,
0001
1000
0100
0100
,
0001
0010
0100
0110
,
0002
0000
0000
0000
0000
0000
0000
0000
0203
0000
0000
0000
0000
0000
0310
1000
,
0010
0000
0000
0100
0000
0000
0001
0000
2000
0000
0000
0000
0000
0000
0000
0000
,
3020
0000
0000
0000
0000
0000
0130
0001
2000
0000
0000
0000
0000
0000
3001
0100
,
0001
0000
0000
0010
0000
0000
1000
0000
0200
0000
0000
0000
0320
0000
0000
0000
,
0032
0000
0000
0000
0000
0000
0000
0000
0203
0000
0000
0000
0000
0000
0301
1000
,
0001
0000
0000
1010
0000
0000
0100
0000
0002
0000
0000
0000
0000
0000
0000
0000
,
0023
0000
0000
0000
0000
0000
0031
1000
0200
0000
0000
0000
0000
0000
0310
0001
,
0010
0000
0000
1100
0000
0000
0010
0000
0001
0000
0000
1000
0000
0000
0010
0000
,
0200
0000
0000
0000
,
0310
0000
0000
1000
0000
0000
0001
0000
0020
0000
0000
0000
0000
0000
0000
0000
,
2130
0000
0000
0000
,
0000
0000
3000
0000
,
0001
0100
0010
1000
0002
0000
0000
0000
2003
0000
0000
0000
0000
0000
0000
0000
,
3020
0000
0000
0000
0000
0000
1030
0001
0200
0000
0000
0000
0000
0000
0000
0000
,
0310
1000
0100
0010
0100
1000
0001
0010
,
0100
1000
0200
0000
2300
0000
0000
0000
,
3001
0100
0001
0010
0200
0000
0000
0000
2300
0000
0000
0000
0000
0000
0000
0000
,
3021
0000
0000
0000
0000
0000
0031
1000
0002
0000
0000
0000
0000
0000
0013
0100
,
0020
0000
0000
0000
,
0031
0100
0010
1000
0010
0100
0001
0010
,
0200
0000
0000
0000
,
1300
0001
0010
0100
1000
0001
1000
0010
,
0100
0001
1000
0010
0001
0010
1000
0100
,
1000
0001
0100
0010
1000
0001
0100
0010
1000
0001
1000
0010
0100
0001
1000
0010
,
0100
0000
0001
0000
0100
0000
1000
0010
0000
1000
0010
0000
0100
0000
0100
0000
,
0010
0000
1000
0000
0001
0000
0100
0010
0000
0100
0010
0000
1000
0000
1000
0000
,
0010
0000
0001
0000
0010
0000
1000
0100
0000
1000
0001
0000
0010
0000
0010
0000
,
0100
0000
1000
0000
0100
0000
0010
0001
0000
1000
0001
0000
0010
0000
0010
0000
,
0100
0001
0010
0010
,
0100
1000
0001
0001
,
0010
0100
1000
1000
,
0010
0001
1000
1000
,
0010
0001
0100
0100
,
0010
1000
0010
0010
,
0100
0001
0010
0010
,
0100
0001
1000
1100
,
0020
0000
0000
0000
0000
0000
0000
0000
0032
0000
0000
0000
0000
0000
1003
0100
,
1000
0000
0000
0001
0000
0000
0010
0000
0200
0000
0000
0000
0000
0000
0000
0000
,
2300
0000
0000
0000
0000
0000
3001
0010
0200
0000
0000
0000
0000
0000
0310
0001
,
0010
0000
0000
0100
0000
0000
1000
0000
0002
0000
0000
0000
2003
0000
0000
0000
,
3020
0000
0000
0000
0000
0000
0000
0000
0032
0000
0000
0000
0000
0000
0013
1000
,
0010
0000
0000
0101
0000
0000
0010
0000
0200
0000
0000
0000
0000
0000
0000
0000
,
0302
0000
0000
0000
0000
0000
0103
0010
2000
0000
0000
0000
0000
0000
3000
0000
;
