#TITLE:Apreta En La Disco;
#SUBTITLE:-Party RmX-;
#ARTIST:Plan B ft. Trebol Clan;
#TITLETRANSLIT:;
#SUBTITLETRANSLIT:;
#ARTISTTRANSLIT:;
#CREDIT:;
#BANNER:Apreta En La Disco-banner.PNG;
#BACKGROUND:;
#LYRICSPATH:;
#CDTITLE:!tizaTitle.png;
#MUSIC:Plan_B_Ft_Trebol_Clan_-_En_La_Disco_Apreta_(Party_RmX).ogg;
#OFFSET:-0.060;
#SAMPLESTART:44.501;
#SAMPLELENGTH:18.000;
#SELECTABLE:YES;
#BPMS:0.000=43.000,8.000=86.000,60.000=172.000,312.000=86.000,328.000=172.000,584.000=86.000,588.000=172.000;
#STOPS:180.000=0.275
,180.250=0.275
,180.500=0.120
,180.625=0.120
,180.750=0.120
,180.875=0.120
,181.000=0.180
,181.500=0.180
,676.000=0.270
,676.250=0.270
,676.500=0.120
,676.625=0.120
,676.750=0.120
,676.875=0.120
,677.000=0.180
,677.500=0.180
,776.000=0.280
,776.250=0.275
,776.500=0.120
,776.625=0.120
,776.750=0.120
,776.875=0.120
,777.000=0.180
,777.500=0.180
,788.000=0.275
,788.250=0.270
,788.500=0.120
,788.625=0.120
,788.750=0.120
,788.875=0.120
,789.000=0.180
,789.500=0.180
;
#BGCHANGES:;
// cache tags:
#FIRSTBEAT:7.750;
#LASTBEAT:792.000;
#SONGFILENAME:Songs/Reggaeton and more/Apreta En La Disco (Party RMX)/Pollinosis.sm;
#HASMUSIC:1;
#HASBANNER:1;
#MUSICLENGTH:318.145;
// end cache tags

//---------------dance-single - ----------------
#NOTES:
     dance-single:
     :
     Challenge:
     12:
     0.661,0.934,0.613,0.097,0.322,1232.000,195.000,31.000,88.000,41.000:


0000
0000
0000
0000
,
0000
0000
0000
0000
0000
0000
0000
0000
0000
0000
0000
0000
0000
0000
0000
0001
,
1000
0000
0000
0000
1000
0100
0010
0100
1000
0010
0100
0001
0100
0000
1010
0000
,
0101
0001
0100
0010
1000
0000
1100
0100
0010
0001
0010
0100
1000
0000
1001
0000
,
0110
0010
0000
0000
0000
0000
0000
0000
1000
0010
0001
0010
1000
0100
0000
0000
,
0000
0000
0000
0000
0000
0110
0000
0000
0000
0000
0000
0000
0000
0000
0000
0000
0000
0000
0000
0000
1000
0000
0000
0000
0010
0000
0000
0000
0100
0000
0000
0000
,
0002
0000
0000
0000
0000
0010
1000
0010
,
2000
0000
0010
0000
0003
0001
0100
0010
,
0002
0000
0010
0000
3000
0010
0100
0010
,
2000
0000
0100
0000
3003
1000
0001
0010
,
2200
0000
0000
0000
0300
0100
0001
0010
,
0200
0000
0001
0000
3000
1000
0001
0010
,
2000
0000
0010
3300
0000
1000
0100
0020
,
0002
1000
0033
0000
,
1000
0100
0000
0001
1000
0010
0001
0000
,
0101
1100
0110
0011
,
1001
0101
1010
1100
,
0011
0110
1001
0110
,
1001
0110
1001
0110
,
1001
1000
0100
0010
0100
1000
0010
0100
,
0001
0010
0100
0010
0001
0100
0010
1000
,
0001
0100
0001
0100
0010
1000
0010
1000
0100
1000
0100
1000
0010
1000
0001
0100
,
0010
1000
0010
1000
0010
1000
0001
0100
0001
0000
0100
0000
0010
0000
1000
0000
,
1001
1001
0110
1001
,
0110
0000
1000
0100
0010
0100
1000
0000
,
0101
0000
0000
0000
0000
0000
1010
0000
0000
0000
0000
0000
1000
0100
0000
0000
0000
0000
1000
0001
0000
0000
0000
0000
,
1000
0010
0000
0000
0000
0000
1000
0001
0000
0000
0000
0000
1000
0100
0000
0000
0000
0000
1000
0010
0000
0000
0000
0000
,
2000
0020
0000
0000
0000
0000
0000
0000
0000
0030
0000
0000
0002
0000
0000
0000
0000
0000
0000
0000
0000
0000
0000
0000
,
3003
0000
0000
0000
0000
0000
1000
0100
0000
0010
0000
0000
0000
0000
0000
0001
0100
0000
0010
0000
0000
0000
0000
0000
,
2002
0000
0010
3003
,
0000
0000
0000
0000
,
1001
0000
1011
0000
,
0110
0000
1101
0000
,
0111
0000
0000
0000
0000
0000
0000
0000
0000
0000
0000
0000
1000
0100
0000
0000
0000
0000
0010
0001
0000
0000
0000
0000
,
0001
0100
0000
0000
0000
0000
0100
0010
0000
0000
0000
0000
0010
1000
0000
0000
0000
0000
1000
0001
0000
0000
0000
0000
,
0001
1000
0000
0000
0000
0000
0000
0000
0000
0000
0000
0000
1001
0000
0000
0000
0000
0000
0000
0000
0000
0000
0000
0000
,
1110
0000
1111
0000
,
1001
0000
0000
0000
0000
0000
0110
0000
0000
0000
0000
0000
1000
0100
0000
0000
0000
0000
0100
1000
0000
0000
0000
0000
,
1000
0010
0000
0000
0000
0000
0010
0100
0000
0000
0000
0000
0100
0001
0000
0000
0000
0000
0001
1000
0000
0000
0000
0000
,
1001
0000
1110
0000
,
1011
0000
0111
0000
,
1001
0000
0000
0000
0000
0000
0110
0000
0000
0000
0000
0000
1000
0100
0000
0000
0000
0000
1000
0100
0000
0000
0000
0000
,
1000
0001
0000
0000
0000
0000
1000
0001
0000
0000
0000
0000
1000
0010
0000
0000
0000
0000
1000
0010
0000
0000
0000
0000
,
1001
0110
1001
0110
,
1001
0110
1001
0110
,
1001
0000
0110
0000
1000
0100
0010
0001
1001
0000
0000
0000
0110
0000
0000
0000
1001
0000
0000
0000
0000
0000
0000
0000
0110
0000
0000
0000
0000
0000
0000
0000
,
1001
0000
1001
0000
1000
0100
0010
0001
,
1000
0010
0100
0001
0100
0010
1000
0001
,
1001
0000
0110
1000
0100
0010
0001
0010
,
0110
0000
0000
0000
0000
0000
0000
0000
0000
0000
0000
0000
1001
0000
0000
0000
0000
0000
0000
0000
0000
0000
0000
0000
0000
0000
0000
0000
0000
0000
0000
0000
0000
0000
0000
1000
0000
0000
0000
0000
0000
0001
0000
0000
0000
0000
0000
0000
,
0000
1000
0100
0010
0100
1000
0001
0100
,
0010
0100
0001
1000
0001
0000
1001
0000
,
1000
0000
0000
0001
0000
0000
1000
0000
0000
0001
0000
0000
1000
0100
0000
0000
0000
0000
1000
0100
0000
0000
0000
0000
,
0100
1000
0000
0000
0000
0000
0100
1000
0000
0000
0000
0000
1000
0001
0000
0000
0000
0000
0001
1000
0000
0000
0000
0000
,
1001
1000
0100
0010
,
0001
0100
0010
1000
,
1010
0000
0000
0000
0000
0000
0010
0000
0000
0000
0000
0000
0100
0001
0000
0000
0000
0000
0010
0100
0000
0000
0000
0000
,
1000
0010
0000
0000
0000
0000
0100
0010
0000
0000
0000
0000
0100
0001
0000
0000
0000
0000
0001
0100
0000
0000
0000
0000
,
0110
0010
0100
0001
0010
0100
0010
0001
,
1000
0100
0010
0001
0010
0100
1000
0010
,
0100
0001
0100
0001
0100
0001
0100
0001
0100
0010
0100
0010
1000
0010
1000
0010
,
1000
0100
0010
0100
1000
0001
0100
0010
0100
0000
0001
0000
0010
0000
0100
0000
,
1001
0110
0000
1100
,
1001
0000
0101
0001
0100
0010
1000
0100
,
0110
1001
0000
0110
,
0000
0000
1100
0000
0000
0000
0011
0000
0010
0001
0010
0001
0010
0000
0001
1000
,
0001
1001
0000
1000
,
1001
0000
0000
0000
0001
0100
0010
1000
,
0100
0010
0001
0010
0100
1000
0010
0100
,
0001
1000
1001
1000
0100
0010
0100
1000
,
1001
0101
0000
1100
,
0110
0000
0011
0001
0100
0010
1000
0010
,
1010
1001
0000
2000
,
0200
0000
0010
0000
0001
0000
0010
0010
,
3301
1100
0000
0101
,
1010
0000
0000
0000
1000
0100
0010
0001
,
1000
0100
0010
0001
1000
0010
0100
0010
,
1000
0000
2002
0000
0010
3003
2200
0000
,
0001
0300
0000
0000
0000
0000
0000
0000
0000
0000
0100
0000
0010
0000
0100
0000
,
0002
0000
0000
0010
0000
0000
0010
0000
0010
0000
0000
0010
0000
0000
0010
0000
,
0010
0000
3003
0000
2002
0000
0000
0000
0000
0003
0010
0000
0100
0000
0010
0000
,
0200
0000
0010
0001
0000
0001
0010
0000
0010
0000
0010
0010
0000
0001
0001
3300
,
1100
1001
0101
0110
,
1010
0000
1000
0100
0010
0001
1000
0000
,
1001
0000
0000
0000
0000
0000
0110
0000
0000
0000
0000
0000
1000
0100
0000
0000
0000
0000
0010
0001
0000
0000
0000
0000
,
0001
0100
0000
0000
0000
0000
0010
1000
0000
0000
0000
0000
1000
0001
0000
0000
0000
0000
0001
0100
0000
0000
0000
0000
,
1001
1000
0100
0010
0100
1000
0001
0100
,
0010
0100
0001
0010
0100
0010
0001
1000
,
1000
0100
0010
0001
1000
0010
0100
0001
0100
0010
1000
0001
0010
0100
1000
0100
,
0010
0001
0010
0001
0010
0100
1000
0100
1000
0000
0100
0000
0010
0000
0001
0000
,
1001
0110
1001
1001
,
0110
0000
1000
0100
0010
0001
1000
0000
,
0001
0000
0000
0000
0000
0000
0010
0000
0000
0000
0000
0000
0100
1000
0000
0000
0000
0000
0100
1000
0000
0000
0000
0000
,
1000
0010
0000
0000
0000
0000
1000
0010
0000
0000
0000
0000
1000
0100
0000
0000
0000
0000
0010
0001
0000
0000
0000
0000
,
2002
0000
0010
3003
,
0000
0000
0000
0000
0000
0000
1000
0100
0000
0010
0000
0000
0000
0000
0000
0010
0100
0000
1000
0000
0000
0000
0000
0000
,
2002
0000
0000
0000
0000
0000
0010
0000
3003
0000
0000
0000
,
0000
0000
1000
0010
0001
1000
0100
0001
,
1001
0000
0110
0000
0001
0010
0100
0010
,
0001
0100
0010
0100
0001
0000
1001
1000
,
0100
0010
0001
0010
1100
0000
1010
0100
,
0001
0010
0100
0010
0001
0000
1001
1000
,
0001
0000
0101
0000
0001
0100
0010
1000
,
0100
0010
0100
1000
0010
0000
0101
0000
,
1000
0010
0001
0000
1001
0000
1000
0100
,
0001
0010
0100
1000
1001
0001
0101
0100
,
0110
0000
1001
0000
0000
1000
0100
0010
,
0100
1000
0010
0001
0010
0000
1000
0100
,
0001
1000
0010
0001
1000
0000
0001
0000
,
0000
1000
0001
1000
0001
0000
1001
0000
,
0000
0001
0100
0010
1000
0001
0010
0100
,
1000
0100
0010
0001
1001
0000
0110
0000
,
0000
1000
0010
0100
0001
0000
1001
0000
,
0000
0001
0010
1000
0010
0001
0100
0010
,
1000
0000
1010
0000
0110
0100
0001
0010
,
0110
0000
1001
0000
0110
0010
1000
0100
,
0010
0001
0010
0001
0010
0001
0010
0001
,
0010
0001
0010
0001
0010
0001
0010
0100
,
1100
0000
1001
0000
0101
0100
0010
1000
,
1010
0000
0000
0000
0000
0000
0110
0000
0000
0000
0000
0000
0000
0000
0000
0000
0000
1000
0000
0100
0000
0010
0000
0001
,
0000
0000
0010
0000
0000
0000
0100
0000
0000
0000
1000
0000
0000
0000
0000
0000
0000
0000
0000
0000
0000
0000
0000
0000
0000
0000
0000
0000
0000
1001
0000
0000
0000
0000
0000
1000
0000
0000
0000
0000
0100
0000
0000
0000
0000
0010
0000
0000
,
0000
0001
0000
0000
0000
0000
1001
0000
0000
0000
0000
0000
1000
0000
0000
0010
0000
0000
0100
0000
0000
0001
0000
0000
,
1001
0000
0110
0000
0000
1000
0100
0010
,
1100
0000
1001
0000
0000
0001
0100
0010
,
1000
0010
1000
0010
1000
0010
1000
0010
,
1000
0000
0000
0000
0010
0000
0100
0000
0001
0100
0010
1000
0100
0000
1000
0001
,
1000
0000
0110
0000
0000
1000
0100
0010
,
0001
0000
1001
0000
M000
00M0
0M00
000M
,
00M0
M000
0M00
000M
0M00
00M0
M000
0M00
,
000M
00M0
1000
0010
0001
1000
0100
0001
,
1001
0110
0MM0
1100
,
0110
0000
0011
0001
0100
0010
1000
0100
,
0010
1001
M00M
0110
,
1001
M00M
0110
0MM0
,
1100
0011
00MM
0101
,
1010
0000
M0M0
0000
1000
0100
0010
0100
,
1000
0001
0100
0010
0100
0001
0010
0100
,
1000
0000
1001
0001
0100
0010
0100
0001
,
1001
1010
M0M0
2000
,
0002
3000
0013
0001
0010
0100
0010
0001
,
1001
0110
0MM0
1100
,
0011
0000
00MM
0000
1001
0000
0000
1000
,
1100
1001
M00M
0101
,
1010
0000
M0M0
0000
1000
0100
0001
1000
,
0010
0001
0100
1000
0001
0010
1000
0001
,
1000
0000
0000
0000
0000
0000
0000
0000
1001
0000
0000
0000
0000
0000
0000
0000
0000
0000
0000
0000
0000
1000
0000
0000
0000
0000
0000
0000
0000
0000
0000
0000
,
1001
0000
000M
0000
00MM
0000
0MMM
0000
MMMM
0000
0MMM
0000
00MM
0000
100M
0100
,
1000
0010
0100
0001
0100
0010
1000
0100
,
0010
0001
0100
1000
0001
0010
1000
0100
,
0010
0100
1000
0001
0100
0010
0100
0001
,
0010
0100
0010
0001
1000
0100
0010
0100
,
1000
0001
0100
0010
0100
0001
0010
0100
,
0010
0001
1000
0010
0100
0010
1000
0100
,
0010
0001
0010
0001
0010
0001
1000
0010
1000
0010
1000
0010
0100
0001
0100
0001
,
0100
0001
0100
0001
0010
0100
1000
0100
1000
0000
0100
0000
0010
0000
0100
0000
,
1000
0001
1000
0001
1001
0000
0000
0001
,
0100
0010
0100
0010
0110
0000
0000
0100
,
0001
0010
0100
0010
0110
0000
1001
0000
,
0000
0000
0110
0000
0000
0000
1001
0000
1000
0100
1000
0100
1000
0000
0001
0100
,
0001
0100
0010
0100
0101
0000
0000
1000
,
0100
0010
0100
1000
1001
0000
0000
0001
,
0100
0010
1000
0100
0110
0000
0000
0000
,
0000
0010
0001
0100
1000
0000
0100
0000
,
0001
0100
0010
1000
0100
0010
0001
0010
,
0100
1000
0100
0000
0010
0001
0010
0000
,
0100
1000
0010
0100
0010
1000
0100
0010
,
0001
0001
0001
0000
1000
1000
1000
0000
,
1001
0001
0100
0010
0001
1000
0001
0010
,
1000
0100
0010
0010
0001
0100
0010
0010
,
1000
0000
0100
0000
0010
0001
0010
0100
1000
0000
0000
0000
0001
0000
0000
0000
1000
0000
0000
0000
0000
0000
0000
0000
1001
0000
0000
0000
0000
0000
0000
0000
,
1000
0100
0010
0001
1000
0010
0100
0001
,
1000
0100
0010
0001
1000
0010
0100
0001
,
0001
0100
0010
1000
0001
0010
0100
1000
,
0001
0100
0010
1000
0001
0010
0100
1000
,
0001
0100
0010
1000
0001
0010
0100
1000
,
0001
0010
0100
0010
0001
1000
0100
0010
,
0100
1000
0001
1000
0001
1000
0001
1000
0100
1000
0100
1000
0010
1000
0010
1000
,
0001
1000
0001
1000
0010
1000
0001
1000
0100
0000
0010
0000
0001
0000
0010
0000
,
0100
0MM0
MMMM
0MM0
,
1111
MM00
MMM0
0MM0
,
0MMM
0000
0000
0000
0000
0000
00MM
0000
0000
0000
0000
0000
1000
0100
0000
0000
0000
0000
1000
0100
0000
0000
0000
0000
,
1000
0010
0000
0000
0000
0000
1000
0010
0000
0000
0000
0000
1000
0100
0000
0000
0000
0000
1000
0010
0000
0000
0000
0000
,
1001
0000
MMMM
0000
,
1111
00MM
0MMM
0MM0
,
MMM0
0000
0000
0000
0000
0000
MM00
0000
0000
0000
0000
0000
0001
0100
0000
0000
0000
0000
0001
1000
0000
0000
0000
0000
,
0001
0010
0000
0000
0000
0000
0001
0010
0000
0000
0000
0000
0001
1000
0000
0000
0000
0000
0001
0100
0000
0000
0000
0000
,
1001
1000
0100
0010
0100
1000
0001
0000
,
0001
0100
0010
0000
0100
0010
0100
0000
,
1010
1000
0010
1000
0100
0010
0001
0000
,
0000
0000
1001
0000
0000
0000
0110
0000
1000
0100
1000
0100
0010
0000
0001
1000
,
0001
0000
0000
1000
0000
0000
0001
0100
0000
0000
0000
0000
0001
0100
0000
0000
0000
0000
0001
0100
0000
0000
0000
0000
,
0001
0000
0000
0100
0000
0000
0010
1000
0000
0000
0000
0000
0010
1000
0000
0000
0000
0000
0010
1000
0000
0000
0000
0000
,
1000
0000
0000
0100
0000
0000
0010
0001
0000
0000
0000
0000
0001
0010
0000
0000
0000
0000
0010
0100
0000
0000
0000
0000
,
1000
0010
0000
0000
0000
0000
0100
0001
0000
0000
0000
0000
0001
0010
0000
0000
0000
0000
0010
0100
0000
0000
0000
0000
,
0001
0000
0010
0000
0100
1000
0100
1000
0100
0000
0000
0000
0010
0000
0000
0000
0001
0000
0000
0000
0000
0000
0000
0000
1001
0000
0000
0000
0000
0000
0000
0000
,
1000
0000
0001
0100
0010
1000
0000
0000
,
0000
0000
1000
0000
0000
0000
0100
0000
0010
0001
0010
0100
1000
0000
1000
0001
,
0100
0000
0100
0000
0010
0010
0010
0010
0010
0000
0000
0000
0100
0000
0000
0000
0010
0000
0000
0000
0000
0000
0000
0000
0100
0000
0000
0000
0000
0000
0000
0000
,
1001
0000
0000
0000
;
